VERSION	0.00.00	1.04.00
FES_MODE	0
BPM_DEF	147.000	147.000	147.000	147.000
MET_DEF	4	4
RESOLUTION	384
CLK_DEF	384
COMPATIBLE_CODE	MA2

BPM	0	0	147.000
MET	0	0	4	4

NMHLD	2	0	2	144
NMTAP	2	144	3
NMTAP	2	288	4
NMHLD	3	0	5	192
NMTAP	3	96	4
NMTAP	3	192	3
NMTAP	3	288	3
NMTAP	3	288	5
NMTAP	4	0	0
NMTAP	4	0	1
NMHLD	4	72	2	72
NMSTR	4	72	7
NMSXL	4	72	7	96	216	3
NMTAP	5	0	1
NMTAP	5	48	1
NMTAP	5	96	1
NMTAP	5	96	3
NMTAP	5	144	1
NMTAP	5	192	1
NMTAP	5	192	3
NMTAP	5	288	3
NMTAP	5	288	4
NMTAP	6	0	4
NMTAP	6	0	5
NMSTR	6	72	3
NMSXL	6	72	3	96	216	7
NMHLD	6	72	6	72
NMTAP	7	0	5
NMTAP	7	48	5
NMTAP	7	96	5
NMTAP	7	96	7
NMTAP	7	144	5
NMHLD	7	192	5	96
NMSTR	7	192	7
BRSUL	7	192	7	96	48	2
BXTAP	8	0	0
BXTAP	8	0	1
NMTAP	8	48	2
NMTAP	8	96	3
NMTAP	8	96	4
NMTAP	8	144	5
NMHLD	8	192	6	48
NMTAP	8	240	7
NMTAP	8	264	7
NMTAP	9	0	6
NMTAP	9	0	7
NMTAP	9	48	5
NMTAP	9	96	3
NMTAP	9	96	4
NMTAP	9	144	2
NMHLD	9	192	1	48
NMTAP	9	240	0
NMTAP	9	264	0
NMTAP	10	0	2
NMTAP	10	0	3
NMTAP	10	48	1
NMTAP	10	96	0
NMTAP	10	96	7
NMTAP	10	144	6
NMHLD	10	192	5	48
NMTAP	10	240	4
NMTAP	10	264	4
NMTAP	11	0	4
NMTAP	11	0	6
NMTAP	11	72	1
NMTAP	11	72	3
NMTAP	11	144	0
NMTAP	11	144	7
NMSTR	11	192	0
NMSF_	11	192	0	96	48	4
NMTAP	11	192	7
NMTTP	11	288	0	A	1	M1
NMTAP	12	0	2
NMSTR	12	0	6
BRSCL	12	0	6	96	240	2
NMHLD	12	192	0	96
CNSUR	12	336	2	0	240	6
NMHLD	13	0	7	96
NMTAP	13	192	0
NMSTR	13	288	2
NMSCR	13	288	2	96	312	6
NMHLD	14	0	6	96
NMHLD	14	192	7	96
CNSUL	14	312	6	0	264	1
NMHLD	15	0	0	96
NMTAP	15	192	7
NMTAP	15	288	0
NMTAP	15	288	6
BXTAP	16	0	6
BXTAP	16	0	7
BXTAP	16	96	3
BXTAP	16	96	4
BXTAP	16	192	0
BXTAP	16	192	1
NMTAP	16	240	2
NMTAP	16	288	3
NMTAP	16	336	4
NMTTP	17	0	1	E	0	M1
EXTAP	17	0	5
EXTAP	17	96	2
NMTTP	17	96	7	E	0	M1
EXTAP	17	192	1
NMTTP	17	192	4	E	0	M1
NMTAP	17	240	0
NMTAP	17	288	7
NMTAP	17	336	6
NMHLD	18	0	6	96
EXTAP	18	48	7
EXTAP	18	96	7
NMTAP	18	144	1
NMHLD	18	192	1	96
EXTAP	18	240	0
EXTAP	18	288	0
NMTAP	18	336	0
NMTAP	18	336	7
NMTAP	19	0	6
NMTAP	19	0	7
NMTAP	19	48	4
NMTAP	19	48	5
NMTAP	19	96	2
NMTAP	19	96	3
NMTAP	19	144	1
NMTAP	19	168	0
NMTAP	19	216	2
NMTAP	19	216	7
NMTAP	19	264	3
NMTAP	19	264	4
BRTAP	19	312	1
BRTAP	19	312	5
EXSTR	20	0	0
NMSI_	20	0	0	96	48	4
NMTAP	20	96	4
NMTAP	20	144	5
NMSTR	20	192	6
NMSI_	20	192	6	96	48	3
NMTAP	20	240	6
NMTAP	20	288	3
NMTAP	20	336	2
NMSTR	21	0	1
NMSI_	21	0	1	96	48	5
NMTAP	21	48	1
NMTAP	21	96	5
NMTAP	21	144	6
NMSTR	21	192	7
NMSI_	21	192	7	96	48	3
NMTAP	21	240	7
NMTAP	21	288	3
NMTAP	21	336	2
NMSTR	22	0	1
NMSI_	22	0	1	96	48	3
NMTAP	22	48	1
NMSTR	22	96	4
NMSI_	22	96	4	96	48	6
NMTAP	22	144	4
NMSTR	22	192	2
NMSI_	22	192	2	96	48	0
NMTAP	22	240	2
NMSTR	22	288	7
NMSI_	22	288	7	96	48	2
NMSI_	22	288	7	96	48	3
NMSTR	23	96	1
NMSI_	23	96	1	96	48	4
NMTAP	23	144	1
NMSTR	23	192	5
NMSI_	23	192	5	96	48	7
NMTAP	23	240	5
NMSTR	23	288	0
NMSI_	23	288	0	96	48	4
NMSI_	23	288	0	96	48	5
NMSTR	24	96	6
NMSCL	24	96	6	96	48	3
NMTAP	24	144	6
NMTAP	24	192	3
NMTAP	24	240	2
NMSTR	24	288	1
NMSI_	24	288	1	96	48	4
NMTAP	24	336	1
NMTAP	25	0	4
NMTAP	25	48	5
NMSTR	25	96	6
NMSCR	25	96	6	96	48	1
NMTAP	25	144	6
NMTAP	25	192	1
NMTAP	25	240	2
NMTAP	25	288	3
NMHLD	26	0	0	96
NMHLD	26	0	2	96
NMTAP	26	144	6
NMTAP	26	192	6
NMHLD	26	240	5	96
NMHLD	26	240	7	96
NMTAP	27	0	4
NMTAP	27	0	6
NMTAP	27	72	1
NMTAP	27	72	3
NMTAP	27	144	2
NMTAP	27	144	5
NMTAP	27	192	2
NMTAP	27	192	5
BRTAP	27	288	0
BRTAP	27	288	7
NMHLD	28	0	1	72
NMHLD	28	72	2	72
NMSTR	28	144	3
NMSLL	28	144	3	96	96	4
NMTAP	28	240	5
NMTAP	28	288	5
NMHLD	29	0	6	72
NMHLD	29	72	5	72
NMSTR	29	144	4
NMSLR	29	144	4	96	96	3
NMTAP	29	240	2
NMTAP	29	288	2
NMHLD	30	0	0	72
NMHLD	30	72	1	72
NMSTR	30	144	2
NMSLR	30	144	2	96	96	1
NMTAP	30	240	0
NMTAP	30	288	0
NMHLD	31	0	7	72
NMHLD	31	72	6	72
NMSTR	31	144	5
NMSLL	31	144	5	96	96	6
NMTAP	31	240	7
NMTAP	31	288	7
NMSTR	32	0	0
NMSCL	32	0	0	96	96	6
NMSTR	32	96	6
NMSCL	32	96	6	96	96	4
NMSTR	32	192	4
NMSCL	32	192	4	96	96	2
NMSTR	32	288	2
NMSCL	32	288	2	96	96	0
NMSTR	33	0	0
NMSSL	33	0	0	96	120	4
NMTAP	33	96	4
NMTAP	33	192	5
NMTAP	33	288	4
NMTAP	33	288	5
NMSTR	34	0	7
NMSI_	34	0	7	96	96	3
NMSTR	34	96	3
NMSCL	34	96	3	96	96	0
NMSTR	34	192	0
NMSI_	34	192	0	96	96	4
NMSTR	34	288	4
NMSCR	34	288	4	96	96	7
NMSTR	35	0	7
NMSSL	35	0	7	96	120	3
NMTAP	35	96	3
NMTAP	35	192	2
NMTAP	35	288	2
NMTAP	35	288	3
NMHLD	36	0	1	96
NMTAP	36	0	4
NMHLD	36	96	3	96
NMHLD	36	192	4	96
NMSTR	36	288	6
NMSCL	36	288	6	96	96	2
NMTTP	37	0	1	B	0	M1
NMTTP	37	0	1	A	0	M1
CNSCR	37	96	2	0	96	6
NMTTP	37	96	7	B	0	M1
NMTTP	37	96	7	A	0	M1
NMTTP	37	192	0	B	0	M1
NMTTP	37	192	0	A	0	M1
NMTAP	37	288	1
NMTAP	37	288	7
NMHLD	38	0	2	96
NMHLD	38	96	0	96
NMHLD	38	192	7	96
NMSTR	38	288	5
NMSCR	38	288	5	96	96	1
NMTTP	39	0	2	B	0	M1
NMTTP	39	0	2	A	0	M1
CNSCL	39	96	1	0	96	5
NMTTP	39	96	4	B	0	M1
NMTTP	39	96	4	A	0	M1
NMTTP	39	192	3	B	0	M1
NMTTP	39	192	3	A	0	M1
NMTAP	39	288	2
NMTAP	39	288	4
NMTAP	40	0	5
NMHLD	40	48	5	48
NMTAP	40	96	7
NMHLD	40	144	7	48
NMTAP	40	192	0
NMHLD	40	240	0	48
NMSTR	40	288	2
NMSCL	40	288	2	96	96	5
NMTAP	40	336	2
NMTTP	41	0	5	E	0	M1
NMTTP	41	0	5	D	0	M1
NMTTP	41	96	3	E	0	M1
NMTTP	41	96	3	D	0	M1
CNSCR	41	96	5	0	96	2
NMTTP	41	192	4	E	0	M1
NMTTP	41	192	4	D	0	M1
NMTAP	41	288	3
NMTAP	41	288	5
NMTAP	42	0	2
NMTAP	42	24	4
NMTAP	42	48	2
NMTAP	42	72	4
NMTAP	42	96	1
NMTAP	42	120	5
NMTAP	42	144	1
NMTAP	42	168	5
NMTAP	42	192	0
NMTAP	42	216	6
NMTAP	42	240	0
NMTAP	42	264	6
NMTAP	42	288	1
NMTAP	42	312	7
NMTAP	42	336	1
NMTAP	42	360	7
NMTAP	43	0	1
NMTTP	43	48	6	A	0	M1
NMTTP	43	96	1	A	0	M1
NMTTP	43	192	3	A	0	M1
NMTTP	43	240	0	A	0	M1
EXSTR	43	288	1
NMSI_	43	288	1	96	48	4
BRSTR	44	0	7
NMSI_	44	0	7	96	48	3
NMTAP	44	48	0
NMTAP	44	96	1
NMTAP	44	144	0
NMTAP	44	192	1
NMTAP	44	192	5
NMTTP	44	240	2	E	0	M1
NMTTP	44	240	5	E	0	M1
NMTAP	44	288	0
NMSTR	44	288	6
NMSI_	44	288	6	96	48	3
NMSTR	45	0	0
NMSI_	45	0	0	96	48	4
NMTAP	45	48	7
NMTAP	45	96	6
NMTAP	45	144	7
NMTAP	45	192	2
NMTAP	45	192	6
NMTTP	45	240	3	E	0	M1
NMTTP	45	240	6	E	0	M1
NMSTR	45	288	1
NMSI_	45	288	1	96	48	6
NMTAP	45	288	7
NMSTR	46	0	5
NMSI_	46	0	5	96	48	2
NMTAP	46	48	5
NMSTR	46	96	1
NMSCL	46	96	1	96	48	6
NMTAP	46	144	1
NMSTR	46	192	5
NMSCL	46	192	5	96	48	2
NMTAP	46	240	5
NMTAP	46	288	1
NMTAP	46	336	1
NMTAP	47	0	0
NMTAP	47	0	1
NMSTR	47	96	2
NMSI_	47	96	2	96	48	5
NMSTR	47	96	7
NMSI_	47	96	7	96	48	4
NMTTP	47	192	2	A	1	M1
NMTTP	47	192	7	A	0	M1
NMTAP	47	288	3
NMSTR	47	288	6
NMSI_	47	288	6	96	48	3
NMSTR	48	0	0
NMSI_	48	0	0	96	48	4
NMTAP	48	48	7
NMTAP	48	96	6
NMTAP	48	144	7
NMTAP	48	192	2
NMTAP	48	192	6
NMTTP	48	240	3	E	0	M1
NMTTP	48	240	6	E	0	M1
NMSTR	48	288	1
NMSI_	48	288	1	96	48	4
NMTAP	48	288	7
NMSTR	49	0	7
NMSI_	49	0	7	96	48	3
NMTAP	49	48	0
NMTAP	49	96	1
NMTAP	49	144	0
NMTAP	49	192	1
NMTAP	49	192	5
NMTTP	49	240	2	E	0	M1
NMTTP	49	240	5	E	0	M1
NMTAP	49	288	0
NMSTR	49	288	6
NMSI_	49	288	6	96	48	1
NMSTR	50	0	2
NMSI_	50	0	2	96	48	5
NMTAP	50	48	2
NMSTR	50	96	6
NMSCR	50	96	6	96	48	1
NMTAP	50	144	6
NMSTR	50	192	2
NMSCR	50	192	2	96	48	5
NMTAP	50	240	2
NMTAP	50	288	6
NMTAP	50	336	6
NMSTR	51	0	6
NMSCL	51	0	6	96	48	3
NMSTR	51	0	7
NMSCR	51	0	7	96	48	2
NMTTP	51	192	0	E	1	M1
NMTTP	51	192	0	A	0	M1
NMTTP	51	192	1	E	0	M1
NMTTP	51	192	7	E	0	M1
NMTTP	51	192	7	A	0	M1
NMTAP	52	0	3
NMTAP	52	0	4
NMTAP	52	96	5
NMTAP	52	128	4
NMTAP	52	160	5
NMTAP	52	192	2
NMTAP	52	224	3
NMTAP	52	256	2
NMTAP	52	288	5
NMTAP	52	320	4
NMTAP	52	352	5
NMTAP	53	0	3
NMTAP	53	0	6
NMTAP	53	96	2
NMTAP	53	128	3
NMTAP	53	160	2
NMTAP	53	192	5
NMTAP	53	224	4
NMTAP	53	256	5
NMTAP	53	288	2
NMTAP	53	320	3
NMTAP	53	352	2
NMTAP	54	0	1
NMTAP	54	0	4
NMTAP	54	96	6
NMTAP	54	128	6
NMTAP	54	160	6
NMTAP	54	192	4
NMTAP	54	224	4
NMTAP	54	256	4
NMTAP	54	288	3
NMTAP	54	320	3
NMTAP	54	352	3
BRTAP	55	0	2
BRHLD	55	0	4	192
NMTAP	55	192	2
NMTAP	55	224	3
NMTAP	55	256	4
NMTAP	55	288	5
NMSTR	56	0	7
NMSUL	56	0	7	96	48	3
NMTAP	56	96	3
NMTAP	56	144	2
NMSTR	56	192	1
NMSI_	56	192	1	96	48	4
NMTAP	56	240	1
NMTAP	56	288	4
NMTAP	56	336	5
NMSTR	57	0	6
NMSUL	57	0	6	96	48	2
NMTAP	57	48	6
NMTAP	57	96	2
NMTAP	57	144	1
NMSTR	57	192	0
NMSUR	57	192	0	96	48	4
NMTAP	57	240	0
NMTAP	57	288	4
NMTAP	57	336	5
NMSTR	58	0	6
NMSI_	58	0	6	96	48	4
NMTAP	58	48	6
NMSTR	58	96	3
NMSI_	58	96	3	96	48	1
NMTAP	58	144	3
NMSTR	58	192	5
NMSI_	58	192	5	96	48	7
NMTAP	58	240	5
NMSTR	58	288	0
NMSUR	58	288	0	96	48	4
NMSV_	58	288	0	96	48	5
NMSTR	59	96	6
NMSI_	59	96	6	96	48	3
NMTAP	59	144	6
NMSTR	59	192	2
NMSI_	59	192	2	96	48	0
NMTAP	59	240	2
NMSTR	59	288	7
NMSUL	59	288	7	96	48	3
NMSV_	59	288	7	96	48	2
NMSTR	60	96	1
NMSCR	60	96	1	96	48	4
NMTAP	60	144	1
NMTAP	60	192	4
NMTAP	60	240	5
NMSTR	60	288	6
NMSI_	60	288	6	96	48	3
NMTAP	60	336	6
NMTAP	61	0	3
NMTAP	61	48	2
NMSTR	61	96	1
NMSCL	61	96	1	96	48	6
NMTAP	61	144	1
NMTAP	61	192	6
NMTAP	61	240	5
NMTAP	61	288	4
NMHLD	62	0	5	96
NMHLD	62	0	7	96
NMTAP	62	144	1
NMTAP	62	192	1
NMHLD	62	240	0	96
NMHLD	62	240	2	96
NMTAP	63	0	1
NMTAP	63	0	3
NMTAP	63	72	4
NMTAP	63	72	6
NMTAP	63	144	3
NMTAP	63	144	4
BRTAP	63	192	0
BRTAP	63	192	7
NMTAP	64	0	0
NMTAP	64	0	1
NMTAP	64	72	2
NMSTR	64	72	7
NMSXL	64	72	7	96	216	3
NMTTP	64	144	0	B	0	M1
NMTTP	64	144	1	B	0	M1
NMTTP	64	144	1	E	1	M1
NMTAP	65	0	1
NMTAP	65	48	1
NMTAP	65	96	1
NMTAP	65	96	3
NMTAP	65	144	1
NMTAP	65	192	1
NMTAP	65	192	3
NMTAP	65	288	3
NMTAP	65	288	4
NMTAP	66	0	4
NMTAP	66	0	5
NMSTR	66	72	3
NMSXL	66	72	3	96	216	7
NMTAP	66	72	6
NMTTP	66	144	4	B	0	M1
NMTTP	66	144	5	B	0	M1
NMTTP	66	144	5	E	1	M1
NMTAP	67	0	5
NMTAP	67	48	5
NMTAP	67	96	5
NMTAP	67	96	7
NMTAP	67	144	5
NMHLD	67	192	5	96
NMSTR	67	192	7
BRSUL	67	192	7	96	48	2
BXTAP	68	0	0
BXTAP	68	0	1
NMTAP	68	48	2
NMTAP	68	96	3
NMTAP	68	96	4
NMTAP	68	144	5
NMTAP	68	192	6
NMTAP	68	216	6
NMTAP	68	240	7
NMHLD	68	264	5	72
NMTAP	68	336	7
NMTAP	69	0	6
NMTAP	69	0	7
NMTAP	69	48	5
NMTAP	69	96	3
NMTAP	69	96	4
NMTAP	69	144	2
NMTAP	69	192	1
NMTAP	69	216	1
NMTAP	69	240	0
NMHLD	69	264	2	72
NMTAP	69	336	3
NMTAP	70	0	2
NMTAP	70	0	3
NMTAP	70	48	1
NMTAP	70	96	0
NMTAP	70	96	7
NMTAP	70	144	6
NMTAP	70	192	5
NMTAP	70	216	5
NMTAP	70	240	4
NMHLD	70	264	6	72
NMTAP	70	336	4
NMTAP	71	0	4
NMTAP	71	0	6
NMTAP	71	72	0
NMTAP	71	72	1
NMTAP	71	144	6
NMTAP	71	144	7
NMSTR	71	192	0
NMSI_	71	192	0	96	48	4
NMTAP	71	216	7
NMTAP	71	240	1
NMTAP	71	264	6
NMTTP	71	288	0	A	1	M1
NMHLD	72	0	6	96
NMHLD	72	96	4	96
NMHLD	72	192	3	96
NMSTR	72	288	1
NMSLR	72	288	1	96	96	6
BRHLD	73	0	7	192
CNSCL	73	96	6	0	96	1
NMTAP	73	288	1
NMTAP	73	288	7
NMHLD	74	0	1	96
NMHLD	74	96	3	96
NMHLD	74	192	4	96
NMSTR	74	288	6
NMSLL	74	288	6	96	96	1
BRHLD	75	0	0	192
CNSCR	75	96	1	0	96	6
NMTAP	75	288	0
NMTAP	75	288	7
NMTAP	76	0	1
NMHLD	76	0	7	48
NMTAP	76	48	1
NMHLD	76	96	0	48
NMTAP	76	96	2
NMTAP	76	144	2
NMHLD	76	192	1	48
NMTAP	76	192	3
NMTAP	76	240	3
NMSTR	76	288	2
NMSLL	76	288	2	96	96	5
NMTAP	76	288	4
NMTAP	76	336	4
NMTAP	77	0	5
NMTAP	77	96	3
CNSCR	77	96	5	0	96	2
NMTAP	77	192	5
NMTAP	77	288	3
NMTAP	77	288	4
BXSTR	78	0	0
BRSV_	78	0	0	96	96	3
NMSTR	78	0	7
NMSV_	78	0	7	96	96	4
NMTAP	78	288	2
NMSTR	78	288	5
NMSI_	78	288	5	96	48	0
BRSTR	79	0	3
NMSI_	79	0	3	96	48	7
BRTAP	79	0	5
NMTAP	79	48	4
NMTAP	79	96	3
NMTAP	79	96	5
NMTAP	79	144	4
NMTAP	79	192	1
NMTAP	79	192	5
NMTTP	79	240	1	E	0	M1
NMTTP	79	240	6	E	0	M1
NMSTR	79	288	2
NMSI_	79	288	2	96	48	7
NMTAP	79	288	4
NMTAP	80	0	2
NMSTR	80	0	4
NMSI_	80	0	4	96	48	0
NMTAP	80	48	3
NMTAP	80	96	2
NMTAP	80	96	4
NMTAP	80	144	3
NMTAP	80	192	2
NMTAP	80	192	6
NMTTP	80	240	2	E	0	M1
NMTTP	80	240	7	E	0	M1
NMSTR	80	288	3
NMSCL	80	288	3	96	96	5
NMTAP	80	288	5
NMSTR	81	0	5
NMSCR	81	0	5	96	96	3
NMSTR	81	96	3
NMSCL	81	96	3	96	96	5
NMSTR	81	192	5
NMSCR	81	192	5	96	96	3
NMSTR	81	288	3
NMSI_	81	288	3	96	48	7
BRTAP	82	0	5
NMSTR	82	96	0
NMSI_	82	96	0	96	48	3
NMSTR	82	96	6
NMSI_	82	96	6	96	48	3
NMTTP	82	192	0	A	0	M1
NMTTP	82	192	0	D	0	M1
NMTTP	82	192	6	A	0	M1
NMTTP	82	192	7	A	1	M1
NMTTP	82	192	7	D	0	M1
EXSTR	82	288	2
NMSI_	82	288	2	96	48	7
EXTAP	82	288	4
BRTAP	83	0	2
BRSTR	83	0	4
NMSI_	83	0	4	96	48	0
NMTAP	83	48	3
NMTAP	83	96	2
NMTAP	83	96	4
NMTAP	83	144	3
NMTAP	83	192	2
NMTAP	83	192	6
NMTTP	83	240	2	E	0	M1
NMTTP	83	240	7	E	0	M1
NMTAP	83	288	3
NMSTR	83	288	5
NMSI_	83	288	5	96	48	0
NMSTR	84	0	3
NMSI_	84	0	3	96	48	7
NMTAP	84	0	5
NMTAP	84	48	4
NMTAP	84	96	3
NMTAP	84	96	5
NMTAP	84	144	4
NMTAP	84	192	1
NMTAP	84	192	5
NMTTP	84	240	1	E	0	M1
NMTTP	84	240	6	E	0	M1
NMTAP	84	288	2
NMSTR	84	288	4
NMSCR	84	288	4	96	96	2
NMSTR	85	0	2
NMSCL	85	0	2	96	96	4
NMSTR	85	96	4
NMSCR	85	96	4	96	96	2
NMSTR	85	192	2
NMSCL	85	192	2	96	96	4
NMSTR	85	288	4
NMSI_	85	288	4	96	48	0
BRTAP	86	0	2
NMTAP	86	96	3
NMTAP	86	96	7
NMTTP	86	192	0	C	1	M1
NMTTP	86	192	1	B	0	M1
NMTTP	86	192	1	A	0	M1
NMTTP	86	192	5	B	0	M1
NMTTP	86	192	5	A	0	M1
NMHLD	87	0	0	48
NMHLD	87	0	6	48
NMHLD	87	96	0	48
NMHLD	87	96	6	48
NMHLD	87	192	2	48
NMHLD	87	192	3	48
NMHLD	87	288	1	48
NMHLD	87	288	7	48
NMHLD	88	0	4	48
NMHLD	88	0	5	48
NMSTR	88	96	1
NMSI_	88	96	1	96	48	4
NMSTR	88	96	3
NMSI_	88	96	3	96	48	7
NMTAP	88	288	2
NMSTR	88	288	6
NMSI_	88	288	6	96	48	3
NMSTR	89	0	2
NMSI_	89	0	2	96	48	7
NMTAP	89	48	2
NMSTR	89	96	5
NMSI_	89	96	5	96	48	0
NMTAP	89	144	5
NMSTR	89	192	1
NMSI_	89	192	1	96	48	4
NMTAP	89	240	1
NMTAP	89	288	6
NMTAP	89	336	6
BRTAP	90	0	3
BRHLD	90	0	7	96
NMTAP	90	96	5
NMTAP	90	128	5
NMTAP	90	160	5
NMTAP	90	192	3
NMTAP	90	224	3
NMTAP	90	256	3
NMTAP	90	288	1
NMTAP	90	320	1
NMTAP	90	352	1
BRHLD	91	0	0	96
BRTAP	91	0	4
NMTAP	91	96	6
NMTAP	91	128	7
NMTAP	91	160	4
NMTAP	91	192	1
NMTAP	91	224	0
NMTAP	91	256	3
NMTAP	91	288	5
NMTAP	91	320	4
NMTAP	91	352	7
NMTAP	92	0	3
NMHLD	92	0	7	96
NMTAP	92	96	1
NMTAP	92	128	0
NMTAP	92	160	3
NMTAP	92	192	6
NMTAP	92	224	7
NMTAP	92	256	4
NMTAP	92	288	2
NMTAP	92	320	3
NMTAP	92	352	0
NMHLD	93	0	0	96
NMTAP	93	0	4
NMTAP	93	96	4
NMTAP	93	128	5
NMTAP	93	160	6
NMTAP	93	192	0
NMTAP	93	224	1
NMTAP	93	256	2
NMSTR	93	288	7
NMSI_	93	288	7	96	48	3
BRTAP	94	0	3
BRTAP	94	0	7
NMTTP	94	192	5	E	0	M1
NMTTP	94	224	4	E	0	M1
NMTTP	94	256	3	E	0	M1
NMTTP	94	288	0	C	0	M1

T_REC_TAP	415
T_REC_BRK	15
T_REC_XTP	8
T_REC_BXX	10
T_REC_HLD	65
T_REC_XHO	0
T_REC_BHO	5
T_REC_BXH	0
T_REC_STR	100
T_REC_BST	3
T_REC_XST	3
T_REC_XBS	1
T_REC_TTP	70
T_REC_THO	0
T_REC_SLD	107
T_REC_BSL	4
T_REC_ALL	806
T_NUM_TAP	596
T_NUM_BRK	38
T_NUM_HLD	65
T_NUM_SLD	107
T_NUM_ALL	806
T_JUDGE_TAP	625
T_JUDGE_HLD	130
T_JUDGE_SLD	111
T_JUDGE_ALL	866
TTM_EACHPAIRS	125
TTM_SCR_TAP	298000
TTM_SCR_BRK	98800
TTM_SCR_HLD	65000
TTM_SCR_SLD	160500
TTM_SCR_ALL	622300
TTM_SCR_S	599950
TTM_SCR_SS	618500
TTM_RAT_ACV	10061

