VERSION	0.00.00	1.04.00
FES_MODE	0
BPM_DEF	147.000	147.000	147.000	147.000
MET_DEF	4	4
RESOLUTION	384
CLK_DEF	384
COMPATIBLE_CODE	MA2

BPM	0	0	147.000
MET	0	0	4	4

NMSTR	2	0	2
NMSCL	2	0	2	96	144	7
NMSTR	3	0	6
NMSCL	3	0	6	96	144	3
NMHLD	4	0	0	144
NMHLD	4	0	1	144
NMTAP	4	240	2
NMTAP	4	240	3
NMTAP	4	288	2
NMTAP	4	288	3
NMTAP	5	0	1
NMTAP	5	0	4
NMTAP	5	96	4
NMTAP	5	96	5
NMTAP	5	192	3
NMTAP	5	192	6
NMTAP	5	288	3
NMTAP	5	288	6
NMHLD	6	0	6	144
NMHLD	6	0	7	144
NMTAP	6	240	4
NMTAP	6	240	5
NMTAP	6	288	4
NMTAP	6	288	5
NMTAP	7	0	3
NMTAP	7	0	6
NMTAP	7	96	2
NMTAP	7	96	3
NMTAP	7	192	1
NMTAP	7	192	4
NMTAP	7	288	0
NMTAP	7	288	1
BRTAP	8	0	2
BRTAP	8	0	7
EXHLD	8	192	6	96
EXHLD	8	192	7	96
NMTAP	9	0	4
NMTAP	9	0	5
NMTAP	9	96	2
NMTAP	9	96	3
EXHLD	9	192	0	96
EXHLD	9	192	1	96
NMTAP	10	0	2
NMTAP	10	0	3
NMTAP	10	96	4
NMTAP	10	96	5
EXHLD	10	192	3	96
EXHLD	10	192	6	96
NMTAP	11	0	4
NMTAP	11	0	5
NMTAP	11	96	2
NMTAP	11	96	3
EXHLD	11	192	1	96
EXHLD	11	192	4	96
NMHLD	12	0	5	192
NMHLD	12	192	7	192
NMHLD	13	0	0	192
NMTAP	13	192	2
NMHLD	14	0	2	192
NMHLD	14	192	0	192
NMHLD	15	0	7	192
NMTAP	15	192	5
NMTAP	16	0	6
NMTAP	16	0	7
NMTAP	16	96	6
NMTAP	16	96	7
NMTAP	16	192	6
NMTAP	16	192	7
NMTAP	16	288	0
NMTAP	16	288	7
NMTAP	17	0	0
NMTAP	17	0	1
NMTAP	17	96	0
NMTAP	17	96	1
NMTAP	17	192	0
NMTAP	17	192	1
NMTAP	17	288	0
NMTAP	17	288	7
NMTAP	18	0	4
NMTAP	18	0	5
NMTAP	18	96	6
NMTAP	18	96	7
NMTAP	18	192	2
NMTAP	18	192	3
NMTAP	18	288	1
NMTAP	18	336	1
NMTAP	19	0	0
NMTAP	19	96	2
NMSTR	19	96	7
NMSLL	19	96	7	96	96	3
NMHLD	20	0	2	48
NMHLD	20	0	4	48
NMHLD	20	96	2	48
NMHLD	20	96	4	48
NMHLD	20	192	3	48
NMHLD	20	192	5	48
NMHLD	20	288	3	48
NMHLD	20	288	5	48
NMHLD	21	0	1	48
NMHLD	21	0	3	48
NMHLD	21	96	1	48
NMHLD	21	96	3	48
NMHLD	21	192	4	48
NMHLD	21	192	6	48
NMHLD	21	288	4	48
NMHLD	21	288	6	48
NMHLD	22	0	2	48
NMHLD	22	0	3	48
NMHLD	22	96	2	48
NMHLD	22	96	3	48
NMHLD	22	192	0	48
NMHLD	22	192	1	48
NMHLD	22	288	0	48
NMHLD	22	288	1	48
EXTAP	23	0	2
EXTAP	23	0	7
NMHLD	23	96	4	48
NMHLD	23	96	5	48
NMHLD	23	192	6	48
NMHLD	23	192	7	48
NMHLD	23	288	6	48
NMHLD	23	288	7	48
EXTAP	24	0	0
EXTAP	24	0	5
NMTAP	24	96	2
NMTAP	24	96	3
NMTAP	24	192	4
NMTAP	24	192	5
NMTAP	24	288	2
NMTAP	24	288	4
NMTAP	25	0	3
NMTAP	25	0	5
NMTAP	25	96	1
NMTAP	25	96	4
NMTAP	25	192	3
NMTAP	25	192	6
NMSTR	25	288	1
NMSI_	25	288	1	96	48	5
NMHLD	25	288	4	96
EXTAP	26	144	4
EXTAP	26	144	6
EXTAP	26	192	4
EXTAP	26	192	6
EXTAP	26	336	1
EXTAP	26	336	3
EXTAP	27	0	1
EXSTR	27	0	3
NMSCR	27	0	3	96	96	7
EXTAP	27	288	2
EXTAP	27	288	7
NMHLD	28	0	1	384
NMTAP	28	192	3
NMTAP	28	288	4
NMHLD	29	0	5	384
NMTAP	29	192	7
NMTAP	29	288	0
NMHLD	30	0	1	384
NMTAP	30	192	3
NMTAP	30	288	4
NMHLD	31	0	5	384
NMTAP	31	192	7
NMTAP	31	288	0
NMTAP	32	0	1
NMTAP	32	96	2
NMTAP	32	96	4
NMTAP	32	192	2
NMTAP	32	192	4
NMTAP	32	288	1
NMTAP	32	288	5
NMTAP	33	0	1
NMTAP	33	0	5
NMSTR	33	96	2
NMSCL	33	96	2	96	96	7
NMSTR	33	96	6
NMSCL	33	96	6	96	96	3
NMTAP	34	0	4
NMTAP	34	96	3
NMTAP	34	96	5
NMTAP	34	192	3
NMTAP	34	192	5
NMTAP	34	288	2
NMTAP	34	288	6
NMSTR	35	0	2
BRSV_	35	0	2	96	96	0
NMSTR	35	0	6
BRSV_	35	0	6	96	96	4
BXTAP	35	288	1
BXTAP	35	288	5
NMTAP	36	0	2
NMTAP	36	0	3
NMTAP	36	96	1
NMTAP	36	192	4
NMTAP	36	192	5
NMTAP	36	288	6
NMSTR	37	0	6
NMSCL	37	0	6	96	96	3
NMSTR	37	0	7
NMSUL	37	0	7	96	96	2
EXTAP	37	288	2
EXTAP	37	288	3
NMTAP	38	0	1
NMTAP	38	0	4
NMTAP	38	96	2
NMTAP	38	96	3
NMTAP	38	192	3
NMTAP	38	192	6
NMTAP	38	288	4
NMTAP	38	288	5
NMSTR	39	0	6
NMSCL	39	0	6	96	96	3
NMSTR	39	0	7
NMSUL	39	0	7	96	96	2
EXTAP	39	288	2
EXTAP	39	288	3
NMHLD	40	0	1	96
NMTAP	40	96	3
NMHLD	40	192	6	96
NMTAP	40	288	4
NMSTR	41	0	6
NMSCL	41	0	6	96	96	3
NMSTR	41	0	7
NMSUL	41	0	7	96	96	2
EXTAP	41	288	2
EXTAP	41	288	3
NMSTR	42	0	1
NMSCL	42	0	1	96	96	6
NMSTR	42	192	5
NMSCL	42	192	5	96	96	2
NMHLD	43	0	0	192
NMTAP	43	192	3
BRTAP	43	288	2
BRTAP	43	288	5
NMTAP	44	0	0
NMTAP	44	0	6
NMTAP	44	96	1
NMTAP	44	96	7
NMTAP	44	192	3
NMTAP	44	240	2
NMTAP	44	240	4
NMTAP	44	288	2
NMTAP	44	288	4
NMTAP	45	0	0
NMTAP	45	0	6
NMTAP	45	96	1
NMTAP	45	96	7
NMTAP	45	192	3
NMTAP	45	240	2
NMTAP	45	240	4
NMTAP	45	288	2
NMTAP	45	288	4
NMHLD	46	0	6	96
NMHLD	46	96	0	96
NMHLD	46	192	3	96
NMTAP	46	288	2
BRTAP	47	0	1
BRTAP	47	0	4
NMTAP	47	96	3
NMTTP	47	192	0	C	1	M1
NMTTP	47	192	1	B	0	M1
NMTTP	47	192	5	B	0	M1
NMTAP	48	0	0
NMTAP	48	0	6
NMTAP	48	96	1
NMTAP	48	96	7
NMTAP	48	192	3
NMTAP	48	240	2
NMTAP	48	240	4
NMTAP	48	288	2
NMTAP	48	288	4
NMTAP	49	0	0
NMTAP	49	0	6
NMTAP	49	96	1
NMTAP	49	96	7
NMTAP	49	192	3
NMTAP	49	240	2
NMTAP	49	240	4
NMTAP	49	288	2
NMTAP	49	288	4
NMTAP	50	0	6
NMTAP	50	48	6
NMTAP	50	96	0
NMTAP	50	144	0
NMTAP	50	192	3
NMTAP	50	240	3
NMTAP	50	288	2
BRTAP	51	0	1
BRTAP	51	0	4
NMTAP	51	96	3
NMTTP	51	192	0	C	1	M1
NMTTP	51	192	1	B	0	M1
NMTTP	51	192	5	B	0	M1
NMTAP	52	0	6
NMHLD	52	96	6	192
NMTAP	52	192	4
NMHLD	52	288	4	192
NMTAP	53	0	3
NMHLD	53	96	3	192
NMTAP	53	192	1
NMHLD	53	288	1	192
NMTAP	54	0	7
NMHLD	54	96	7	192
NMTAP	54	192	0
NMHLD	54	288	0	288
NMHLD	55	0	6	192
NMHLD	56	0	1	48
NMHLD	56	0	7	48
NMHLD	56	96	1	48
NMHLD	56	96	7	48
NMHLD	56	192	0	48
NMHLD	56	192	6	48
NMHLD	56	288	0	48
NMHLD	56	288	6	48
NMHLD	57	0	1	48
NMHLD	57	0	3	48
NMHLD	57	96	1	48
NMHLD	57	96	3	48
NMHLD	57	192	4	48
NMHLD	57	192	6	48
NMHLD	57	288	4	48
NMHLD	57	288	6	48
NMHLD	58	0	2	48
NMHLD	58	0	3	48
NMHLD	58	96	2	48
NMHLD	58	96	3	48
NMHLD	58	192	0	48
NMHLD	58	192	1	48
NMHLD	58	288	0	48
NMHLD	58	288	1	48
EXTAP	59	0	2
EXTAP	59	0	7
NMHLD	59	96	4	48
NMHLD	59	96	5	48
NMHLD	59	192	6	48
NMHLD	59	192	7	48
NMHLD	59	288	6	48
NMHLD	59	288	7	48
EXTAP	60	0	0
EXTAP	60	0	5
NMTAP	60	96	6
NMTAP	60	96	7
NMTAP	60	192	0
NMTAP	60	192	1
NMTAP	60	288	0
NMTAP	60	288	6
NMTAP	61	0	1
NMTAP	61	0	7
NMTAP	61	96	0
NMTAP	61	96	5
NMTAP	61	192	2
NMTAP	61	192	7
NMHLD	61	288	3	96
NMSTR	61	288	6
NMSI_	61	288	6	96	48	2
EXTAP	62	144	1
EXTAP	62	144	3
EXTAP	62	192	1
EXTAP	62	192	3
EXTAP	62	336	4
EXTAP	62	336	6
EXSTR	63	0	4
NMSCL	63	0	4	96	96	0
EXTAP	63	0	6
EXTAP	63	288	0
EXTAP	63	288	5
NMSTR	64	0	2
NMSXR	64	0	2	96	96	0
NMSTR	64	0	3
NMSXL	64	0	3	96	96	5
EXTAP	64	288	6
EXTAP	64	288	7
NMTAP	65	0	5
NMTAP	65	48	5
NMTAP	65	96	4
NMTAP	65	192	2
NMTAP	65	240	2
NMTAP	65	288	3
NMSTR	66	0	4
NMSXR	66	0	4	96	96	2
NMSTR	66	0	5
NMSXL	66	0	5	96	96	7
EXTAP	66	288	0
EXTAP	66	288	1
NMTAP	67	0	2
NMTAP	67	48	2
NMTAP	67	96	3
NMTAP	67	192	5
NMTAP	67	240	5
NMTAP	67	288	4
NMTAP	68	0	3
NMTAP	68	0	6
NMTAP	68	96	4
NMTAP	68	96	5
NMTTP	68	192	7	E	1	M1
NMTAP	69	0	1
NMTAP	69	0	4
NMTAP	69	96	2
NMTAP	69	96	3
NMTTP	69	192	1	E	1	M1
NMTAP	70	0	2
NMTAP	70	0	6
NMTAP	70	96	3
NMTAP	70	96	5
NMTTP	70	192	0	E	1	M1
NMTAP	71	0	1
NMTAP	71	0	5
NMTAP	71	96	2
NMTAP	71	96	4
NMTTP	71	192	0	E	1	M1
NMTAP	72	0	0
NMTAP	72	0	6
NMTAP	72	96	0
NMTAP	72	96	6
NMTAP	72	192	1
NMTAP	72	192	3
NMTAP	72	288	1
NMTAP	72	288	3
NMSTR	73	0	4
NMSUR	73	0	4	96	96	1
NMSTR	73	0	5
NMSCR	73	0	5	96	96	0
EXTAP	73	288	0
EXTAP	73	288	1
NMTAP	74	0	2
NMTAP	74	0	3
NMTAP	74	96	4
NMTAP	74	96	5
NMTAP	74	192	6
NMTAP	74	192	7
NMTAP	74	288	4
NMTAP	74	288	5
NMSTR	75	0	4
NMSUR	75	0	4	96	96	1
NMSTR	75	0	5
NMSCR	75	0	5	96	96	0
EXTAP	75	288	0
EXTAP	75	288	1
NMHLD	76	0	2	96
NMTAP	76	96	0
NMHLD	76	192	5	96
NMTAP	76	288	7
NMSTR	77	0	4
NMSUR	77	0	4	96	96	1
NMSTR	77	0	5
NMSCR	77	0	5	96	96	0
EXTAP	77	288	0
EXSTR	77	288	1
NMSSL	77	288	1	96	192	5
BRTAP	78	288	6
NMTAP	79	0	6
NMTAP	79	0	7
NMTAP	79	96	0
NMTAP	79	96	1
NMTAP	79	192	2
NMTAP	79	192	4
NMTAP	79	240	1
NMTAP	79	240	5
NMTAP	79	288	1
NMTAP	79	288	5
NMTAP	80	0	6
NMTAP	80	0	7
NMTAP	80	96	0
NMTAP	80	96	1
NMTAP	80	192	2
NMTAP	80	192	4
NMTAP	80	240	1
NMTAP	80	240	5
NMTAP	80	288	1
NMTAP	80	288	5
NMTAP	81	0	6
NMTAP	81	0	7
NMTAP	81	96	0
NMTAP	81	96	1
NMTAP	81	192	4
NMTAP	81	192	5
NMSTR	81	288	2
NMSI_	81	288	2	96	96	7
NMSTR	81	288	3
NMSI_	81	288	3	96	96	6
BRTAP	82	192	0
BRTAP	82	192	5
NMTAP	83	0	6
NMTAP	83	0	7
NMTAP	83	96	0
NMTAP	83	96	1
NMTAP	83	192	2
NMTAP	83	192	4
NMTAP	83	240	1
NMTAP	83	240	5
NMTAP	83	288	1
NMTAP	83	288	5
NMTAP	84	0	6
NMTAP	84	0	7
NMTAP	84	96	0
NMTAP	84	96	1
NMTAP	84	192	2
NMTAP	84	192	4
NMTAP	84	240	1
NMTAP	84	240	5
NMTAP	84	288	1
NMTAP	84	288	5
NMTAP	85	0	6
NMTAP	85	0	7
NMTAP	85	96	0
NMTAP	85	96	1
NMTAP	85	192	4
NMTAP	85	192	5
NMSTR	85	288	2
NMSCL	85	288	2	96	96	7
NMSTR	85	288	3
NMSCR	85	288	3	96	96	6
NMTTP	86	192	1	B	1	M1
NMTTP	86	192	1	E	0	M1
NMTTP	86	192	2	E	0	M1
NMTTP	86	192	5	B	0	M1
NMTTP	86	192	5	E	0	M1
NMTTP	86	192	6	E	0	M1
NMHLD	87	0	6	96
NMHLD	87	96	4	96
NMHLD	87	192	3	96
NMHLD	87	288	1	96
NMHLD	88	0	5	96
NMSTR	88	96	7
NMSI_	88	96	7	96	96	2
NMSI_	88	96	7	96	96	4
NMHLD	89	0	1	96
NMHLD	89	96	3	96
NMHLD	89	192	4	96
NMHLD	89	288	6	96
NMHLD	90	0	2	96
NMSTR	90	96	0
NMSI_	90	96	0	96	96	3
NMSI_	90	96	0	96	96	5
NMHLD	91	0	2	96
NMHLD	91	96	0	96
NMHLD	91	192	7	96
NMHLD	91	288	5	96
NMHLD	92	0	1	96
NMSTR	92	96	3
NMSI_	92	96	3	96	96	0
NMSI_	92	96	3	96	96	6
NMHLD	93	0	5	96
NMHLD	93	96	7	96
NMHLD	93	192	0	96
NMTAP	93	288	2
NMHLD	94	0	3	192
NMHLD	94	0	7	192

T_REC_TAP	280
T_REC_BRK	11
T_REC_XTP	41
T_REC_BXX	2
T_REC_HLD	111
T_REC_XHO	8
T_REC_BHO	0
T_REC_BXH	0
T_REC_STR	34
T_REC_BST	0
T_REC_XST	3
T_REC_XBS	0
T_REC_TTP	16
T_REC_THO	0
T_REC_SLD	38
T_REC_BSL	2
T_REC_ALL	546
T_NUM_TAP	374
T_NUM_BRK	15
T_NUM_HLD	119
T_NUM_SLD	38
T_NUM_ALL	546
T_JUDGE_TAP	387
T_JUDGE_HLD	240
T_JUDGE_SLD	40
T_JUDGE_ALL	667
TTM_EACHPAIRS	192
TTM_SCR_TAP	187000
TTM_SCR_BRK	39000
TTM_SCR_HLD	119000
TTM_SCR_SLD	57000
TTM_SCR_ALL	402000
TTM_SCR_S	388500
TTM_SCR_SS	400500
TTM_RAT_ACV	10037

