VERSION	0.00.00	1.05.00
FES_MODE	0
BPM_DEF	180.000	180.000	180.000	180.000
MET_DEF	4	4
RESOLUTION	384
CLK_DEF	384
COMPATIBLE_CODE	MA2

BPM	0	0	180.000
MET	0	0	4	4

NMSTR	1	0	3
NMSCL	1	0	3	96	288	0
NMHLD	1	0	5	1152
CNSSL	2	0	0	0	384	4
CNSCR	3	0	4	0	384	7
NMHLD	4	192	0	96
NMTAP	4	192	6
NMTAP	4	288	7
NMTAP	4	312	0
NMTAP	4	336	7
NMTAP	4	360	0
BRHLD	5	0	6	72
NMHLD	5	72	4	72
NMHLD	5	144	2	72
NMTAP	5	216	1
NMTAP	5	288	1
NMTAP	5	288	4
NMTAP	5	336	2
NMTAP	5	360	3
NMTAP	6	0	2
NMHLD	6	48	1	48
NMHLD	6	48	4	48
NMHLD	6	120	1	48
NMHLD	6	120	4	48
NMHLD	6	192	2	48
NMHLD	6	192	3	48
NMHLD	6	264	2	48
NMHLD	6	264	3	48
NMTAP	6	336	1
NMTAP	6	336	4
BRHLD	7	0	1	72
NMHLD	7	72	3	72
NMHLD	7	144	5	72
NMTAP	7	216	6
NMTAP	7	288	5
NMTAP	7	312	4
NMTAP	7	336	5
NMTAP	7	360	4
BRSTR	8	0	5
NMSI_	8	0	5	96	48	0
BRSTR	8	96	1
NMSI_	8	96	1	96	48	4
NMTAP	8	96	5
NMTAP	8	192	1
BRSTR	8	192	7
NMSI_	8	192	7	96	48	2
BRSTR	8	288	3
NMSUR	8	288	3	96	768	4
NMTAP	8	288	7
BXHLD	9	0	3	768
CNSCR	11	0	4	0	288	2
NMTAP	12	0	3
NMTAP	12	96	4
NMTAP	12	192	5
NMTAP	12	288	4
NMTAP	12	288	6
EXTAP	13	0	3
NMHLD	13	0	5	48
NMHLD	13	96	5	48
NMTAP	13	144	4
NMHLD	13	192	5	48
NMHLD	13	288	6	48
NMHLD	14	0	6	48
NMTAP	14	48	4
NMHLD	14	96	5	48
NMHLD	14	192	2	48
NMHLD	14	192	4	48
NMTAP	14	288	1
NMTAP	14	288	5
NMHLD	15	0	2	48
EXTAP	15	0	4
NMHLD	15	96	2	48
NMTAP	15	144	3
NMHLD	15	192	2	48
NMHLD	15	288	1	48
NMHLD	16	0	1	48
NMTAP	16	48	3
NMHLD	16	96	2	48
NMHLD	16	192	3	48
NMHLD	16	192	5	48
NMTAP	16	288	2
NMTAP	16	288	6
NMSTR	17	0	1
NMSCR	17	0	1	96	96	4
NMTAP	17	0	5
NMSTR	17	96	4
NMSCR	17	96	4	96	96	7
NMSTR	17	192	7
NMSCR	17	192	7	96	96	2
NMSTR	17	288	2
NMSCR	17	288	2	96	96	5
NMSTR	18	0	5
NMSCR	18	0	5	96	96	0
NMSTR	18	96	0
NMSCR	18	96	0	96	96	3
NMTAP	18	192	3
NMTAP	18	288	4
NMTAP	19	0	4
NMTAP	19	48	4
NMTAP	19	96	3
NMTAP	19	144	3
NMTAP	19	192	2
NMTAP	19	216	4
NMTAP	19	240	2
NMTAP	19	264	4
NMTAP	19	288	1
NMTAP	19	312	5
NMTAP	19	336	1
NMTAP	19	360	5
NMHLD	20	0	0	96
NMSTR	20	192	0
NMSSL	20	192	0	96	48	4
NMSTR	20	192	7
NMSI_	20	192	7	96	48	3
NMTAP	20	288	0
NMTAP	20	288	7
BRTAP	21	0	0
BRTAP	21	0	6
NMTAP	21	96	1
NMTAP	21	96	5
NMTAP	21	144	2
NMTAP	21	144	4
NMSTR	21	192	5
NMSI_	21	192	5	96	48	3
NMSTR	21	240	3
NMSV_	21	240	3	96	48	0
EXTAP	22	0	1
NMTAP	22	48	1
NMTAP	22	96	7
NMTAP	22	120	0
NMTAP	22	144	7
NMTAP	22	168	0
NMTAP	22	192	6
NMTAP	22	216	5
NMHLD	22	240	4	48
NMTAP	22	288	7
NMTAP	22	312	0
NMHLD	22	336	1	48
BRTAP	23	0	7
NMTAP	23	96	4
NMTAP	23	120	3
NMTAP	23	168	3
NMSTR	23	192	5
NMSI_	23	192	5	96	48	0
NMTAP	23	240	4
NMTAP	23	240	6
NMTAP	23	288	3
NMTAP	23	288	5
NMTAP	24	0	1
NMTAP	24	24	1
NMTAP	24	48	0
NMTAP	24	96	6
NMTAP	24	120	6
NMTAP	24	144	7
NMTAP	24	192	0
NMTAP	24	192	5
NMTAP	24	216	1
NMTAP	24	240	2
NMTAP	24	264	3
NMTAP	24	288	6
NMTAP	24	312	5
NMTAP	24	336	4
NMTAP	24	360	3
BRTAP	25	0	0
NMTAP	25	96	2
NMTAP	25	96	6
NMTAP	25	144	3
NMTAP	25	144	5
NMSTR	25	192	2
NMSI_	25	192	2	96	48	4
NMSTR	25	240	4
NMSV_	25	240	4	96	48	7
EXTAP	26	0	6
NMTAP	26	48	6
NMTAP	26	96	0
NMTAP	26	120	7
NMTAP	26	144	0
NMTAP	26	168	7
NMTAP	26	192	1
NMTAP	26	216	2
NMHLD	26	240	3	48
NMTAP	26	288	0
NMTAP	26	312	7
NMHLD	26	336	6	48
BRTAP	27	0	0
NMTAP	27	96	3
NMTAP	27	120	4
NMTAP	27	168	4
NMSTR	27	192	2
NMSI_	27	192	2	96	48	7
NMTAP	27	240	1
NMTAP	27	240	3
NMTAP	27	288	2
NMTAP	27	288	4
NMSTR	28	0	6
BRSI_	28	0	6	96	48	2
BRTAP	28	96	0
BRTAP	28	96	6
NMTAP	28	192	1
NMTAP	28	216	0
NMTAP	28	240	1
BRTAP	28	288	2
BRTAP	28	288	7
NMSTR	29	0	0
NMSI_	29	0	0	96	48	5
NMSTR	29	48	5
NMSI_	29	48	5	96	48	0
NMSTR	29	96	0
NMSCR	29	96	0	96	48	3
NMSCR	29	96	0	96	48	3
CNSI_	29	240	3	0	48	6
CNSI_	29	240	3	0	48	7
NMTTP	29	288	6	A	0	M1
NMTTP	29	288	7	A	0	M1
NMTTP	29	288	7	D	1	M1
NMTAP	30	0	0
NMTAP	30	0	5
NMTAP	30	96	2
NMTAP	30	96	3
NMTAP	30	144	3
NMTAP	30	144	4
NMTAP	30	192	5
NMTAP	30	216	4
NMTAP	30	240	5
NMTAP	30	264	4
BXTAP	30	288	6
NMSTR	31	0	7
NMSI_	31	0	7	96	48	2
NMSTR	31	48	2
NMSI_	31	48	2	96	48	7
NMSTR	31	96	7
NMSCL	31	96	7	96	48	4
NMSCL	31	96	7	96	48	4
CNSI_	31	240	4	0	48	0
CNSI_	31	240	4	0	48	1
NMTTP	31	288	0	A	0	M1
NMTTP	31	288	1	A	0	M1
NMTTP	31	288	1	D	1	M1
EXTAP	32	0	2
EXTAP	32	0	7
NMTAP	32	96	5
NMTAP	32	120	4
NMTAP	32	144	5
NMTAP	32	168	4
NMHLD	32	192	6	48
NMHLD	32	264	5	48
NMHLD	32	264	7	48
NMTAP	32	336	0
NMTAP	32	336	4
NMSTR	33	0	1
NMSI_	33	0	1	96	48	3
NMSTR	33	48	3
NMSI_	33	48	3	96	24	0
NMSTR	33	96	1
NMSI_	33	96	1	96	48	4
NMSI_	33	96	1	96	48	4
CNSCR	33	168	0	0	24	1
CNSI_	33	240	4	0	48	6
CNSI_	33	240	4	0	48	7
NMTTP	33	288	6	A	0	M1
NMTTP	33	288	7	A	0	M1
NMTTP	33	288	7	D	1	M1
EXTAP	34	0	0
EXTAP	34	0	5
NMTAP	34	96	2
NMTAP	34	120	3
NMTAP	34	144	2
NMTAP	34	168	3
NMTAP	34	192	2
NMTAP	34	216	4
NMTAP	34	240	3
NMTAP	34	264	5
NMTAP	34	288	4
NMTAP	34	336	3
NMTAP	34	336	5
EXTAP	35	0	2
EXTAP	35	0	6
NMTAP	35	48	1
NMTAP	35	72	0
NMTAP	35	120	0
NMTAP	35	144	1
NMTAP	35	192	0
NMTAP	35	192	1
NMSTR	35	240	2
NMSCL	35	240	2	96	96	5
NMTAP	35	288	3
BXTAP	35	336	4
BRTAP	36	144	0
BRTAP	36	144	6
NMTAP	36	192	1
NMTAP	36	216	5
NMTAP	36	240	2
NMTAP	36	264	4
NMTAP	36	288	3
NMTAP	36	336	1
NMSTR	37	0	0
NMSI_	37	0	0	96	48	5
NMTAP	37	0	1
NMTAP	37	72	4
NMSTR	37	144	3
NMSI_	37	144	3	96	48	0
NMTAP	37	216	4
NMTAP	37	288	6
NMTAP	37	336	6
NMTAP	37	360	7
NMTAP	38	0	6
NMTAP	38	48	0
NMTAP	38	48	5
NMTAP	38	96	1
NMTAP	38	120	3
NMTAP	38	168	3
NMTAP	38	192	4
NMTAP	38	240	4
NMTAP	38	264	6
NMTAP	38	312	6
NMTAP	38	336	7
NMTAP	39	0	6
NMSTR	39	0	7
NMSI_	39	0	7	96	48	2
NMTAP	39	72	3
NMSTR	39	144	4
NMSI_	39	144	4	96	48	7
NMTAP	39	216	3
NMTAP	39	288	1
NMTAP	39	336	1
NMTAP	39	360	0
NMTAP	40	0	1
NMTAP	40	48	2
NMTAP	40	48	7
NMTAP	40	96	6
NMTAP	40	120	4
NMTAP	40	168	4
NMTAP	40	192	3
NMTAP	40	240	3
NMTAP	40	264	1
NMTAP	40	312	1
NMTAP	40	336	3
NMTAP	41	0	2
NMSTR	41	0	3
NMSI_	41	0	3	96	48	6
NMTAP	41	72	7
NMSTR	41	144	0
NMSI_	41	144	0	96	48	3
NMTAP	41	216	7
NMTAP	41	288	5
NMTAP	41	336	5
NMTAP	41	360	4
NMTAP	42	0	5
NMTAP	42	48	3
NMTAP	42	48	6
NMTAP	42	96	2
NMTAP	42	120	7
NMTAP	42	144	2
NMTAP	42	168	7
NMTAP	42	192	1
NMTAP	42	216	6
NMTAP	42	240	1
NMTAP	42	264	6
NMTAP	42	288	0
NMTAP	42	336	0
BRTAP	43	0	1
NMTTP	43	0	7	D	0	M1
NMTTP	43	16	6	A	0	M1
NMTTP	43	32	6	D	0	M1
NMTTP	43	48	5	A	0	M1
NMTTP	43	64	5	D	0	M1
NMTTP	43	80	4	A	0	M1
NMTTP	43	96	4	D	0	M1
NMTTP	43	144	1	D	0	M1
BRTAP	43	144	6
NMTTP	43	160	1	A	0	M1
NMTTP	43	176	2	D	0	M1
NMTTP	43	192	2	A	0	M1
NMTTP	43	208	3	D	0	M1
NMTTP	43	224	3	A	0	M1
NMTTP	43	240	4	D	0	M1
BRTAP	43	288	0
NMTTP	43	288	0	C	1	M1
NMTTP	43	288	5	B	0	M1
NMTTP	43	288	6	B	0	M1
NMTTP	43	288	6	E	1	M1
BRTAP	44	0	1
BRTAP	44	0	7
NMTAP	44	192	3
NMTAP	44	264	2
NMTAP	44	264	4
NMTAP	44	336	1
NMTAP	44	336	5
BXSTR	45	0	0
NMSCR	45	0	0	96	288	3
BXHLD	45	0	6	1920
CNSI_	46	0	3	0	384	6
CNSI_	47	0	6	0	384	1
CNSI_	48	0	1	0	288	4
NMTHO	49	0	0	1152	C	0	M1
NMTTP	49	0	4	B	0	M1
NMTTP	49	0	5	B	0	M1
NMTTP	49	0	5	E	0	M1
NMSTR	51	0	7
NMSCL	51	0	7	96	288	4
CNSI_	52	0	4	0	192	1
CNSI_	52	192	1	0	96	6
CNSI_	52	288	6	0	96	3
BRTAP	53	0	2
NMTTP	53	192	4	B	0	M1
NMTTP	53	204	4	E	0	M1
NMTTP	53	264	0	B	0	M1
NMTTP	53	264	1	E	0	M1
NMTTP	53	336	2	E	0	M1
NMTTP	53	360	3	E	0	M1
NMTTP	54	0	4	E	0	M1
NMTTP	54	64	5	E	0	M1
NMTTP	54	64	5	D	0	M1
NMTTP	54	128	6	E	0	M1
NMTTP	54	128	6	D	0	M1
NMTTP	54	192	7	B	0	M1
NMTTP	54	204	0	E	0	M1
EXHLD	54	312	1	72
BXTAP	55	0	0
NMTAP	55	72	0
NMTAP	55	72	7
NMTAP	55	96	1
NMTAP	55	120	2
NMTAP	55	144	3
NMTAP	55	168	4
NMTAP	55	192	0
NMTAP	55	216	7
NMTAP	55	240	6
NMTAP	55	264	5
NMTAP	55	288	3
NMTAP	55	312	2
NMTAP	55	336	1
NMTAP	55	360	0
NMTAP	56	0	6
NMTAP	56	24	5
NMTAP	56	48	4
NMTAP	56	72	3
NMTAP	56	96	1
NMTAP	56	120	2
NMTAP	56	144	3
NMTAP	56	168	4
NMTAP	56	192	7
NMTAP	56	216	6
NMTAP	56	240	5
NMTAP	56	264	4
NMTAP	56	288	2
NMTAP	56	312	1
NMTAP	56	336	0
NMTAP	56	360	7
NMHLD	57	0	5	72
NMTAP	57	96	4
NMTAP	57	96	5
NMTAP	57	120	3
NMTAP	57	144	2
NMTAP	57	168	1
NMTAP	57	192	0
NMTAP	57	192	7
NMTAP	57	216	6
NMTAP	57	240	5
NMTAP	57	264	4
NMTAP	57	288	7
NMTAP	57	312	6
NMTAP	57	336	5
NMTAP	57	360	4
NMTAP	58	0	3
NMTAP	58	24	2
NMTAP	58	48	1
NMTAP	58	72	0
NMTAP	58	96	6
NMTAP	58	120	5
NMHLD	58	144	4	96
NMTAP	58	240	1
NMTAP	58	264	2
NMTAP	58	288	7
NMTAP	58	312	6
NMTAP	58	336	5
NMTAP	58	360	4
NMTAP	59	0	1
NMTAP	59	0	3
NMTAP	59	64	2
NMTAP	59	96	2
NMTAP	59	128	4
NMTAP	59	160	3
NMHLD	59	192	5	64
NMTAP	59	256	4
NMTAP	59	320	6
NMTAP	59	352	6
NMTAP	60	0	4
NMTAP	60	32	5
NMTAP	60	64	3
NMHLD	60	96	4	64
NMTTP	60	160	4	B	0	M1
NMTTP	60	160	5	B	0	M1
NMTTP	60	224	2	B	0	M1
NMTTP	60	224	3	B	0	M1
NMTTP	60	288	0	C	0	M1
EXTAP	60	352	0
EXTAP	60	368	7
EXHLD	61	0	0	768
NMSTR	61	288	6
NMSCL	61	288	6	96	192	2
NMHLD	63	0	6	768
NMSTR	63	288	1
NMSCR	63	288	1	96	192	5
NMHLD	65	0	7	768
NMSTR	65	288	6
NMSCL	65	288	6	96	192	2
NMHLD	67	0	0	576
NMSTR	67	288	2
NMSCR	67	288	2	96	192	6
NMHLD	69	0	4	288
NMTAP	69	0	6
NMTAP	69	96	6
NMTAP	69	192	5
NMSTR	69	288	5
NMSI_	69	288	5	96	96	2
NMTTP	70	0	4	E	0	M1
NMTTP	70	96	0	C	0	M1
CNSI_	70	96	2	0	96	7
NMTTP	70	192	1	E	0	M1
CNSI_	70	192	7	0	96	4
EXTAP	70	288	0
NMTAP	71	0	1
NMHLD	71	0	3	288
NMTAP	71	96	1
NMTAP	71	192	2
NMSTR	71	288	2
NMSI_	71	288	2	96	96	5
NMTTP	72	0	4	E	0	M1
NMTTP	72	96	0	C	0	M1
CNSI_	72	96	5	0	96	0
CNSI_	72	192	0	0	96	3
NMTTP	72	192	7	E	0	M1
EXTAP	72	288	7
BRTAP	73	0	4
BRHLD	73	0	6	96
NMTTP	73	96	4	E	0	M1
NMTTP	73	120	3	B	0	M1
NMTTP	73	144	2	B	0	M1
NMTTP	73	168	2	E	0	M1
NMTTP	73	192	6	E	0	M1
NMTTP	73	216	5	B	0	M1
NMTTP	73	240	4	B	0	M1
NMTTP	73	264	4	E	0	M1
NMTTP	73	288	0	A	0	M1
NMTTP	73	312	0	E	0	M1
NMTTP	73	336	7	E	0	M1
NMTTP	73	360	6	A	0	M1
NMTTP	74	0	1	E	0	M1
NMTTP	74	24	0	B	0	M1
NMTTP	74	48	6	B	0	M1
NMTTP	74	72	6	E	0	M1
NMTTP	74	96	2	E	0	M1
NMTTP	74	120	2	B	0	M1
NMTTP	74	144	4	B	0	M1
NMTTP	74	168	5	E	0	M1
NMTTP	74	192	0	D	0	M1
NMTTP	74	216	1	D	0	M1
NMTTP	74	240	2	D	0	M1
NMTTP	74	264	3	D	0	M1
NMTTP	74	288	4	D	0	M1
NMTTP	74	312	5	D	0	M1
NMTTP	74	336	6	D	0	M1
NMTTP	74	360	7	D	0	M1
NMTTP	75	0	0	D	0	M1
BXHLD	75	0	3	384
NMTAP	76	0	7
NMTAP	76	96	7
NMSTR	76	192	0
NMSV_	76	192	0	96	48	3
NMSTR	76	192	6
NMSV_	76	192	6	96	48	3
NMTAP	76	216	1
NMTAP	76	216	5
NMTAP	76	240	2
NMTAP	76	240	4
EXTAP	76	288	0
EXTAP	76	288	6
BRTAP	77	0	0
BRTAP	77	0	5
NMTAP	77	48	1
NMTAP	77	72	3
NMTAP	77	96	2
NMTAP	77	120	5
NMTAP	77	144	3
NMTAP	77	168	4
NMTAP	77	192	2
NMTAP	77	216	3
NMTAP	77	240	1
NMTAP	77	288	0
NMTAP	77	288	7
NMTAP	77	336	6
NMTAP	77	360	4
NMTAP	78	0	5
NMTAP	78	48	2
NMTAP	78	48	3
NMSTR	78	96	1
NMSI_	78	96	1	96	48	4
NMTAP	78	120	0
NMTAP	78	168	0
NMTAP	78	192	1
NMSTR	78	240	5
NMSI_	78	240	5	96	48	0
NMTAP	78	264	3
NMTAP	78	312	3
NMTAP	78	336	5
BRTAP	79	0	1
NMTAP	79	48	6
NMTAP	79	72	4
NMTAP	79	96	5
NMTAP	79	120	2
NMTAP	79	144	4
NMTAP	79	168	3
NMTAP	79	192	5
NMTAP	79	216	4
NMTAP	79	240	6
NMTAP	79	288	0
NMTAP	79	288	7
NMTAP	79	336	1
NMTAP	79	360	3
NMTAP	80	0	2
NMTAP	80	48	2
NMTAP	80	48	7
NMSTR	80	96	1
NMSI_	80	96	1	96	48	4
NMTAP	80	120	0
NMTAP	80	168	0
NMTAP	80	192	1
NMSTR	80	240	6
NMSI_	80	240	6	96	48	3
NMTAP	80	264	7
NMTAP	80	312	7
NMTAP	80	336	6
BRTAP	81	0	0
NMTAP	81	48	1
NMTAP	81	72	3
NMTAP	81	96	2
NMTAP	81	120	5
NMTAP	81	144	3
NMTAP	81	168	4
NMTAP	81	192	2
NMTAP	81	216	3
NMSTR	81	240	1
NMSCR	81	240	1	96	48	4
NMTAP	81	288	2
NMTAP	81	288	7
EXTAP	81	336	0
EXTAP	81	352	7
EXTAP	81	368	6
BXTAP	82	0	5
NMTAP	82	96	5
NMTAP	82	120	3
NMTAP	82	144	5
NMTAP	82	168	3
NMHLD	82	192	4	48
NMTAP	82	240	2
NMTAP	82	264	3
NMTAP	82	288	1
NMTAP	82	312	4
NMTAP	82	336	0
NMHLD	83	0	1	48
NMHLD	83	0	7	48
NMHLD	83	72	2	48
NMHLD	83	72	3	48
NMTAP	83	144	4
NMTAP	83	144	5
NMTAP	83	192	6
NMTAP	83	216	7
NMTAP	83	240	5
NMTAP	83	264	0
NMSTR	83	288	4
NMSI_	83	288	4	96	48	0
NMSTR	84	0	1
NMSI_	84	0	1	96	48	4
BRTAP	84	0	4
BRTAP	84	96	1
NMSTR	84	96	6
NMSCR	84	96	6	96	48	1
NMSTR	84	192	3
BRSI_	84	192	3	96	48	7
BRTAP	84	192	6
NMTAP	84	240	2
BRTAP	84	288	3
BRTAP	84	288	5
EXTAP	85	0	0
EXTAP	85	0	6
NMTAP	85	48	1
NMTAP	85	72	5
NMTAP	85	96	2
NMTAP	85	120	4
NMHLD	85	144	3	48
NMTAP	85	192	5
NMTAP	85	216	4
NMTAP	85	240	6
NMTAP	85	264	3
NMHLD	85	288	7	48
NMTAP	85	336	1
NMTAP	85	360	0
NMTAP	86	0	1
NMTAP	86	48	2
NMTAP	86	48	7
NMSTR	86	96	5
NMSI_	86	96	5	96	48	0
NMTAP	86	120	4
NMTAP	86	168	4
NMTAP	86	192	5
NMSTR	86	240	1
NMSCR	86	240	1	96	48	4
NMTAP	86	264	7
NMTAP	86	312	7
NMTAP	86	336	1
EXTAP	87	0	5
NMTAP	87	48	6
NMTAP	87	72	7
NMTAP	87	96	5
NMTAP	87	120	0
NMHLD	87	144	4	48
NMTAP	87	192	1
NMTAP	87	216	3
NMTAP	87	240	2
NMTAP	87	264	4
NMHLD	87	288	3	48
NMTAP	87	336	6
NMTAP	87	360	5
NMTAP	88	0	1
NMTAP	88	24	2
NMTAP	88	48	7
NMTAP	88	72	6
NMTAP	88	96	0
NMTAP	88	120	1
NMTAP	88	144	6
NMTAP	88	168	5
BRTAP	88	192	0
NMTAP	88	264	1
NMTAP	88	264	7
NMTAP	88	336	3
NMTAP	88	336	5
EXTAP	89	0	2
EXTAP	89	0	4
NMTAP	89	48	5
NMTAP	89	72	1
NMTAP	89	96	6
NMTAP	89	120	0
NMHLD	89	144	7	48
NMTAP	89	192	1
NMTAP	89	216	0
NMTAP	89	240	2
NMTAP	89	264	7
NMHLD	89	288	3	48
NMTAP	89	336	5
NMTAP	89	360	4
NMTAP	90	0	5
NMTAP	90	48	3
NMTAP	90	48	6
NMSTR	90	96	1
NMSI_	90	96	1	96	48	5
NMTAP	90	120	0
NMTAP	90	168	0
BRTAP	90	192	1
EXTAP	90	264	6
NMTAP	90	336	1
NMTAP	90	336	7
BRTAP	91	0	0
NMTAP	91	0	6
EXTAP	91	16	1
EXTAP	91	32	2
EXTAP	91	48	3
EXTAP	91	64	4
EXTAP	91	80	5
BRTAP	91	96	0
EXTAP	91	112	7
EXTAP	91	128	6
EXTAP	91	144	5
EXTAP	91	160	4
EXTAP	91	176	3
BRTAP	91	192	7
EXTAP	91	208	0
EXTAP	91	224	1
EXTAP	91	240	2
EXTAP	91	256	3
EXTAP	91	272	4
BRTAP	91	288	7
EXTAP	91	304	6
EXTAP	91	320	5
EXTAP	91	336	4
EXTAP	91	352	3
EXTAP	91	368	2
BRTAP	92	0	0
NMTAP	92	48	0
BRTAP	92	96	1
NMTAP	92	96	5
EXTAP	92	112	2
EXTAP	92	128	3
NMTAP	92	144	7
EXTAP	92	160	6
EXTAP	92	176	5
BRTAP	92	192	0
EXTAP	92	208	1
EXTAP	92	224	2
NMTAP	92	240	6
EXTAP	92	256	5
EXTAP	92	272	4
BRSTR	92	288	1
NMSI_	92	288	1	96	48	7
EXTAP	92	304	2
EXTAP	92	320	3
NMTAP	92	336	7
EXTAP	92	352	6
EXTAP	92	368	5
BRSTR	93	0	1
NMSCR	93	0	1	96	96	3
CNSUR	93	192	3	0	192	4
CNSCR	94	0	4	0	144	6
NMTAP	94	288	6
NMTAP	94	312	7
NMTAP	94	360	0
NMTAP	94	360	5
BRTAP	95	0	0
BRTAP	95	0	5
NMHLD	95	72	2	72
NMTAP	95	144	3
NMTAP	95	216	1
NMTAP	95	216	4
NMTTP	95	288	1	B	0	M1
NMTTP	95	288	2	E	0	M1
NMTTP	95	304	2	B	0	M1
NMTTP	95	320	3	B	0	M1
NMTTP	95	336	4	E	0	M1
NMTTP	96	0	6	B	0	M1
NMTTP	96	0	6	E	0	M1
NMTTP	96	16	5	B	0	M1
NMTTP	96	32	4	B	0	M1
NMTTP	96	48	4	E	0	M1
NMTTP	96	96	1	E	0	M1
NMTTP	96	96	1	D	0	M1
NMTTP	96	108	1	A	0	M1
NMTTP	96	120	2	D	0	M1
NMTTP	96	132	2	A	0	M1
NMTTP	96	144	3	D	0	M1
NMTTP	96	156	3	A	0	M1
NMTTP	96	192	7	E	0	M1
NMTTP	96	192	7	D	0	M1
NMTTP	96	204	6	A	0	M1
NMTTP	96	216	6	D	0	M1
NMTTP	96	228	5	A	0	M1
NMTTP	96	240	5	D	0	M1
NMTTP	96	252	4	A	0	M1
BRTAP	96	288	1
BRTAP	96	288	7
NMTAP	97	0	3
NMTAP	97	0	6
NMTAP	97	48	5
NMTAP	97	72	4
NMTAP	97	96	5
NMTAP	97	144	3
NMSTR	97	144	6
NMSCL	97	144	6	96	48	3
NMTAP	97	240	3
NMTAP	97	256	2
NMTAP	97	272	1
EXTAP	97	288	0
BRTAP	97	336	1
BRTAP	97	336	5
NMTAP	98	48	6
NMTAP	98	96	6
NMTAP	98	144	6
EXTAP	98	144	7
EXTAP	98	160	0
EXHLD	98	176	1	64
NMTAP	98	240	3
NMTAP	98	288	3
NMTAP	98	336	2
NMTAP	98	336	4
NMHLD	99	0	3	48
NMHLD	99	0	5	48
NMHLD	99	72	3	48
NMHLD	99	72	5	48
NMHLD	99	144	2	48
NMHLD	99	144	4	48
NMHLD	99	216	2	48
NMHLD	99	216	4	48
NMTAP	99	288	1
NMTAP	99	288	5
NMTAP	99	336	1
NMTAP	99	336	5
NMTAP	100	0	0
NMTAP	100	24	6
NMTAP	100	48	0
NMTAP	100	72	6
NMTAP	100	96	1
NMTAP	100	120	7
NMTAP	100	144	1
NMTAP	100	168	7
NMTAP	100	192	2
NMTAP	100	204	3
NMTAP	100	216	4
NMTAP	100	228	5
NMTAP	100	240	6
NMTAP	100	252	7
NMTAP	100	264	0
NMTAP	100	276	1
BRTAP	100	288	2
BRTAP	100	288	6
NMTAP	101	0	3
NMTAP	101	0	5
NMTAP	101	48	2
NMTAP	101	72	0
NMTAP	101	120	0
NMTAP	101	144	7
NMTAP	101	192	7
NMTAP	101	216	5
NMTAP	101	264	5
NMTAP	101	288	4
NMTAP	101	336	1
NMTAP	101	336	7
NMTAP	101	360	2
NMTAP	101	360	6
NMHLD	102	0	3	48
NMHLD	102	0	5	48
NMTAP	102	96	6
NMTAP	102	120	4
NMTAP	102	144	5
NMTAP	102	168	4
NMHLD	102	192	6	48
NMHLD	102	264	5	48
NMHLD	102	264	7	48
NMTAP	102	336	0
NMTAP	102	336	4
NMTAP	103	0	1
NMTAP	103	0	3
NMTAP	103	48	5
NMTAP	103	72	7
NMTAP	103	120	7
NMTAP	103	144	0
NMTAP	103	192	0
NMTAP	103	216	2
NMTAP	103	264	2
NMTAP	103	288	3
NMTAP	103	336	0
NMTAP	103	336	6
NMTAP	104	0	0
NMTAP	104	0	6
NMTAP	104	24	1
NMTAP	104	48	2
NMTAP	104	72	3
NMTAP	104	96	4
NMTAP	104	120	5
NMTAP	104	144	6
NMTAP	104	168	7
NMSTR	104	192	0
NMSCL	104	192	0	96	48	5
NMSCR	104	192	0	96	48	3
NMTAP	104	192	4
EXTAP	104	288	0
BRTAP	105	0	1
BRTAP	105	0	7
NMTAP	105	96	5
NMTAP	105	120	3
NMTAP	105	144	5
NMTAP	105	168	3
NMTAP	105	192	4
NMTAP	105	216	2
NMTAP	105	240	4
NMTAP	105	264	2
NMTAP	105	288	3
NMTAP	105	312	1
NMTAP	105	336	3
NMTAP	105	360	1
NMTAP	106	0	4
NMTAP	106	24	0
NMTAP	106	48	4
NMTAP	106	72	0
NMTAP	106	96	5
NMTAP	106	120	7
NMTAP	106	144	5
NMTAP	106	168	7
NMTAP	106	192	6
NMTAP	106	216	0
NMTAP	106	240	6
NMTAP	106	264	0
NMHLD	106	288	7	96
BRTAP	107	0	2
NMTAP	107	16	3
NMTAP	107	32	4
NMTAP	107	48	5
NMTAP	107	64	6
NMTAP	107	80	7
NMTAP	107	96	0
NMTAP	107	112	1
NMTAP	107	128	2
EXTAP	107	144	3
BRTAP	107	144	6
NMTAP	107	160	5
NMTAP	107	176	4
NMTAP	107	192	3
NMTAP	107	208	2
NMTAP	107	224	1
NMTAP	107	240	0
NMTAP	107	256	7
NMTAP	107	272	6
BRTAP	107	288	1
EXHLD	107	288	5	96
NMTTP	108	0	4	E	0	M1
NMTTP	108	12	5	E	0	M1
NMTTP	108	24	6	E	0	M1
NMTTP	108	36	7	E	0	M1
NMTTP	108	48	0	E	0	M1
NMTTP	108	60	1	E	0	M1
NMTTP	108	72	2	E	0	M1
NMTTP	108	84	3	E	0	M1
NMTTP	108	96	4	E	0	M1
NMTTP	108	108	5	E	0	M1
NMTTP	108	120	6	E	0	M1
NMTTP	108	132	7	E	0	M1
NMTTP	108	144	0	E	0	M1
NMTTP	108	156	1	E	0	M1
NMTTP	108	168	2	E	0	M1
NMTTP	108	180	3	E	0	M1
NMTTP	108	192	0	C	0	M1
NMTTP	108	192	3	B	0	M1
NMTTP	108	192	4	B	0	M1
NMTTP	108	192	4	E	1	M1
BRTAP	108	288	0
BRTAP	108	288	7
NMSTR	109	0	1
NMSI_	109	0	1	96	48	3
NMTAP	109	0	6
NMTAP	109	96	0
NMSTR	109	96	1
NMSI_	109	96	1	96	48	5
NMTAP	109	144	7
NMTAP	109	192	1
NMSTR	109	192	6
BRSCR	109	192	6	96	48	1
NMTAP	109	288	1
NMTAP	109	304	2
NMTAP	109	320	3
NMSTR	109	336	4
NMSLL	109	336	4	96	96	6
NMTAP	110	48	7
NMSTR	110	96	5
NMSI_	110	96	5	96	48	1
NMTAP	110	192	3
CNSI_	110	240	1	0	48	7
BXHLD	110	240	2	96
NMHLD	111	0	6	48
NMHLD	111	0	7	48
NMHLD	111	72	4	48
NMHLD	111	72	5	48
NMTAP	111	144	2
NMTAP	111	144	3
NMTAP	111	192	1
NMTAP	111	192	4
NMTAP	111	264	0
NMTAP	111	288	0
NMTAP	111	312	3
NMTAP	111	336	2
NMTAP	111	360	4
NMHLD	112	0	1	72
NMTAP	112	72	7
NMTAP	112	96	7
NMTAP	112	120	4
NMTAP	112	144	5
NMTAP	112	168	3
EXHLD	112	192	6	72
NMTAP	112	264	7
NMTAP	112	336	0
NMTAP	112	336	7
NMTAP	113	0	1
NMSTR	113	0	6
NMSI_	113	0	6	96	48	4
NMSTR	113	96	6
NMSI_	113	96	6	96	48	2
NMTAP	113	96	7
NMTAP	113	144	0
NMSTR	113	192	1
BRSCL	113	192	1	96	48	6
NMTAP	113	192	6
NMTAP	113	288	6
NMTAP	113	304	5
NMTAP	113	320	4
NMSTR	113	336	3
NMSLR	113	336	3	96	96	1
NMTAP	114	48	0
NMSTR	114	96	2
NMSI_	114	96	2	96	48	6
NMTAP	114	192	4
BXHLD	114	240	5	96
CNSI_	114	240	6	0	48	0
BRTAP	115	0	0
BRTAP	115	0	7
NMTAP	115	48	1
NMTAP	115	72	0
NMTAP	115	96	2
NMTAP	115	120	7
NMTAP	115	144	3
NMTAP	115	168	6
NMTAP	115	192	4
NMTAP	115	216	5
NMTAP	115	240	3
NMTAP	115	264	4
NMTAP	115	288	2
NMTAP	115	312	3
NMTAP	115	336	2
NMTAP	115	360	3
NMTAP	116	0	1
NMTAP	116	24	1
NMTAP	116	48	5
NMTAP	116	72	5
NMTAP	116	96	3
NMTAP	116	120	3
NMTAP	116	144	7
NMTAP	116	168	7
BRTAP	116	192	1
NMTAP	116	216	0
NMTAP	116	240	2
BRTAP	116	264	6
NMTAP	116	288	7
NMTAP	116	312	5
NMTAP	116	336	3
NMTAP	116	348	2
NMTAP	116	360	1
NMTAP	116	372	0
BRSTR	117	0	4
BRSCR	117	0	4	96	672	7
BRSTR	117	0	7
BRSCR	117	0	7	96	672	2
CNSUR	119	0	2	0	672	4
CNSUR	119	0	7	0	672	1

T_REC_TAP	611
T_REC_BRK	55
T_REC_XTP	62
T_REC_BXX	4
T_REC_HLD	78
T_REC_XHO	5
T_REC_BHO	3
T_REC_BXH	5
T_REC_STR	65
T_REC_BST	8
T_REC_XST	0
T_REC_XBS	1
T_REC_TTP	127
T_REC_THO	1
T_REC_SLD	72
T_REC_BSL	6
T_REC_ALL	1103
T_NUM_TAP	865
T_NUM_BRK	82
T_NUM_HLD	84
T_NUM_SLD	72
T_NUM_ALL	1103
T_JUDGE_TAP	933
T_JUDGE_HLD	287
T_JUDGE_SLD	78
T_JUDGE_ALL	1298
TTM_EACHPAIRS	130
TTM_SCR_TAP	432500
TTM_SCR_BRK	213200
TTM_SCR_HLD	84000
TTM_SCR_SLD	108000
TTM_SCR_ALL	837700
TTM_SCR_S	804650
TTM_SCR_SS	829500
TTM_RAT_ACV	10098

