VERSION	0.00.00	1.04.00
FES_MODE	0
BPM_DEF	180.000	180.000	180.000	180.000
MET_DEF	4	4
RESOLUTION	384
CLK_DEF	384
COMPATIBLE_CODE	MA2

BPM	0	0	180.000
MET	0	0	4	4

EXHLD	5	0	7	72
NMHLD	5	72	5	72
EXHLD	5	144	4	72
NMHLD	5	216	2	72
EXSTR	5	288	7
NMSCL	5	288	7	96	48	4
EXHLD	6	48	1	72
NMTAP	6	120	0
EXHLD	6	192	6	72
NMTAP	6	264	7
NMTAP	6	336	0
EXHLD	7	0	0	72
NMHLD	7	72	2	72
EXHLD	7	144	3	72
NMHLD	7	216	5	72
EXSTR	7	288	0
NMSI_	7	288	0	96	32	2
EXSTR	8	0	4
NMSI_	8	0	4	96	32	6
EXSTR	8	96	2
NMSI_	8	96	2	96	32	4
EXSTR	8	192	6
NMSI_	8	192	6	96	32	0
EXSTR	8	288	4
NMSCL	8	288	4	96	768	0
NMTHO	9	0	0	768	C	0	M1
CNSCL	11	0	0	0	288	4
NMTTP	12	0	7	A	0	M1
NMTTP	12	96	0	C	0	M1
NMTTP	12	192	3	A	0	M1
NMTTP	12	288	1	A	0	M1
NMTTP	12	288	5	A	0	M1
EXHLD	13	0	2	240
EXHLD	13	0	4	96
NMHLD	13	144	3	240
NMHLD	13	288	1	240
NMHLD	14	48	2	96
NMSTR	14	192	0
NMSI_	14	192	0	96	48	4
NMTAP	14	192	3
EXHLD	15	0	3	96
EXHLD	15	0	5	240
NMHLD	15	144	4	240
NMHLD	15	288	6	240
NMHLD	16	48	5	96
NMTAP	16	192	4
NMSTR	16	192	7
NMSI_	16	192	7	96	48	3
NMTAP	17	0	2
NMTAP	17	0	4
NMTAP	17	96	2
NMTAP	17	96	3
NMSTR	17	192	1
NMSI_	17	192	1	96	48	4
NMTAP	17	192	3
NMTAP	17	288	7
NMTAP	18	0	3
NMTAP	18	0	5
NMTAP	18	96	4
NMTAP	18	96	5
NMTAP	18	192	4
NMSTR	18	192	6
NMSI_	18	192	6	96	48	3
NMTAP	18	288	0
NMTAP	19	0	2
NMTAP	19	48	2
NMTAP	19	96	6
NMTAP	19	144	6
NMTAP	19	192	1
NMTAP	19	216	7
NMTAP	19	240	1
NMTAP	19	264	7
NMTAP	19	288	1
NMTAP	19	312	7
NMTAP	19	336	1
NMTAP	19	360	7
NMSTR	20	0	0
NMSI_	20	0	0	96	48	6
CNSI_	20	144	6	0	48	2
CNSI_	20	192	2	0	48	4
NMSTR	20	288	6
BRSI_	20	288	6	96	48	2
BRTAP	21	0	0
NMTAP	21	96	1
NMTAP	21	192	2
NMTAP	21	192	3
NMHLD	21	288	1	96
NMTAP	21	288	4
NMTAP	22	0	0
NMTAP	22	96	1
NMTAP	22	96	7
NMSTR	22	192	5
NMSI_	22	192	5	96	32	3
NMSTR	22	288	1
NMSI_	22	288	1	96	48	5
NMTAP	23	0	7
NMTAP	23	96	6
NMTAP	23	192	4
NMTAP	23	192	5
NMSTR	23	288	3
NMSUL	23	288	3	96	192	1
NMTAP	23	288	6
NMTAP	24	0	4
EXSTR	24	192	6
NMSI_	24	192	6	96	48	3
EXSTR	24	288	2
NMSI_	24	288	2	96	48	7
EXTAP	25	0	4
NMTAP	25	96	6
NMTAP	25	192	4
NMTAP	25	192	5
NMTAP	25	288	3
NMHLD	25	288	6	96
NMTAP	26	0	7
NMTAP	26	96	1
NMTAP	26	96	5
NMSTR	26	192	2
NMSI_	26	192	2	96	48	4
NMSTR	26	192	6
NMSI_	26	192	6	96	48	2
NMHLD	27	0	0	96
NMHLD	27	96	2	96
NMHLD	27	192	4	96
NMSTR	27	288	6
NMSCL	27	288	6	96	192	0
EXTAP	28	0	7
NMSTR	28	192	7
NMSF_	28	192	7	96	48	3
EXTAP	29	0	1
EXTAP	29	0	5
BRTAP	29	96	0
BRTAP	29	96	6
NMTAP	29	192	7
NMTAP	29	240	7
NMSTR	29	288	0
NMSCR	29	288	0	96	48	3
NMTAP	30	0	5
NMTAP	30	48	5
NMTAP	30	96	4
NMTAP	30	144	5
NMTAP	30	192	3
NMTAP	30	192	6
NMTAP	30	288	1
NMSTR	30	288	4
NMSCR	30	288	4	96	48	7
NMTAP	31	0	3
NMTAP	31	96	0
NMTAP	31	96	1
NMHLD	31	192	2	48
NMHLD	31	192	3	48
NMHLD	31	288	4	48
NMHLD	31	288	5	48
NMSTR	32	0	6
NMSI_	32	0	6	96	48	3
NMSTR	32	0	7
NMSI_	32	0	7	96	48	2
NMHLD	32	192	1	72
NMHLD	32	264	2	72
NMTAP	32	336	3
NMSTR	33	0	3
NMSI_	33	0	3	96	48	0
NMSI_	33	0	3	96	48	6
NMTAP	33	192	7
NMTAP	33	240	7
NMTAP	33	288	0
NMTAP	33	288	6
NMTAP	34	0	5
NMTAP	34	48	5
NMTAP	34	96	4
NMTAP	34	144	6
NMTAP	34	192	0
NMTAP	34	240	0
NMTAP	34	288	1
NMTAP	34	288	7
NMHLD	35	0	6	72
NMHLD	35	72	5	72
NMTAP	35	144	4
NMTAP	35	240	0
NMTAP	35	240	1
NMTAP	35	288	0
NMTAP	35	288	1
NMSTR	35	336	2
NMSCL	35	336	2	96	48	7
NMSTR	35	336	7
NMSCL	35	336	7	96	48	4
EXTAP	36	144	3
EXSTR	36	192	3
BRSI_	36	192	3	96	48	7
NMHLD	37	0	0	72
NMHLD	37	72	1	72
NMHLD	37	144	2	72
NMHLD	37	216	3	72
NMTAP	37	288	4
NMTAP	38	0	6
NMSTR	38	0	7
NMSI_	38	0	7	96	48	3
NMTAP	38	96	5
NMTAP	38	192	2
NMSTR	38	192	4
NMSI_	38	192	4	96	48	0
NMTAP	38	288	1
NMHLD	39	0	7	72
NMTAP	39	72	5
NMHLD	39	144	0	72
NMTAP	39	216	2
NMTAP	39	288	1
NMTAP	39	288	6
NMSTR	40	0	5
NMSI_	40	0	5	96	48	2
NMTAP	40	96	0
NMSTR	40	192	1
NMSI_	40	192	1	96	48	6
NMTAP	40	288	4
NMHLD	41	0	7	72
NMHLD	41	72	6	72
NMHLD	41	144	5	72
NMHLD	41	216	4	72
NMTAP	41	288	3
NMSTR	42	0	0
NMSI_	42	0	0	96	48	4
NMTAP	42	0	1
NMTAP	42	96	2
NMSTR	42	192	3
NMSI_	42	192	3	96	48	7
NMTAP	42	192	5
NMTAP	42	288	6
NMHLD	43	0	0	96
NMHLD	43	0	4	96
NMHLD	43	144	3	96
NMHLD	43	144	7	96
EXTAP	43	288	1
EXTAP	43	288	5
NMTAP	44	0	2
NMTAP	44	96	3
NMTAP	44	192	4
NMSTR	44	288	5
NMSCR	44	288	5	96	1152	4
NMTTP	45	0	0	C	1	M1
NMHLD	49	0	1	384
NMTTP	49	192	3	E	0	M1
NMHLD	50	0	3	384
NMTTP	50	192	2	B	0	M1
NMHLD	51	0	4	384
NMTTP	51	192	5	B	0	M1
NMHLD	52	0	6	384
NMTTP	52	192	5	E	0	M1
EXTAP	53	0	2
NMTAP	54	0	3
NMTAP	54	0	5
NMTAP	54	192	2
NMTAP	54	192	4
BRSTR	55	0	1
NMSI_	55	0	1	96	48	4
BRSTR	55	0	5
NMSI_	55	0	5	96	48	0
NMTAP	55	192	2
NMTAP	55	240	2
NMTAP	55	288	3
NMHLD	55	336	1	96
NMTAP	56	48	0
NMTAP	56	96	2
NMTAP	56	96	7
NMTAP	56	192	6
NMTAP	56	192	7
NMTAP	56	240	6
NMTAP	56	240	7
NMTAP	56	288	0
NMTAP	56	288	5
NMTAP	57	0	2
NMTAP	57	48	2
NMTAP	57	96	3
NMTAP	57	144	1
NMTAP	57	192	7
NMTAP	57	240	0
NMTAP	57	288	6
NMTAP	57	336	6
NMTAP	58	0	4
NMTAP	58	48	5
NMTAP	58	96	2
NMTAP	58	144	2
NMTAP	58	144	3
NMTAP	58	240	6
NMSTR	58	288	6
NMSI_	58	288	6	96	48	2
NMTAP	59	0	0
NMTAP	59	96	1
NMTAP	59	96	7
NMHLD	59	192	4	72
NMHLD	59	264	5	72
NMTAP	59	336	6
NMHLD	60	0	3	72
NMHLD	60	72	2	72
NMTAP	60	144	1
NMSTR	60	192	1
NMSI_	60	192	1	96	48	5
NMHLD	61	0	7	768
NMTTP	61	96	7	E	0	M1
NMTTP	61	192	6	E	0	M1
NMTTP	61	288	5	E	0	M1
NMTTP	62	0	4	E	0	M1
NMTTP	62	96	3	E	0	M1
NMTTP	62	192	2	E	0	M1
NMTTP	62	288	1	E	0	M1
NMHLD	63	0	0	768
NMTTP	63	96	0	D	0	M1
NMTTP	63	192	1	D	0	M1
NMTTP	63	288	2	D	0	M1
NMTTP	64	0	3	D	0	M1
NMTTP	64	96	4	D	0	M1
NMTTP	64	192	5	D	0	M1
NMTTP	64	288	6	D	0	M1
NMHLD	65	0	6	384
NMTTP	65	96	7	E	0	M1
NMTTP	65	192	5	B	0	M1
NMTTP	65	288	4	E	0	M1
NMHLD	66	0	1	384
NMTTP	66	96	1	E	0	M1
NMTTP	66	192	2	B	0	M1
NMTTP	66	288	4	E	0	M1
NMHLD	67	0	5	192
NMTTP	67	96	5	E	0	M1
NMHLD	67	192	2	192
NMTTP	67	288	3	E	0	M1
NMHLD	68	0	4	96
NMTAP	68	96	3
NMTAP	68	192	4
NMTAP	68	288	2
NMTAP	68	288	5
EXHLD	69	0	1	48
NMTAP	69	96	2
NMHLD	69	96	3	48
NMHLD	69	192	2	48
NMTAP	69	288	3
NMHLD	69	288	4	48
EXHLD	70	0	6	48
NMHLD	70	96	4	48
NMTAP	70	96	5
NMHLD	70	192	5	48
NMHLD	70	288	3	48
NMTAP	70	288	4
EXHLD	71	0	0	48
NMTAP	71	96	1
NMHLD	71	96	3	48
NMHLD	71	192	2	48
NMTAP	71	288	3
NMHLD	71	288	5	48
EXHLD	72	0	7	48
NMHLD	72	96	4	48
NMTAP	72	96	6
NMHLD	72	192	5	48
NMHLD	72	288	2	48
NMTAP	72	288	4
NMSTR	73	0	0
NMSCR	73	0	0	96	48	3
NMTAP	73	96	5
NMSTR	73	192	7
NMSCL	73	192	7	96	48	4
NMTAP	73	288	2
NMSTR	74	0	1
NMSI_	74	0	1	96	48	5
NMTAP	74	96	7
NMTAP	74	192	0
NMTAP	74	192	6
NMSTR	74	288	1
NMSXR	74	288	1	96	624	6
NMSTR	74	288	5
NMSXR	74	288	5	96	624	2
BRHLD	77	0	0	72
BRTAP	77	0	7
NMHLD	77	72	2	72
NMHLD	77	144	3	72
NMHLD	77	216	5	72
EXSTR	77	288	4
NMSI_	77	288	4	96	48	0
NMTAP	78	0	6
NMHLD	78	48	6	72
NMTAP	78	120	7
NMHLD	78	192	1	72
NMTAP	78	264	0
NMTAP	78	336	3
NMTAP	78	336	7
NMHLD	79	0	3	72
NMTAP	79	0	7
NMHLD	79	72	4	72
NMHLD	79	144	5	72
NMHLD	79	216	6	72
NMSTR	79	288	7
NMSCR	79	288	7	96	192	5
NMTAP	80	0	5
NMSTR	80	192	6
NMSI_	80	192	6	96	48	2
BRTAP	80	288	0
EXTAP	81	0	1
EXHLD	81	0	7	72
NMHLD	81	72	5	72
NMHLD	81	144	4	72
NMHLD	81	216	2	72
EXSTR	81	288	3
NMSI_	81	288	3	96	48	7
NMTAP	82	0	1
NMHLD	82	48	1	72
NMTAP	82	120	0
NMHLD	82	192	6	72
NMTAP	82	264	7
NMTAP	82	336	0
NMTAP	82	336	4
NMTAP	83	0	0
NMHLD	83	0	4	72
NMHLD	83	72	2	72
NMHLD	83	144	6	72
NMHLD	83	216	0	72
NMTAP	83	288	7
NMTAP	84	0	1
NMTAP	84	0	6
NMTAP	84	48	5
NMTAP	84	72	4
NMTAP	84	96	5
NMTAP	84	144	2
NMTAP	84	168	3
NMTAP	84	192	2
NMTAP	84	240	5
NMTAP	84	264	4
NMTAP	84	288	6
NMTAP	84	336	2
NMTAP	84	360	3
NMSTR	85	0	1
NMSI_	85	0	1	96	48	5
BRTAP	85	96	7
NMTAP	85	192	0
NMTAP	85	192	6
NMTAP	85	240	0
NMTAP	85	240	6
EXTAP	85	288	1
EXTAP	85	288	5
NMTAP	86	0	2
NMHLD	86	48	2	72
NMHLD	86	120	0	72
NMHLD	86	192	7	72
NMHLD	86	264	5	72
NMTAP	86	336	4
NMTAP	87	0	4
NMTAP	87	0	6
NMTAP	87	72	0
NMTAP	87	72	7
NMTAP	87	144	1
NMTAP	87	144	3
NMTAP	87	216	0
NMTAP	87	216	7
NMTAP	87	288	2
NMTAP	87	288	5
NMTAP	88	0	1
NMTAP	88	24	0
NMTAP	88	48	1
NMTAP	88	96	6
NMTAP	88	120	7
NMTAP	88	144	6
EXSTR	88	192	0
BRSCR	88	192	0	96	48	3
EXSTR	88	192	7
BRSCL	88	192	7	96	48	4
EXTAP	89	0	1
EXHLD	89	0	6	72
NMHLD	89	72	4	72
NMHLD	89	144	3	72
NMHLD	89	216	1	72
EXSTR	89	288	0
NMSI_	89	288	0	96	48	4
NMTAP	90	0	2
NMHLD	90	48	2	72
NMTAP	90	120	3
NMHLD	90	192	6	72
NMTAP	90	264	4
NMTAP	90	336	3
NMTAP	90	336	7
NMTAP	91	0	3
NMSTR	91	0	7
NMSI_	91	0	7	96	48	3
NMSTR	91	96	0
NMSI_	91	96	0	96	48	4
NMSTR	91	192	6
NMSI_	91	192	6	96	48	2
NMSTR	91	288	1
NMSI_	91	288	1	96	48	5
NMTAP	92	0	7
NMTAP	92	48	7
NMTAP	92	96	7
NMTAP	92	144	7
NMTAP	92	192	0
NMTAP	92	216	6
NMTAP	92	240	0
NMTAP	92	264	6
NMTAP	92	288	0
NMTAP	92	312	6
NMTAP	92	336	0
NMTAP	92	360	6
BXHLD	93	0	1	672
BXHLD	93	0	5	672
EXTAP	94	360	2
EXTAP	94	360	6
EXTAP	95	0	2
EXTAP	95	0	6
NMTAP	95	96	3
NMTAP	95	96	5
NMTAP	95	240	5
NMTAP	95	288	4
NMTAP	96	0	4
NMTAP	96	0	6
NMTAP	96	96	2
NMTAP	96	96	3
NMTAP	96	240	2
NMTAP	96	288	3
NMTAP	97	0	1
NMTAP	97	0	3
NMTAP	97	96	4
NMTAP	97	192	5
NMTAP	97	240	5
NMTAP	97	288	4
NMTAP	98	0	4
NMTAP	98	0	6
NMTAP	98	96	3
NMTAP	98	192	2
NMTAP	98	240	2
NMTAP	98	288	3
NMTAP	99	0	1
NMTAP	99	0	3
NMTAP	99	96	4
NMTAP	99	96	5
NMTAP	99	192	7
NMTAP	99	240	7
NMTAP	99	288	0
NMTAP	99	288	6
NMTAP	100	0	2
NMTAP	100	0	3
NMTAP	100	96	0
NMTAP	100	96	1
NMTAP	100	192	6
NMTAP	100	192	7
NMTAP	100	288	4
NMTAP	100	288	5
NMHLD	101	0	2	72
NMTAP	101	72	3
NMHLD	101	144	1	72
NMTAP	101	216	3
NMTAP	101	288	2
NMTAP	101	288	4
NMSTR	102	0	5
NMSI_	102	0	5	96	32	3
NMTAP	102	96	2
NMSTR	102	192	1
NMSI_	102	192	1	96	32	7
NMTAP	102	288	6
NMHLD	103	0	5	72
NMTAP	103	72	4
NMHLD	103	144	6	72
NMTAP	103	216	4
NMTAP	103	288	3
NMTAP	103	288	5
NMSTR	104	0	2
NMSI_	104	0	2	96	32	4
NMTAP	104	96	5
NMSTR	104	192	6
NMSI_	104	192	6	96	48	2
NMTAP	104	288	0
BRHLD	105	0	1	96
BRHLD	105	0	7	96
NMTAP	105	192	2
NMTAP	105	240	2
NMTAP	105	288	3
NMTAP	105	336	3
NMTAP	106	0	1
NMTAP	106	48	1
NMTAP	106	96	7
NMTAP	106	144	7
NMTAP	106	192	0
NMTAP	106	240	0
NMTAP	106	288	6
NMTAP	106	336	6
EXHLD	107	0	4	96
EXTAP	107	0	5
NMTAP	107	96	6
EXTAP	107	144	2
EXHLD	107	144	3	96
NMTAP	107	240	1
EXTAP	107	288	3
EXSTR	107	288	4
NMSCR	107	288	4	96	384	3
NMTHO	108	0	0	384	C	1	M1
NMTAP	109	288	0
NMTAP	109	288	1
NMTAP	109	336	2
NMTAP	109	336	7
NMTAP	110	48	6
NMTAP	110	48	7
NMTAP	110	96	0
NMSTR	110	96	5
NMSI_	110	96	5	96	32	3
NMSTR	110	192	1
NMSI_	110	192	1	96	48	5
NMTAP	110	288	7
EXHLD	111	0	6	72
NMHLD	111	72	5	72
NMTAP	111	144	4
EXHLD	111	192	1	72
NMHLD	111	264	2	72
NMTAP	111	336	3
EXHLD	112	0	7	72
NMHLD	112	72	5	72
NMTAP	112	144	4
EXHLD	112	192	0	72
NMHLD	112	264	2	72
NMTAP	112	336	3
EXSTR	113	0	1
NMSI_	113	0	1	96	48	4
EXSTR	113	0	5
NMSI_	113	0	5	96	48	0
EXTAP	113	192	2
EXTAP	113	192	6
NMTAP	113	288	6
NMTAP	113	288	7
NMTAP	113	336	0
NMTAP	113	336	5
NMTAP	114	48	0
NMTAP	114	48	1
NMTAP	114	96	2
NMSTR	114	96	7
NMSCL	114	96	7	96	48	4
NMSTR	114	192	0
NMSCR	114	192	0	96	48	3
BRTAP	114	288	7
NMHLD	115	0	6	72
NMHLD	115	72	4	72
NMHLD	115	144	3	72
NMHLD	115	216	1	72
NMTAP	115	288	0
NMTAP	116	0	2
NMTAP	116	0	3
NMTAP	116	72	0
NMTAP	116	72	7
NMTAP	116	144	4
NMTAP	116	144	5
NMTAP	116	192	4
NMTAP	116	192	6
NMTAP	116	264	0
NMTAP	116	264	7
NMTAP	116	336	1
NMTAP	116	336	3
BRTAP	117	0	0
BRTAP	117	0	7

T_REC_TAP	313
T_REC_BRK	9
T_REC_XTP	21
T_REC_BXX	0
T_REC_HLD	104
T_REC_XHO	22
T_REC_BHO	3
T_REC_BXH	2
T_REC_STR	49
T_REC_BST	2
T_REC_XST	17
T_REC_XBS	0
T_REC_TTP	32
T_REC_THO	2
T_REC_SLD	65
T_REC_BSL	4
T_REC_ALL	645
T_NUM_TAP	432
T_NUM_BRK	20
T_NUM_HLD	128
T_NUM_SLD	65
T_NUM_ALL	645
T_JUDGE_TAP	443
T_JUDGE_HLD	376
T_JUDGE_SLD	69
T_JUDGE_ALL	888
TTM_EACHPAIRS	117
TTM_SCR_TAP	216000
TTM_SCR_BRK	52000
TTM_SCR_HLD	128000
TTM_SCR_SLD	97500
TTM_SCR_ALL	493500
TTM_SCR_S	476800
TTM_SCR_SS	491500
TTM_RAT_ACV	10040

