VERSION	0.00.00	1.04.00
FES_MODE	0
BPM_DEF	180.000	180.000	180.000	180.000
MET_DEF	4	4
RESOLUTION	384
CLK_DEF	384
COMPATIBLE_CODE	MA2

BPM	0	0	180.000
MET	0	0	4	4

NMTAP	5	0	5
NMTAP	5	96	5
NMTAP	5	192	5
NMTAP	6	0	4
NMTAP	6	96	4
NMTAP	6	192	4
NMTAP	7	0	3
NMTAP	7	96	3
NMTAP	7	192	3
NMTAP	8	0	2
NMTAP	8	96	2
NMTAP	8	192	2
NMSTR	9	0	1
NMSUR	9	0	1	96	480	4
NMSTR	11	0	6
NMSUL	11	0	6	96	480	3
NMHLD	13	0	2	192
NMHLD	13	192	3	192
NMHLD	14	0	4	192
NMTAP	14	192	5
NMHLD	15	0	5	192
NMHLD	15	192	4	192
NMHLD	16	0	3	192
NMTAP	16	192	2
NMHLD	17	0	1	192
NMHLD	17	192	2	192
NMHLD	18	0	3	192
NMTAP	18	192	4
NMHLD	19	0	6	192
NMHLD	19	192	5	192
NMHLD	20	0	4	192
NMTAP	20	192	3
NMTAP	21	0	2
NMTAP	21	96	2
NMTAP	21	192	1
NMTAP	21	288	1
NMTAP	22	0	0
NMTAP	22	96	0
NMTAP	22	192	6
NMTAP	22	192	7
NMTAP	23	0	5
NMTAP	23	96	5
NMTAP	23	192	6
NMTAP	23	288	6
NMTAP	24	0	7
NMTAP	24	96	7
NMTAP	24	192	0
NMTAP	24	192	1
NMTAP	25	0	1
NMTAP	25	96	1
NMTAP	25	192	2
NMTAP	25	288	2
NMTAP	26	0	3
NMTAP	26	96	3
NMTAP	26	192	4
NMTAP	26	192	5
NMTAP	27	0	6
NMTAP	27	96	6
NMTAP	27	192	5
NMTAP	27	288	5
NMTAP	28	0	4
NMTAP	28	96	4
NMTAP	28	192	2
NMTAP	28	192	3
NMTAP	29	0	4
NMTAP	29	96	4
NMTAP	29	192	4
NMTAP	29	288	4
NMTAP	30	0	5
NMTAP	30	96	5
NMTAP	30	192	5
NMTAP	30	288	5
NMTAP	31	0	6
NMTAP	31	96	6
NMTAP	31	192	6
NMTAP	31	288	6
NMTAP	32	0	0
NMTAP	32	0	7
NMTAP	32	192	0
NMTAP	32	192	7
NMTAP	33	0	0
NMTAP	33	96	0
NMTAP	33	192	0
NMTAP	33	288	0
NMTAP	34	0	1
NMTAP	34	96	1
NMTAP	34	192	1
NMTAP	34	288	1
NMTAP	35	0	2
NMTAP	35	96	2
NMTAP	35	192	2
NMTAP	35	288	2
NMTAP	36	0	3
NMTAP	36	0	4
NMTAP	36	192	3
NMTAP	36	192	4
BXTAP	37	0	2
NMTAP	37	96	2
NMTAP	37	192	0
NMTAP	37	192	1
NMTAP	37	288	0
NMTAP	37	288	1
NMTAP	38	0	7
NMTAP	38	96	7
NMTAP	38	192	6
NMTAP	38	192	7
NMTAP	39	0	5
NMTAP	39	96	5
NMTAP	39	192	6
NMTAP	39	192	7
NMTAP	39	288	6
NMTAP	39	288	7
NMTAP	40	0	0
NMTAP	40	96	0
NMTAP	40	192	0
NMTAP	40	192	1
NMTAP	41	0	1
NMTAP	41	96	1
NMTAP	41	192	2
NMTAP	41	192	3
NMTAP	41	288	2
NMTAP	41	288	3
NMTAP	42	0	4
NMTAP	42	96	4
NMTAP	42	192	4
NMTAP	42	192	5
NMTAP	43	0	6
NMTAP	43	96	6
NMTAP	43	192	4
NMTAP	43	192	5
NMTAP	43	288	4
NMTAP	43	288	5
NMTAP	44	0	3
NMTAP	44	96	3
NMTAP	44	192	2
NMTAP	44	192	3
NMSTR	45	0	1
NMSXR	45	0	1	96	480	4
NMSTR	47	0	6
NMSXL	47	0	6	96	480	3
NMSTR	49	0	1
NMSXL	49	0	1	96	480	4
NMSTR	51	0	6
NMSXR	51	0	6	96	480	3
NMSTR	53	0	3
NMSXR	53	0	3	96	480	0
NMSTR	53	0	4
NMSXL	53	0	4	96	480	7
NMTAP	55	0	0
NMTAP	55	0	1
NMTAP	55	96	0
NMTAP	55	96	1
NMTAP	55	192	0
NMTAP	55	192	1
NMTAP	56	0	2
NMTAP	56	96	2
NMTAP	56	192	2
NMTAP	57	0	3
NMTAP	57	0	4
NMTAP	57	96	3
NMTAP	57	96	4
NMTAP	57	192	3
NMTAP	57	192	4
NMTAP	58	0	5
NMTAP	58	96	5
NMTAP	58	192	5
NMTAP	59	0	6
NMTAP	59	0	7
NMTAP	59	96	6
NMTAP	59	96	7
NMTAP	59	192	6
NMTAP	59	192	7
NMTAP	60	0	5
NMTAP	60	96	5
BRTAP	60	192	5
NMTTP	61	0	4	B	0	L1
NMTTP	61	0	4	E	0	L1
NMTTP	61	192	6	B	0	L1
NMTTP	61	192	6	E	0	L1
NMTTP	62	0	0	B	0	L1
NMTTP	62	0	0	E	0	L1
NMTTP	62	192	2	B	0	L1
NMTTP	62	192	2	E	0	L1
NMTTP	63	0	4	B	0	L1
NMTTP	63	0	5	B	0	L1
NMTTP	63	192	6	B	0	L1
NMTTP	63	192	7	B	0	L1
NMTTP	64	0	0	B	0	L1
NMTTP	64	0	1	B	0	L1
NMTTP	64	192	2	B	0	L1
NMTTP	64	192	3	B	0	L1
NMTTP	65	0	6	B	0	L1
NMTTP	65	96	5	B	0	L1
NMTTP	65	192	4	B	0	L1
NMTTP	66	0	1	B	0	L1
NMTTP	66	96	2	B	0	L1
NMTTP	66	192	3	B	0	L1
NMTTP	67	0	7	B	0	L1
NMTTP	67	96	6	B	0	L1
NMTTP	67	192	5	B	0	L1
NMTTP	67	288	4	B	0	L1
NMTTP	68	0	3	B	0	L1
NMTTP	68	96	2	B	0	L1
NMTTP	68	192	1	B	0	L1
NMTAP	69	0	7
NMTAP	69	96	7
NMTAP	69	192	7
NMTAP	70	0	6
NMTAP	70	0	7
NMTAP	70	96	6
NMTAP	70	96	7
NMTAP	70	192	6
NMTAP	70	192	7
NMTAP	71	0	5
NMTAP	71	96	5
NMTAP	71	192	5
NMTAP	72	0	4
NMTAP	72	0	5
NMTAP	72	96	4
NMTAP	72	96	5
NMTAP	72	192	4
NMTAP	72	192	5
NMTAP	73	0	3
NMTAP	73	96	3
NMTAP	73	192	3
NMTAP	74	0	2
NMTAP	74	0	3
NMTAP	74	96	2
NMTAP	74	96	3
NMTAP	74	192	2
NMTAP	74	192	3
NMTAP	75	0	1
NMTAP	75	96	1
NMTAP	75	192	1
NMHLD	76	0	0	192
NMHLD	76	0	7	192
BRTAP	77	0	1
NMTAP	77	48	1
NMTAP	77	96	1
NMTAP	77	192	0
NMTAP	77	192	1
NMTAP	77	288	0
NMTAP	77	288	1
NMTAP	78	0	2
NMTAP	78	48	2
NMTAP	78	96	2
NMTAP	78	192	2
NMTAP	78	192	3
NMTAP	78	288	2
NMTAP	78	288	3
NMTAP	79	0	4
NMTAP	79	48	4
NMTAP	79	96	4
NMTAP	79	192	4
NMTAP	79	192	5
NMTAP	79	288	4
NMTAP	79	288	5
NMTAP	80	0	6
NMTAP	80	0	7
NMTAP	80	96	6
NMTAP	80	96	7
NMTAP	80	192	6
NMTAP	80	192	7
NMTAP	81	0	6
NMTAP	81	48	6
NMTAP	81	96	6
NMTAP	81	192	6
NMTAP	81	192	7
NMTAP	81	288	6
NMTAP	81	288	7
NMTAP	82	0	5
NMTAP	82	48	5
NMTAP	82	96	5
NMTAP	82	192	4
NMTAP	82	192	5
NMTAP	82	288	4
NMTAP	82	288	5
NMTAP	83	0	3
NMTAP	83	48	3
NMTAP	83	96	3
NMTAP	83	192	2
NMTAP	83	192	3
NMTAP	83	288	2
NMTAP	83	288	3
NMTAP	84	0	0
NMTAP	84	0	1
NMTAP	84	96	0
NMTAP	84	96	1
NMTAP	84	192	0
NMTAP	84	192	1
NMTAP	85	0	2
NMTAP	85	48	2
NMTAP	85	96	2
NMTAP	85	192	0
NMTAP	85	192	1
NMTAP	85	288	0
NMTAP	85	288	1
NMTAP	86	0	7
NMTAP	86	48	7
NMTAP	86	96	7
NMTAP	86	192	6
NMTAP	86	192	7
NMTAP	86	288	6
NMTAP	86	288	7
NMTAP	87	0	5
NMTAP	87	48	5
NMTAP	87	96	5
NMTAP	87	192	6
NMTAP	87	192	7
NMTAP	87	288	6
NMTAP	87	288	7
NMTAP	88	0	0
NMTAP	88	48	0
NMTAP	88	96	0
NMTAP	88	192	0
NMTAP	88	192	1
NMTAP	89	0	1
NMTAP	89	48	1
NMTAP	89	96	1
NMTAP	89	192	2
NMTAP	89	192	3
NMTAP	89	288	2
NMTAP	89	288	3
NMTAP	90	0	4
NMTAP	90	48	4
NMTAP	90	96	4
NMTAP	90	192	4
NMTAP	90	192	5
NMTAP	90	288	4
NMTAP	90	288	5
NMTAP	91	0	6
NMTAP	91	48	6
NMTAP	91	96	6
NMTAP	91	192	4
NMTAP	91	192	5
NMTAP	91	288	4
NMTAP	91	288	5
NMTAP	92	0	3
NMTAP	92	48	3
NMTAP	92	96	3
NMTAP	92	192	2
NMTAP	92	192	3
NMSTR	93	0	3
NMSCL	93	0	3	96	288	0
NMSTR	93	0	4
NMSCR	93	0	4	96	288	7
NMTAP	94	192	0
NMTAP	94	192	7
NMTAP	95	0	1
NMTAP	95	96	1
NMTAP	95	192	1
NMTAP	95	288	0
NMTAP	95	288	1
NMTAP	96	0	2
NMTAP	96	96	2
NMTAP	96	192	2
NMTAP	96	288	2
NMTAP	96	288	3
NMTAP	97	0	4
NMTAP	97	96	4
NMTAP	97	192	4
NMTAP	97	288	4
NMTAP	97	288	5
NMTAP	98	0	6
NMTAP	98	96	6
NMTAP	98	192	6
NMTAP	98	192	7
NMTAP	99	0	4
NMTAP	99	0	5
NMTAP	99	96	4
NMTAP	99	96	5
NMTAP	99	192	4
NMTAP	99	192	5
NMTAP	100	0	3
NMTAP	100	0	4
NMTAP	100	96	3
NMTAP	100	96	4
NMTAP	100	192	3
NMTAP	100	192	4
NMTAP	101	0	5
NMTAP	101	48	5
NMTAP	101	96	5
NMTAP	101	192	6
NMTAP	101	240	6
NMTAP	101	288	6
NMTAP	102	0	7
NMTAP	102	48	7
NMTAP	102	96	7
NMTAP	102	192	0
NMTAP	102	192	1
NMTAP	103	0	2
NMTAP	103	48	2
NMTAP	103	96	2
NMTAP	103	192	1
NMTAP	103	240	1
NMTAP	103	288	1
NMTAP	104	0	0
NMTAP	104	48	0
NMTAP	104	96	0
NMTAP	104	192	6
NMTAP	104	192	7
NMTAP	105	0	6
NMTAP	105	48	6
NMTAP	105	96	6
NMTAP	105	192	5
NMTAP	105	240	5
NMTAP	105	288	5
NMTAP	106	0	4
NMTAP	106	48	4
NMTAP	106	96	4
NMTAP	106	192	2
NMTAP	106	192	3
NMTAP	107	0	1
NMTAP	107	48	1
NMTAP	107	96	1
NMTAP	107	192	2
NMTAP	107	240	2
NMTAP	107	288	2
NMTAP	108	0	3
NMTAP	108	48	3
NMTAP	108	96	3
NMTAP	108	192	4
NMTAP	108	192	5
NMTAP	109	0	6
NMTAP	109	0	7
NMTAP	109	96	6
NMTAP	109	96	7
NMTAP	109	192	0
NMTAP	109	192	5
NMTAP	110	0	4
NMTAP	110	0	5
NMTAP	110	96	4
NMTAP	110	96	5
NMTAP	110	192	3
NMTAP	110	192	6
NMTAP	111	0	2
NMTAP	111	0	3
NMTAP	111	96	2
NMTAP	111	96	3
NMTAP	111	192	1
NMTAP	111	192	4
NMTAP	112	0	0
NMTAP	112	0	1
NMTAP	112	96	0
NMTAP	112	96	1
NMTAP	112	192	2
NMTAP	112	192	7
NMTAP	113	0	0
NMTAP	113	0	1
NMTAP	113	96	0
NMTAP	113	96	1
NMTAP	113	192	2
NMTAP	113	192	7
NMTAP	114	0	2
NMTAP	114	0	3
NMTAP	114	96	2
NMTAP	114	96	3
NMTAP	114	192	1
NMTAP	114	192	4
NMTAP	115	0	4
NMTAP	115	0	5
NMTAP	115	96	4
NMTAP	115	96	5
NMTAP	115	192	3
NMTAP	115	192	6
NMTAP	116	0	6
NMTAP	116	0	7
NMTAP	116	96	6
NMTAP	116	96	7
NMTAP	116	192	0
NMTAP	116	192	5
NMSTR	117	0	6
NMSXR	117	0	6	96	480	3
NMSTR	117	0	7
NMSXL	117	0	7	96	480	2
NMHLD	119	0	3	672
NMHLD	119	0	4	672

T_REC_TAP	405
T_REC_BRK	2
T_REC_XTP	0
T_REC_BXX	1
T_REC_HLD	16
T_REC_XHO	0
T_REC_BHO	0
T_REC_BXH	0
T_REC_STR	12
T_REC_BST	0
T_REC_XST	0
T_REC_XBS	0
T_REC_TTP	29
T_REC_THO	0
T_REC_SLD	12
T_REC_BSL	0
T_REC_ALL	477
T_NUM_TAP	446
T_NUM_BRK	3
T_NUM_HLD	16
T_NUM_SLD	12
T_NUM_ALL	477
T_JUDGE_TAP	449
T_JUDGE_HLD	84
T_JUDGE_SLD	12
T_JUDGE_ALL	545
TTM_EACHPAIRS	114
TTM_SCR_TAP	223000
TTM_SCR_BRK	7800
TTM_SCR_HLD	16000
TTM_SCR_SLD	18000
TTM_SCR_ALL	264800
TTM_SCR_S	256600
TTM_SCR_SS	264500
TTM_RAT_ACV	10011

