VERSION	0.00.00	1.04.00
FES_MODE	0
BPM_DEF	170.000	170.000	170.000	170.000
MET_DEF	4	4
RESOLUTION	384
CLK_DEF	384
COMPATIBLE_CODE	MA2

BPM	0	0	170.000
MET	0	0	4	4

NMHLD	1	0	1	96
NMHLD	1	0	3	96
NMTAP	1	192	1
NMTAP	1	192	3
NMTAP	1	264	1
NMTAP	1	264	3
NMSTR	1	336	0
NMSCR	1	336	0	96	144	5
NMTAP	1	336	4
NMTAP	2	288	6
NMTAP	2	312	4
NMTAP	2	336	6
NMHLD	3	0	4	96
NMHLD	3	0	6	96
NMTAP	3	192	4
NMTAP	3	192	6
NMTAP	3	264	4
NMTAP	3	264	6
NMTAP	3	336	3
NMSTR	3	336	7
NMSCL	3	336	7	96	144	3
NMTAP	4	192	2
NMTAP	4	216	2
NMTAP	4	264	4
NMTAP	4	288	4
NMTAP	4	336	3
BRTAP	5	0	2
BRTAP	5	0	3
NMTAP	5	48	1
NMTAP	5	96	2
NMTAP	5	96	3
NMTAP	5	144	4
NMTAP	5	192	2
NMTAP	5	192	3
NMTAP	5	240	1
NMTAP	5	288	2
NMTAP	5	288	3
NMTAP	5	336	4
NMTAP	6	0	4
NMTAP	6	0	5
NMTAP	6	48	6
NMTAP	6	96	4
NMTAP	6	96	5
NMTAP	6	144	3
NMTAP	6	144	6
NMTAP	6	192	5
NMTAP	6	216	4
NMTAP	6	264	4
NMTAP	6	288	5
NMTAP	6	336	3
NMTAP	7	0	2
NMTAP	7	0	4
NMTAP	7	48	1
NMTAP	7	96	0
NMTAP	7	144	7
NMTAP	7	192	6
NMTAP	7	240	5
NMTAP	7	288	4
NMTAP	7	336	3
NMTTP	8	0	2	A	0	M1
NMTTP	8	16	2	E	0	M1
NMTTP	8	32	1	E	0	M1
NMTTP	8	48	0	A	0	M1
NMTTP	8	96	5	A	0	M1
NMTTP	8	112	6	E	0	M1
NMTTP	8	128	7	E	0	M1
NMTTP	8	144	7	A	0	M1
NMTTP	8	192	4	E	0	M1
NMTTP	8	208	0	C	0	M1
NMTTP	8	224	0	E	0	M1
BRTAP	8	288	1
BRTAP	8	288	6
NMSTR	9	0	1
NMSI_	9	0	1	96	48	4
NMTAP	9	0	7
NMTAP	9	96	1
NMHLD	9	192	5	72
NMHLD	9	264	6	72
NMTAP	9	336	7
NMTAP	10	0	0
NMSTR	10	0	6
NMSCL	10	0	6	96	48	3
NMHLD	10	192	2	72
NMHLD	10	264	1	72
NMTAP	10	336	0
NMSTR	11	0	1
NMSXR	11	0	1	96	144	3
NMTAP	11	0	7
NMTAP	11	240	4
NMTAP	11	288	4
NMHLD	12	0	5	72
NMHLD	12	72	6	72
NMTAP	12	144	7
BXTAP	12	192	7
BXTAP	12	264	0
BXTAP	12	264	6
BXTAP	12	336	1
BXTAP	12	336	5
NMSTR	13	0	5
NMSI_	13	0	5	96	48	0
NMTAP	13	96	5
NMSTR	13	144	1
NMSCR	13	144	1	96	48	4
NMTAP	13	240	1
NMSTR	13	288	7
NMSCL	13	288	7	96	48	5
NMTAP	14	0	2
NMTAP	14	0	7
CNSUL	14	48	5	0	144	2
NMHLD	14	192	0	72
NMHLD	14	264	1	72
NMTAP	14	336	2
NMSTR	15	0	2
NMSCR	15	0	2	96	192	0
NMTAP	15	96	6
NMHLD	15	144	6	144
NMTAP	16	0	0
NMTAP	16	0	7
NMTAP	16	48	1
NMTAP	16	72	6
NMTAP	16	96	1
BRSTR	16	144	0
NMSI_	16	144	0	96	48	4
BRSTR	16	144	7
NMSI_	16	144	7	96	48	3
BRTAP	16	240	0
BRTAP	16	240	7
NMTAP	17	0	3
NMSTR	17	0	5
NMSI_	17	0	5	96	48	0
NMTAP	17	96	5
NMHLD	17	192	1	72
NMHLD	17	264	2	72
NMTAP	17	336	3
NMSTR	18	0	2
NMSCL	18	0	2	96	48	7
NMTAP	18	0	4
NMHLD	18	192	6	72
NMHLD	18	264	5	72
NMTAP	18	336	4
NMTAP	19	0	3
NMTAP	19	0	5
NMTAP	19	96	0
NMTAP	19	96	7
NMHLD	19	192	7	72
NMHLD	19	264	6	72
NMTAP	19	336	5
NMHLD	20	0	0	72
NMHLD	20	72	1	72
NMTAP	20	144	2
NMHLD	20	192	4	72
NMHLD	20	264	5	72
NMTAP	20	336	6
NMSTR	21	0	6
NMSCR	21	0	6	96	48	1
NMTAP	21	96	3
NMSTR	21	144	3
NMSXR	21	144	3	96	144	0
BXTAP	21	240	7
BXTAP	21	288	6
BXTAP	21	336	5
NMSTR	22	0	4
NMSLR	22	0	4	96	48	0
NMTAP	22	96	1
NMTAP	22	192	1
EXTAP	22	192	7
EXTAP	22	264	4
NMTAP	22	264	6
EXTAP	22	336	2
NMTAP	22	336	3
BRHLD	23	0	1	288
BXSTR	23	0	4
NMSXR	23	0	4	96	192	7
NMTAP	24	0	0
NMTAP	24	0	7
NMSTR	24	48	2
NMSI_	24	48	2	96	48	5
NMSTR	24	48	6
NMSI_	24	48	6	96	48	1
NMTAP	24	144	2
NMTAP	24	144	6
BRTAP	24	240	3
BRTAP	24	240	7
NMSTR	25	0	1
NMSI_	25	0	1	96	48	4
NMTAP	25	48	5
NMTAP	25	96	1
NMTAP	25	144	5
NMSTR	25	192	4
NMSI_	25	192	4	96	48	7
NMTAP	25	240	5
NMTAP	25	288	4
NMTAP	25	336	5
NMSTR	26	0	7
NMSI_	26	0	7	96	48	3
NMTAP	26	48	5
NMTAP	26	96	7
NMTAP	26	144	5
NMSTR	26	192	3
NMSI_	26	192	3	96	48	6
NMTAP	26	240	5
NMTAP	26	288	3
NMTAP	26	336	5
NMSTR	27	0	6
NMSI_	27	0	6	96	48	1
NMTAP	27	48	5
NMTAP	27	96	6
NMTAP	27	144	5
NMSTR	27	192	1
NMSV_	27	192	1	96	48	4
NMTAP	27	240	5
NMTAP	27	288	1
NMTAP	27	336	5
NMTAP	28	0	4
NMTAP	28	0	5
NMTAP	28	72	2
NMTAP	28	72	3
NMTAP	28	144	1
NMTAP	28	192	1
NMTAP	28	240	0
BRHLD	28	288	2	96
BRTAP	28	288	7
NMSTR	29	0	0
NMSI_	29	0	0	96	48	5
NMTAP	29	48	2
NMTAP	29	96	0
NMTAP	29	144	2
NMSTR	29	192	5
NMSI_	29	192	5	96	48	1
NMTAP	29	240	2
NMTAP	29	288	5
NMTAP	29	336	2
NMSTR	30	0	1
NMSI_	30	0	1	96	48	4
NMTAP	30	48	2
NMTAP	30	96	1
NMTAP	30	144	2
NMSTR	30	192	4
NMSI_	30	192	4	96	48	0
NMTAP	30	240	2
NMTAP	30	288	4
NMTAP	30	336	2
NMSTR	31	0	0
NMSI_	31	0	0	96	48	3
NMTAP	31	48	2
NMTAP	31	96	0
NMTAP	31	144	2
NMSTR	31	192	3
NMSV_	31	192	3	96	48	6
NMTAP	31	240	2
NMTAP	31	288	3
NMTAP	31	336	2
NMSTR	32	0	2
NMSCL	32	0	2	96	48	7
NMSTR	32	0	6
NMSCL	32	0	6	96	48	3
NMTAP	32	192	4
NMTAP	32	216	0
NMTAP	32	240	5
NMTAP	32	264	1
NMTAP	32	288	6
NMTAP	32	312	2
NMTAP	32	336	7
NMHLD	32	360	3	312
NMSTR	33	0	0
NMSI_	33	0	0	96	96	2
CNSV_	33	192	2	0	96	5
NMSTR	34	0	1
NMSCR	34	0	1	96	96	4
NMHLD	34	0	4	288
CNSUL	34	192	4	0	96	0
NMSTR	35	0	5
NMSV_	35	0	5	96	96	2
NMHLD	35	0	7	288
CNSCR	35	192	2	0	96	6
NMHLD	36	0	0	288
NMSTR	36	0	1
NMSI_	36	0	1	96	96	7
CNSV_	36	192	7	0	96	4
NMTTP	37	0	3	A	0	M1
NMTTP	37	48	2	A	0	M1
NMTTP	37	96	1	A	0	M1
NMTTP	37	144	7	A	0	M1
NMTTP	37	192	6	A	0	M1
NMTTP	37	240	5	A	0	M1
NMTTP	37	288	2	A	0	M1
NMTTP	37	336	1	A	0	M1
NMTTP	38	0	0	A	0	M1
NMTTP	38	48	6	A	0	M1
NMTTP	38	96	5	A	0	M1
NMTTP	38	144	4	A	0	M1
NMTTP	38	192	2	E	0	M1
NMTTP	38	240	3	E	0	M1
NMTTP	38	288	6	E	0	M1
NMTTP	38	336	5	E	0	M1
NMTTP	39	0	1	A	0	M1
NMTTP	39	48	2	B	0	M1
NMTTP	39	96	4	E	0	M1
NMTTP	39	144	6	E	0	M1
NMTTP	39	192	7	B	0	M1
NMTTP	39	240	0	A	0	M1
NMTTP	39	288	2	A	0	M1
NMTTP	39	336	1	B	0	M1
NMTTP	40	0	0	E	0	M1
NMTTP	40	48	6	A	0	M1
NMTTP	40	96	5	B	0	M1
NMTTP	40	144	4	E	0	M1
EXSTR	40	192	7
NMSUR	40	192	7	96	120	0
NMTHO	41	0	0	192	C	0	M1
EXTAP	41	240	0
EXTAP	41	264	7
EXSTR	41	288	0
NMSI_	41	288	0	96	48	4
NMSI_	41	288	0	96	48	5
BRSTR	42	0	0
NMSLR	42	0	0	96	96	6
NMTAP	42	96	5
NMHLD	42	144	5	96
NMTAP	42	240	7
NMSTR	42	288	7
NMSI_	42	288	7	96	48	2
NMSI_	42	288	7	96	48	3
BRSTR	43	0	7
NMSLL	43	0	7	96	96	1
NMTAP	43	96	2
NMHLD	43	144	2	96
NMTAP	43	240	0
NMSTR	43	288	0
NMSI_	43	288	0	96	48	4
NMSI_	43	288	0	96	48	5
BRSTR	44	0	0
NMSLR	44	0	0	96	96	6
NMTAP	44	96	5
NMHLD	44	144	5	96
NMTAP	44	240	7
NMTAP	44	288	7
NMTAP	45	0	0
NMTAP	45	0	1
NMTAP	45	96	2
NMTAP	45	96	3
NMTAP	45	144	1
NMTAP	45	192	0
NMTAP	45	240	6
NMTAP	45	240	7
NMSTR	45	336	3
NMSUR	45	336	3	96	96	4
NMTAP	45	336	5
NMSTR	46	48	4
NMSCR	46	48	4	96	144	3
NMTTP	46	144	0	C	1	M1
EXSTR	46	288	7
NMSI_	46	288	7	96	48	3
BRSTR	47	0	7
NMSI_	47	0	7	96	48	2
NMSI_	47	0	7	96	48	4
CNSI_	47	144	2	0	48	0
CNSI_	47	144	4	0	48	6
NMTAP	47	240	7
NMTAP	47	288	0
NMTAP	47	336	1
NMSTR	48	0	2
NMSI_	48	0	2	96	48	7
NMTAP	48	96	2
NMTAP	48	96	4
NMSTR	48	144	5
NMSI_	48	144	5	96	48	0
NMTAP	48	240	3
NMTAP	48	240	5
NMHLD	48	288	2	96
NMSTR	49	0	0
NMSCR	49	0	0	96	120	7
NMSUR	49	0	0	96	120	7
NMTAP	49	288	0
NMSTR	49	288	7
NMSI_	49	288	7	96	48	2
NMSI_	49	288	7	96	48	3
BRSTR	50	0	7
NMSLL	50	0	7	96	96	1
NMTAP	50	96	2
NMHLD	50	144	2	96
NMTAP	50	240	0
NMSTR	50	288	0
NMSI_	50	288	0	96	48	4
NMSI_	50	288	0	96	48	5
BRSTR	51	0	0
NMSLR	51	0	0	96	96	6
NMTAP	51	96	5
NMHLD	51	144	5	96
NMTAP	51	240	7
NMSTR	51	288	7
NMSI_	51	288	7	96	48	2
NMSI_	51	288	7	96	48	3
BRSTR	52	0	7
NMSLL	52	0	7	96	96	1
NMTAP	52	96	2
NMHLD	52	144	2	96
NMTAP	52	240	0
NMTAP	52	288	0
NMTAP	53	0	6
NMTAP	53	0	7
NMTAP	53	96	4
NMTAP	53	96	5
NMTAP	53	144	6
NMTAP	53	192	7
NMTAP	53	240	0
NMTAP	53	240	1
NMTAP	53	336	2
NMSTR	53	336	3
NMSI_	53	336	3	96	48	0
NMSCL	53	336	3	96	48	0
NMSTR	54	48	3
NMSI_	54	48	3	96	48	6
NMSCR	54	48	3	96	48	6
NMTAP	54	144	3
NMTAP	54	240	6
NMTAP	54	288	6
NMTAP	54	288	7
NMTAP	55	0	4
NMTAP	55	0	5
NMTAP	55	48	6
NMHLD	55	96	7	96
NMTAP	55	192	0
NMTAP	55	216	0
NMTAP	55	264	7
NMSTR	55	288	7
NMSXL	55	288	7	96	288	3
NMSXR	55	288	7	96	288	3
NMTAP	55	336	0
NMTAP	55	336	6
BRTAP	56	0	7
NMTAP	57	0	4
NMSTR	57	48	4
NMSV_	57	48	4	96	48	1
NMSV_	57	48	4	96	48	7
NMTAP	57	144	4
NMTAP	57	240	0
NMSTR	57	288	0
NMSCL	57	288	0	96	48	5
NMSCR	57	288	0	96	48	3
BRSTR	58	0	0
NMSI_	58	0	0	96	48	4
NMTAP	58	96	5
CNSI_	58	144	4	0	48	7
NMSTR	58	144	5
NMSI_	58	144	5	96	48	2
NMTAP	58	240	0
NMSTR	58	288	0
NMSCL	58	288	0	96	48	5
NMSCR	58	288	0	96	48	3
CNSI_	58	288	2	0	48	6
BRSTR	59	0	0
NMSI_	59	0	0	96	48	4
NMTAP	59	96	5
CNSI_	59	144	4	0	48	7
NMSTR	59	144	5
NMSI_	59	144	5	96	48	2
NMTAP	59	240	0
NMSTR	59	288	0
NMSCL	59	288	0	96	48	5
NMSCR	59	288	0	96	48	3
CNSI_	59	288	2	0	48	6
BRSTR	60	0	0
NMSI_	60	0	0	96	48	4
NMTAP	60	96	5
CNSI_	60	144	4	0	48	7
NMSTR	60	144	5
NMSI_	60	144	5	96	48	2
NMTAP	60	240	0
NMTAP	60	288	0
CNSI_	60	288	2	0	48	6
NMTAP	61	0	1
NMTAP	61	0	7
NMTAP	61	96	0
NMTAP	61	96	1
NMTAP	61	144	2
NMTAP	61	192	3
NMTAP	61	240	4
NMTAP	61	240	5
NMSTR	61	336	0
NMSUL	61	336	0	96	96	7
NMTAP	61	336	6
NMSTR	62	48	7
NMSCL	62	48	7	96	144	0
NMTTP	62	144	0	C	1	M1
NMSTR	62	288	7
NMSI_	62	288	7	96	48	3
BRSTR	63	0	7
NMSI_	63	0	7	96	48	2
NMSI_	63	0	7	96	48	4
CNSCL	63	144	2	0	48	0
CNSCR	63	144	4	0	48	6
NMTAP	63	240	0
NMTAP	63	288	7
NMTAP	63	336	6
NMSTR	64	0	5
NMSV_	64	0	5	96	48	0
NMTAP	64	96	1
NMTAP	64	96	5
NMSTR	64	144	3
NMSUL	64	144	3	96	48	7
NMTAP	64	240	3
NMTAP	64	240	6
NMHLD	64	288	4	96
NMSTR	65	0	7
NMSCL	65	0	7	96	120	0
NMSUL	65	0	7	96	120	0
NMTAP	65	288	6
NMSTR	65	288	7
NMSCL	65	288	7	96	48	4
NMSCR	65	288	7	96	48	2
BRSTR	66	0	7
NMSI_	66	0	7	96	48	3
NMTAP	66	96	2
NMSTR	66	144	2
NMSI_	66	144	2	96	48	5
CNSI_	66	144	3	0	48	0
NMTAP	66	240	7
CNSI_	66	288	5	0	48	1
NMSTR	66	288	7
NMSCL	66	288	7	96	48	4
NMSCR	66	288	7	96	48	2
BRSTR	67	0	7
NMSI_	67	0	7	96	48	3
NMTAP	67	96	2
NMSTR	67	144	2
NMSI_	67	144	2	96	48	5
CNSI_	67	144	3	0	48	0
NMTAP	67	240	7
CNSI_	67	288	5	0	48	1
NMSTR	67	288	7
NMSCL	67	288	7	96	48	4
NMSCR	67	288	7	96	48	2
BRSTR	68	0	7
NMSI_	68	0	7	96	48	3
NMTAP	68	96	2
NMSTR	68	144	2
NMSI_	68	144	2	96	48	5
CNSI_	68	144	3	0	48	0
NMTAP	68	240	7
CNSI_	68	288	5	0	48	1
NMTAP	68	288	7
NMTAP	69	0	0
NMTAP	69	0	6
NMTAP	69	96	6
NMTAP	69	96	7
NMTAP	69	144	5
NMTAP	69	192	4
NMTAP	69	240	2
NMTAP	69	240	3
NMSTR	69	336	1
NMSI_	69	336	1	96	48	5
NMSTR	69	336	7
NMSCL	69	336	7	96	48	5
BRSTR	70	48	1
NMSCR	70	48	1	96	48	3
BRSTR	70	48	7
NMSI_	70	48	7	96	48	3
BRTAP	70	144	1
BRTAP	70	144	7
NMTAP	70	240	2
NMTAP	70	240	4
NMTAP	70	288	2
NMTAP	70	288	4
NMTAP	71	0	2
NMTAP	71	0	3
NMTAP	71	48	1
NMTAP	71	96	0
NMTAP	71	96	7
NMTAP	71	192	2
NMTAP	71	192	6
NMTAP	71	216	2
NMTAP	71	216	6
NMTAP	71	264	1
NMTAP	71	264	5
NMSTR	71	288	1
BRSXL	71	288	1	96	288	4
NMSTR	71	288	5
NMSXL	71	288	5	96	288	0
NMTAP	71	336	0
NMTAP	71	336	4
BRTAP	72	0	1
BRTAP	72	0	5
NMTAP	73	0	3
NMTAP	73	0	7
NMSTR	73	48	1
NMSI_	73	48	1	96	48	6
NMSTR	73	48	5
NMSV_	73	48	5	96	48	2
NMTAP	73	144	1
NMTAP	73	144	5
BRTAP	73	240	0
BRTAP	73	240	4
NMHLD	74	0	1	48
NMSTR	74	48	0
NMSI_	74	48	0	96	48	4
NMTAP	74	72	1
NMTAP	74	96	7
NMTAP	74	144	0
NMTAP	74	144	6
NMTAP	74	240	2
NMTAP	74	264	3
NMTAP	74	288	2
NMTAP	74	336	5
NMTAP	74	360	4
NMHLD	75	0	6	48
NMSTR	75	48	7
NMSI_	75	48	7	96	48	3
NMTAP	75	72	6
NMTAP	75	96	0
NMTAP	75	144	1
NMTAP	75	144	7
NMTAP	75	240	5
NMTAP	75	264	4
NMTAP	75	288	5
NMTAP	75	336	2
NMTAP	75	360	3
NMHLD	76	0	1	48
NMSTR	76	48	0
NMSI_	76	48	0	96	48	4
NMTAP	76	72	1
NMTAP	76	96	7
NMTAP	76	144	0
NMTAP	76	144	5
NMTAP	76	240	2
NMTAP	76	264	3
NMTAP	76	288	2
NMTAP	76	336	5
NMTAP	76	360	4
NMSTR	77	0	6
NMSCR	77	0	6	96	48	1
NMSTR	77	96	6
NMSI_	77	96	6	96	48	2
NMTAP	77	144	3
NMTAP	77	192	6
NMTAP	77	240	0
NMTAP	77	288	1
NMTAP	77	288	3
NMHLD	77	336	1	96
NMTAP	77	336	3
NMSTR	78	48	0
NMSI_	78	48	0	96	48	4
NMTAP	78	72	1
NMTAP	78	96	7
NMTAP	78	144	0
NMTAP	78	144	6
NMTAP	78	240	2
NMTAP	78	264	3
NMTAP	78	288	2
NMTAP	78	336	5
NMTAP	78	360	4
NMHLD	79	0	6	48
NMSTR	79	48	7
NMSI_	79	48	7	96	48	3
NMTAP	79	72	6
NMTAP	79	96	0
NMTAP	79	144	1
NMTAP	79	144	7
NMTAP	79	240	2
NMTAP	79	288	3
NMTAP	79	288	4
NMTAP	79	336	4
NMTAP	79	336	5
NMTAP	80	0	3
NMTAP	80	24	2
NMTAP	80	48	1
NMTAP	80	72	7
NMTAP	80	96	6
NMTAP	80	120	5
NMSTR	80	144	0
NMSSL	80	144	0	96	96	4
NMTAP	80	240	5
NMTAP	80	288	5
NMTAP	80	336	6
NMTAP	81	0	7
NMTAP	81	96	2
NMTAP	81	96	6
NMSTR	81	144	1
NMSV_	81	144	1	96	48	4
NMSTR	81	144	5
NMSCR	81	144	5	96	48	0
BRTAP	81	240	1
BRTAP	81	240	5
NMHLD	82	0	2	48
NMSTR	82	48	3
NMSUR	82	48	3	96	48	7
NMTAP	82	72	2
NMTAP	82	96	4
NMTAP	82	144	3
NMTAP	82	144	5
NMTAP	82	240	1
NMTAP	82	264	0
NMTAP	82	288	1
NMTAP	82	336	6
NMTAP	82	360	7
NMHLD	83	0	5	48
NMSTR	83	48	4
NMSUL	83	48	4	96	48	0
NMTAP	83	72	5
NMTAP	83	96	3
NMTAP	83	144	2
NMTAP	83	144	4
NMTAP	83	240	6
NMTAP	83	264	7
NMTAP	83	288	6
NMTAP	83	336	1
NMTAP	83	360	0
NMHLD	84	0	2	48
NMSTR	84	48	3
NMSUR	84	48	3	96	48	7
NMTAP	84	72	2
NMTAP	84	96	4
NMTAP	84	144	3
NMTAP	84	144	5
NMTAP	84	240	1
NMTAP	84	264	0
NMTAP	84	288	1
NMTAP	84	336	6
NMTAP	84	360	7
NMSTR	85	0	5
NMSCL	85	0	5	96	48	2
NMSTR	85	96	5
NMSI_	85	96	5	96	48	1
NMTAP	85	144	0
NMTAP	85	192	5
NMTAP	85	240	3
NMTAP	85	288	0
NMTAP	85	288	2
NMTAP	85	336	0
NMHLD	85	336	2	96
NMSTR	86	48	3
NMSUR	86	48	3	96	48	7
NMTAP	86	72	2
NMTAP	86	96	4
NMTAP	86	144	3
NMTAP	86	144	6
NMTAP	86	240	1
NMTAP	86	264	0
NMTAP	86	288	2
NMTAP	86	336	6
NMTAP	86	360	7
NMHLD	87	0	5	48
NMTAP	87	48	4
NMTAP	87	72	5
NMTAP	87	96	4
NMTAP	87	144	3
NMTAP	87	144	5
NMHLD	87	192	2	48
NMHLD	87	192	6	48
NMHLD	87	264	1	48
NMHLD	87	264	5	48
NMTAP	87	336	0
NMTAP	87	336	4
NMTAP	88	0	7
NMTAP	88	24	6
NMTAP	88	48	5
NMTAP	88	72	4
NMTAP	88	96	3
NMTAP	88	120	2
NMTAP	88	144	1
NMTAP	88	168	0
NMTAP	88	192	7
NMTAP	88	216	6
NMTAP	88	240	5
NMTAP	88	264	4
NMTAP	88	288	3
NMTAP	88	312	2
NMTAP	88	336	1
NMTAP	88	336	5
NMTAP	89	48	0
NMTAP	89	48	6
NMTAP	89	64	1
NMTAP	89	64	5
NMTAP	89	80	2
NMTAP	89	80	4
NMSTR	89	96	3
NMSF_	89	96	3	96	48	7
NMTAP	89	192	3
BRTAP	89	288	1
BRTAP	89	288	5
BRTAP	89	336	3
BRTAP	89	336	7

T_REC_TAP	390
T_REC_BRK	22
T_REC_XTP	5
T_REC_BXX	8
T_REC_HLD	50
T_REC_XHO	0
T_REC_BHO	2
T_REC_BXH	0
T_REC_STR	89
T_REC_BST	18
T_REC_XST	3
T_REC_XBS	1
T_REC_TTP	41
T_REC_THO	1
T_REC_SLD	130
T_REC_BSL	1
T_REC_ALL	761
T_NUM_TAP	528
T_NUM_BRK	52
T_NUM_HLD	51
T_NUM_SLD	130
T_NUM_ALL	761
T_JUDGE_TAP	577
T_JUDGE_HLD	118
T_JUDGE_SLD	131
T_JUDGE_ALL	826
TTM_EACHPAIRS	114
TTM_SCR_TAP	264000
TTM_SCR_BRK	135200
TTM_SCR_HLD	51000
TTM_SCR_SLD	195000
TTM_SCR_ALL	645200
TTM_SCR_S	620800
TTM_SCR_SS	640000
TTM_RAT_ACV	10081

