VERSION	0.00.00	1.04.00
FES_MODE	0
BPM_DEF	170.000	170.000	170.000	170.000
MET_DEF	4	4
RESOLUTION	384
CLK_DEF	384
COMPATIBLE_CODE	MA2

BPM	0	0	170.000
MET	0	0	4	4

NMTAP	1	0	0
NMTAP	1	0	7
NMTAP	1	96	0
NMTAP	1	96	7
EXTAP	1	192	1
EXTAP	1	192	3
EXTAP	1	264	2
EXTAP	1	264	4
EXSTR	1	336	3
NMSV_	1	336	3	96	144	5
EXTAP	1	336	5
NMTAP	2	288	4
NMTAP	2	288	6
NMTAP	3	0	0
NMTAP	3	0	7
NMTAP	3	96	0
NMTAP	3	96	7
EXTAP	3	192	4
EXTAP	3	192	6
EXTAP	3	264	3
EXTAP	3	264	5
EXTAP	3	336	2
EXSTR	3	336	4
NMSV_	3	336	4	96	144	2
NMTAP	4	288	1
NMTAP	4	288	3
NMTAP	5	0	7
NMTAP	5	48	7
NMTAP	5	96	0
EXHLD	5	192	1	48
EXHLD	5	192	3	48
EXHLD	5	264	1	48
EXHLD	5	264	3	48
EXSTR	5	336	1
NMSUR	5	336	1	96	144	5
EXTAP	5	336	3
NMTAP	6	288	4
NMTAP	6	288	6
NMTAP	7	0	0
NMTAP	7	48	0
NMTAP	7	96	7
EXHLD	7	192	4	48
EXHLD	7	192	6	48
EXHLD	7	264	4	48
EXHLD	7	264	6	48
EXTAP	7	336	4
EXSTR	7	336	6
NMSXL	7	336	6	96	240	3
NMHLD	9	0	2	672
NMTAP	9	0	4
NMTAP	9	96	4
NMTAP	9	192	3
NMTAP	9	288	3
NMTAP	10	0	1
NMTAP	10	96	1
NMTAP	10	192	3
NMTAP	10	288	4
NMTAP	11	0	3
NMHLD	11	0	5	672
NMTAP	11	96	3
NMTAP	11	192	4
NMTAP	11	288	4
NMTAP	12	0	6
NMTAP	12	96	6
NMTAP	12	192	4
NMTAP	12	288	3
NMHLD	13	0	1	672
NMTAP	13	0	3
NMTAP	13	96	3
NMTAP	13	192	2
NMTAP	13	288	2
NMTAP	14	0	0
NMTAP	14	96	0
NMTAP	14	192	2
NMTAP	14	288	3
NMTAP	15	0	4
NMHLD	15	0	6	288
NMTAP	15	96	4
NMTAP	15	192	5
NMTAP	15	288	7
NMTAP	16	0	6
NMTAP	16	0	7
NMTAP	16	96	0
NMTAP	16	96	7
NMTAP	16	144	0
NMTAP	16	144	7
NMTAP	16	240	1
NMTAP	16	240	6
NMTAP	16	288	1
NMTAP	16	288	6
NMTAP	17	0	2
NMTAP	17	0	3
NMTAP	17	96	0
NMTAP	17	96	7
NMHLD	17	192	6	72
NMHLD	17	264	5	72
NMTAP	17	336	4
NMTAP	18	0	4
NMTAP	18	96	2
NMTAP	18	96	3
NMHLD	18	192	2	72
NMHLD	18	264	1	72
NMTAP	18	336	0
NMTAP	19	0	0
BXTAP	19	96	0
BXTAP	19	96	7
NMHLD	19	192	1	72
NMTAP	19	264	0
NMTAP	19	336	2
NMTAP	19	336	7
NMHLD	20	0	6	72
NMTAP	20	72	7
NMTAP	20	144	0
NMTAP	20	144	5
NMHLD	20	192	1	72
NMTAP	20	264	0
NMTAP	20	336	2
NMTAP	20	336	7
NMTAP	21	0	2
NMTAP	21	0	7
NMTAP	21	96	3
NMTAP	21	96	6
NMTAP	21	144	3
NMTAP	21	144	6
NMTAP	21	240	4
NMTAP	21	240	5
NMTAP	21	288	4
NMTAP	21	288	5
NMTAP	22	0	3
NMTAP	22	0	4
NMTAP	22	96	1
NMTAP	22	96	3
NMHLD	22	192	2	72
NMHLD	22	264	0	72
NMTAP	22	336	7
NMSTR	23	0	7
NMSF_	23	0	7	96	192	3
NMTAP	24	0	1
NMTAP	24	0	5
NMTAP	24	48	1
NMTAP	24	48	5
NMTAP	24	144	2
NMTAP	24	144	6
NMTTP	24	240	0	C	1	M1
NMTTP	24	240	1	B	0	M1
NMTTP	24	240	4	B	0	M1
NMTAP	25	0	7
NMTAP	25	48	7
NMTAP	25	96	7
NMTAP	25	192	0
NMTAP	25	192	6
NMTAP	25	264	1
NMTAP	25	264	7
NMTAP	25	336	0
NMSTR	25	336	2
NMSXL	25	336	2	96	240	5
NMTAP	27	0	6
NMTAP	27	48	6
NMTAP	27	96	6
NMTAP	27	192	4
NMTAP	27	192	5
NMTAP	27	264	3
NMTAP	27	264	4
NMSTR	27	336	2
NMSXR	27	336	2	96	240	6
NMTAP	27	336	3
NMTAP	29	0	5
NMTAP	29	48	5
NMTAP	29	96	5
NMTAP	29	192	3
NMTAP	29	192	4
NMTAP	29	264	4
NMTAP	29	264	5
NMTAP	29	336	5
NMSTR	29	336	6
NMSUR	29	336	6	96	240	1
NMTAP	31	0	2
NMTAP	31	48	2
NMTAP	31	96	2
NMTAP	31	96	3
NMTAP	31	192	1
NMTAP	31	192	4
NMTAP	31	264	2
NMTAP	31	264	5
NMHLD	31	336	3	144
NMHLD	31	336	6	144
NMTAP	32	192	0
NMTAP	32	192	1
NMTAP	32	240	0
NMTAP	32	240	1
NMTAP	32	288	0
NMTAP	32	288	1
NMHLD	33	0	2	672
NMSTR	33	0	3
NMSUR	33	0	3	96	192	0
NMTTP	34	0	1	E	0	M1
NMTTP	34	96	2	E	0	M1
NMTTP	34	192	3	E	0	M1
NMTTP	34	288	4	E	0	M1
NMSTR	35	0	3
NMSSR	35	0	3	96	192	7
NMHLD	35	0	5	672
NMTTP	36	0	7	E	0	M1
NMTTP	36	96	6	E	0	M1
NMTTP	36	192	5	E	0	M1
NMTTP	36	288	4	E	0	M1
NMHLD	37	0	1	672
NMTTP	37	96	3	E	0	M1
NMTTP	37	192	2	E	0	M1
NMTTP	37	288	1	E	0	M1
NMTTP	38	0	0	E	0	M1
NMTTP	38	96	7	E	0	M1
NMTTP	38	192	6	E	0	M1
NMTTP	38	288	5	E	0	M1
NMHLD	39	0	6	672
NMTTP	39	96	4	D	0	M1
NMTTP	39	192	5	D	0	M1
NMTTP	39	288	6	D	0	M1
NMTTP	40	0	7	D	0	M1
NMTTP	40	96	0	D	0	M1
NMTTP	40	192	1	D	0	M1
NMTTP	40	288	2	D	1	M1
NMTHO	41	0	0	192	C	0	M1
BRSTR	42	0	0
NMSI_	42	0	0	96	48	4
BRSTR	42	0	1
NMSI_	42	0	1	96	48	4
NMTAP	42	240	7
NMTAP	42	288	7
BRSTR	43	0	0
NMSI_	43	0	0	96	48	4
BRSTR	43	0	1
NMSI_	43	0	1	96	48	4
NMTAP	43	240	7
NMTAP	43	288	7
BRSTR	44	0	0
NMSI_	44	0	0	96	48	4
BRSTR	44	0	1
NMSI_	44	0	1	96	48	4
NMTAP	44	240	6
NMTAP	44	288	6
NMTAP	45	0	4
NMTAP	45	0	5
NMTAP	45	96	2
NMTAP	45	96	3
NMTAP	45	192	1
NMTAP	45	192	7
BRTAP	45	240	1
BRTAP	45	240	7
NMSTR	45	336	2
NMSCR	45	336	2	96	96	5
NMSTR	45	336	6
NMSCR	45	336	6	96	96	1
EXTAP	46	240	3
EXTAP	46	240	7
EXTAP	46	288	3
EXTAP	46	288	7
NMTAP	47	0	4
NMTAP	47	0	6
NMTAP	47	96	5
NMTAP	47	144	4
NMTAP	47	144	5
NMTAP	47	240	2
NMTAP	47	288	2
NMTAP	47	288	3
NMHLD	48	0	1	96
NMHLD	48	96	3	96
NMHLD	48	192	4	96
NMSTR	48	288	6
NMSCR	48	288	6	96	288	4
BRSTR	50	0	6
NMSI_	50	0	6	96	48	3
BRSTR	50	0	7
NMSI_	50	0	7	96	48	3
NMTAP	50	240	0
NMTAP	50	288	0
BRSTR	51	0	6
NMSI_	51	0	6	96	48	3
BRSTR	51	0	7
NMSI_	51	0	7	96	48	3
NMTAP	51	240	0
NMTAP	51	288	0
BRSTR	52	0	6
NMSI_	52	0	6	96	48	3
BRSTR	52	0	7
NMSI_	52	0	7	96	48	3
NMTAP	52	240	1
NMTAP	52	288	1
NMTAP	53	0	2
NMTAP	53	0	3
NMTAP	53	96	4
NMTAP	53	96	5
NMTAP	53	192	0
NMTAP	53	192	7
BRTAP	53	240	0
BRTAP	53	240	7
NMSTR	53	336	1
NMSUR	53	336	1	96	96	6
NMSTR	53	336	3
NMSCR	53	336	3	96	96	6
NMTAP	54	240	7
NMTAP	54	288	7
NMHLD	55	0	6	96
NMHLD	55	96	4	96
NMHLD	55	192	3	96
NMSTR	55	288	1
NMSCL	55	288	1	96	288	3
NMTTP	56	0	0	C	1	M1
NMTAP	57	0	2
NMTAP	57	48	2
NMTAP	57	144	3
NMTAP	57	144	4
NMTAP	57	240	5
NMTAP	57	288	5
BRSTR	58	0	4
NMSI_	58	0	4	96	48	0
BRSTR	58	0	5
NMSI_	58	0	5	96	48	0
NMTAP	58	240	3
NMTAP	58	288	3
BRSTR	59	0	4
NMSI_	59	0	4	96	48	0
BRSTR	59	0	5
NMSI_	59	0	5	96	48	0
NMTAP	59	240	3
NMTAP	59	288	3
BRSTR	60	0	4
NMSI_	60	0	4	96	48	0
BRSTR	60	0	5
NMSI_	60	0	5	96	48	0
NMTAP	60	240	2
NMTAP	60	288	2
NMTAP	61	0	0
NMTAP	61	0	1
NMTAP	61	96	6
NMTAP	61	96	7
NMTAP	61	192	0
NMTAP	61	192	5
BRTAP	61	240	0
BRTAP	61	240	5
NMSTR	61	336	2
NMSCR	61	336	2	96	96	5
NMSTR	61	336	6
NMSCR	61	336	6	96	96	1
NMTAP	62	240	3
NMTAP	62	240	7
NMTAP	62	288	3
NMTAP	62	288	7
NMTAP	63	0	4
NMTAP	63	0	5
NMTAP	63	96	6
NMTAP	63	96	7
NMTAP	63	144	6
NMTAP	63	144	7
NMTAP	63	240	0
NMTAP	63	240	1
NMTAP	63	288	0
NMTAP	63	288	1
NMHLD	64	0	2	96
NMHLD	64	96	0	96
NMHLD	64	192	7	96
NMSTR	64	288	5
NMSXR	64	288	5	96	192	2
BRSTR	66	0	0
NMSCL	66	0	0	96	48	5
BRSTR	66	0	1
NMSV_	66	0	1	96	48	4
NMTAP	66	240	2
NMTAP	66	288	2
BRSTR	67	0	0
NMSCL	67	0	0	96	48	5
BRSTR	67	0	1
NMSV_	67	0	1	96	48	4
NMTAP	67	240	2
NMTAP	67	288	2
BRSTR	68	0	0
NMSCL	68	0	0	96	48	5
BRSTR	68	0	1
NMSV_	68	0	1	96	48	4
NMTAP	68	240	3
NMTAP	68	288	3
NMTAP	69	0	2
NMTAP	69	0	4
NMTAP	69	96	4
NMTAP	69	96	6
NMTAP	69	192	3
NMTAP	69	192	7
NMTAP	69	240	3
NMTAP	69	240	7
NMSTR	69	336	4
NMSCL	69	336	4	96	96	1
NMSTR	69	336	6
NMSCR	69	336	6	96	96	1
NMTAP	70	240	0
NMTAP	70	240	7
NMTAP	70	288	0
NMTAP	70	288	7
NMHLD	71	0	1	96
NMHLD	71	96	3	96
NMHLD	71	192	4	96
NMSTR	71	288	6
BRSCR	71	288	6	96	384	4
NMTTP	72	0	0	C	1	M1
CNSUR	73	0	4	0	192	5
NMTAP	74	0	4
NMHLD	74	0	6	144
NMTAP	74	96	7
NMTAP	74	144	7
NMTAP	74	240	0
NMTAP	74	240	5
NMTAP	74	288	0
NMTAP	74	288	5
NMHLD	75	0	1	144
NMTAP	75	0	3
NMTAP	75	96	0
NMTAP	75	144	0
NMTAP	75	240	2
NMTAP	75	240	7
NMTAP	75	288	2
NMTAP	75	288	7
NMTAP	76	0	4
NMHLD	76	0	6	144
NMTAP	76	96	7
NMTAP	76	144	7
NMTAP	76	240	0
NMTAP	76	240	5
NMTAP	76	288	0
NMTAP	76	288	5
NMSTR	77	0	6
NMSI_	77	0	6	96	48	3
NMSTR	77	0	7
NMSI_	77	0	7	96	48	3
NMSTR	77	192	0
NMSI_	77	192	0	96	48	4
NMSTR	77	192	1
NMSI_	77	192	1	96	48	4
NMHLD	78	0	5	144
NMTAP	78	96	4
NMTAP	78	144	4
NMTAP	78	240	3
NMTAP	78	240	6
NMTAP	78	288	3
NMTAP	78	288	6
NMTAP	79	0	0
NMHLD	79	0	2	144
NMTAP	79	96	3
NMTAP	79	144	3
NMTAP	79	240	1
NMTAP	79	240	4
NMTAP	79	288	1
NMTAP	79	288	4
NMSTR	80	0	2
NMSI_	80	0	2	96	48	7
NMSTR	80	0	3
NMSI_	80	0	3	96	48	7
NMSTR	80	192	4
NMSI_	80	192	4	96	48	0
NMSTR	80	192	5
NMSI_	80	192	5	96	48	0
NMTAP	81	0	1
NMTAP	81	96	2
NMTAP	81	96	3
NMTAP	81	144	2
NMTAP	81	144	3
BRTAP	81	240	0
BRTAP	81	240	6
NMHLD	82	0	1	144
NMTAP	82	96	0
NMTAP	82	144	0
NMTAP	82	240	2
NMTAP	82	240	7
NMTAP	82	288	2
NMTAP	82	288	7
NMTAP	83	0	4
NMHLD	83	0	6	144
NMTAP	83	96	7
NMTAP	83	144	7
NMTAP	83	240	0
NMTAP	83	240	5
NMTAP	83	288	0
NMTAP	83	288	5
NMHLD	84	0	1	144
NMTAP	84	0	3
NMTAP	84	96	0
NMTAP	84	144	0
NMTAP	84	240	2
NMTAP	84	240	7
NMTAP	84	288	2
NMTAP	84	288	7
NMTAP	85	0	0
NMTAP	85	0	1
NMTAP	85	96	2
NMTAP	85	96	3
NMTAP	85	192	4
NMTAP	85	192	5
NMTAP	85	288	6
NMTAP	85	288	7
NMTAP	86	0	0
NMHLD	86	0	1	144
NMTAP	86	96	3
NMTAP	86	144	3
NMTAP	86	240	0
NMTAP	86	240	4
NMTAP	86	288	0
NMTAP	86	288	4
NMHLD	87	0	6	96
NMTAP	87	96	4
EXTAP	87	192	4
EXTAP	87	192	6
EXTAP	87	264	0
EXTAP	87	264	7
EXTAP	87	336	1
EXTAP	87	336	3
EXHLD	88	0	1	336
EXSTR	88	0	3
NMSXL	88	0	3	96	240	7
NMTAP	89	48	0
NMTAP	89	48	6
NMSTR	89	96	0
NMSI_	89	96	0	96	48	4
NMSTR	89	96	6
NMSI_	89	96	6	96	48	2
EXTAP	89	288	1
EXTAP	89	288	5
BXTAP	89	336	1
BXTAP	89	336	5

T_REC_TAP	297
T_REC_BRK	8
T_REC_XTP	24
T_REC_BXX	4
T_REC_HLD	41
T_REC_XHO	9
T_REC_BHO	0
T_REC_BXH	0
T_REC_STR	28
T_REC_BST	24
T_REC_XST	5
T_REC_XBS	0
T_REC_TTP	27
T_REC_THO	1
T_REC_SLD	56
T_REC_BSL	1
T_REC_ALL	525
T_NUM_TAP	381
T_NUM_BRK	37
T_NUM_HLD	51
T_NUM_SLD	56
T_NUM_ALL	525
T_JUDGE_TAP	417
T_JUDGE_HLD	200
T_JUDGE_SLD	57
T_JUDGE_ALL	674
TTM_EACHPAIRS	154
TTM_SCR_TAP	190500
TTM_SCR_BRK	96200
TTM_SCR_HLD	51000
TTM_SCR_SLD	84000
TTM_SCR_ALL	421700
TTM_SCR_S	405500
TTM_SCR_SS	418000
TTM_RAT_ACV	10088

