VERSION	0.00.00	1.04.00
FES_MODE	0
BPM_DEF	142.000	142.000	142.000	142.000
MET_DEF	4	4
RESOLUTION	384
CLK_DEF	384
COMPATIBLE_CODE	MA2

BPM	0	0	142.000
MET	0	0	4	4

NMTTP	2	0	5	E	0	M1
NMTTP	2	24	4	B	0	M1
NMTTP	2	48	3	B	0	M1
NMTTP	2	72	3	E	0	M1
NMTTP	2	192	5	E	0	M1
NMTTP	2	216	4	B	0	M1
NMTTP	2	240	3	B	0	M1
NMTTP	2	264	3	E	0	M1
NMTTP	3	0	6	E	0	M1
NMTTP	3	24	5	E	0	M1
NMTTP	3	48	4	E	0	M1
NMTTP	3	72	3	E	0	M1
NMTTP	3	192	5	E	0	M1
NMTTP	3	216	4	E	0	M1
NMTTP	3	240	3	E	0	M1
NMTTP	3	264	2	E	0	M1
NMTTP	4	0	5	B	0	M1
NMTTP	4	24	4	B	0	M1
NMTTP	4	48	3	B	0	M1
NMTTP	4	72	2	B	0	M1
NMTTP	4	192	5	B	0	M1
NMTTP	4	216	4	B	0	M1
NMTTP	4	240	3	B	0	M1
NMTTP	4	264	2	B	0	M1
NMTTP	5	0	5	D	0	M1
NMTTP	5	24	4	D	0	M1
NMTTP	5	48	3	D	0	M1
NMTTP	5	72	2	D	0	M1
NMTTP	5	192	5	A	0	M1
NMTTP	5	216	4	A	0	M1
NMTTP	5	240	3	A	0	M1
NMTTP	5	264	2	A	0	M1
NMTAP	6	0	2
NMTAP	6	48	2
NMTAP	6	96	3
NMTAP	6	144	3
NMTAP	6	192	1
NMTAP	6	240	2
NMTAP	6	240	4
NMTAP	6	288	6
NMTAP	6	336	3
NMTAP	6	336	5
NMTAP	7	0	2
NMTAP	7	48	1
NMSTR	7	96	0
NMSCL	7	96	0	96	48	5
NMSCR	7	96	0	96	48	3
NMTAP	7	144	0
EXTAP	7	288	3
EXTAP	7	288	5
NMTAP	8	0	2
NMTAP	8	48	2
NMTAP	8	96	1
NMTAP	8	144	1
NMTAP	8	192	0
NMTAP	8	240	0
NMTAP	8	288	7
NMTAP	8	336	7
NMTAP	9	0	2
NMTAP	9	0	6
NMTAP	9	48	2
NMTAP	9	48	6
NMTAP	9	96	1
NMTAP	9	96	5
NMTAP	9	144	1
NMTAP	9	144	5
NMSTR	9	192	0
NMSI_	9	192	0	96	48	4
NMTAP	9	216	4
NMTAP	9	240	0
NMTAP	9	264	4
BRTAP	9	288	0
NMTAP	10	0	5
NMTAP	10	24	4
NMTAP	10	48	5
NMSTR	10	96	6
NMSI_	10	96	6	96	48	3
NMSTR	10	144	3
NMSI_	10	144	3	96	48	6
NMTAP	10	192	2
NMTAP	10	240	1
NMTAP	10	288	0
NMTAP	10	336	0
NMSTR	11	0	1
NMSI_	11	0	1	96	48	4
NMTAP	11	48	2
NMSTR	11	96	5
NMSUR	11	96	5	96	96	2
NMTAP	11	192	3
NMTAP	12	0	2
NMTAP	12	24	3
NMTAP	12	48	1
NMSTR	12	96	0
NMSLR	12	96	0	96	96	4
NMTAP	12	144	4
NMTAP	12	192	5
NMTAP	12	240	6
NMTAP	12	288	7
NMTAP	12	336	7
NMSTR	13	0	6
NMSV_	13	0	6	96	48	3
NMTAP	13	48	5
NMSTR	13	96	2
NMSCL	13	96	2	96	120	5
NMTAP	13	192	4
NMTAP	14	0	6
NMTAP	14	24	4
NMTAP	14	48	6
NMSTR	14	96	7
NMSI_	14	96	7	96	48	3
NMSTR	14	144	1
NMSI_	14	144	1	96	48	5
NMTAP	14	288	4
NMTAP	14	336	2
NMTAP	15	0	1
NMTAP	15	24	3
NMTAP	15	48	1
NMSTR	15	96	0
NMSCR	15	96	0	96	48	3
NMSTR	15	144	6
NMSCL	15	144	6	96	48	3
NMTAP	15	288	1
NMTAP	15	336	0
NMSTR	16	0	6
NMSCL	16	0	6	96	48	3
NMSTR	16	0	7
NMSUL	16	0	7	96	48	2
NMSTR	16	192	0
NMSUR	16	192	0	96	48	5
NMSTR	16	192	1
NMSCR	16	192	1	96	48	4
NMTAP	17	0	6
NMTAP	17	24	7
NMTAP	17	72	2
NMTAP	17	96	3
NMTAP	17	144	0
NMTAP	17	144	1
NMTAP	17	192	5
NMTAP	17	216	3
NMTAP	17	240	4
NMSTR	17	288	2
NMSI_	17	288	2	96	48	7
NMSTR	17	288	6
NMSI_	17	288	6	96	48	3
BRTAP	18	0	2
BRTAP	18	0	6
NMSTR	18	96	1
NMSI_	18	96	1	96	48	4
NMSTR	18	96	5
NMSI_	18	96	5	96	48	0
BRTAP	18	192	1
BRTAP	18	192	5
NMSTR	18	288	6
NMSCL	18	288	6	96	48	3
NMSTR	19	0	2
NMSI_	19	0	2	96	48	6
NMTAP	19	0	6
NMTAP	19	96	2
NMSTR	19	96	7
NMSI_	19	96	7	96	48	3
NMSTR	19	192	1
NMSI_	19	192	1	96	48	4
NMSI_	19	192	1	96	48	5
NMTAP	19	192	7
BRTAP	19	288	1
NMTAP	20	0	7
NMTAP	20	48	7
NMTAP	20	96	0
NMTAP	20	96	6
NMTAP	20	144	1
NMTAP	20	168	4
NMTAP	20	192	2
NMTAP	20	216	3
NMTAP	20	240	2
NMTAP	20	288	1
NMSTR	20	288	4
NMSXL	20	288	4	96	96	4
NMSXR	20	288	4	96	96	4
EXTAP	21	0	4
EXTAP	21	144	2
EXTAP	21	144	6
EXTAP	21	192	2
EXTAP	21	192	6
NMSTR	21	288	3
NMSI_	21	288	3	96	48	0
NMSTR	21	288	7
NMSI_	21	288	7	96	48	4
NMTAP	21	336	2
NMTAP	21	336	6
BRTAP	22	0	3
BRTAP	22	0	7
NMSTR	22	96	1
NMSI_	22	96	1	96	48	6
NMSTR	22	96	5
NMSI_	22	96	5	96	48	2
BRTAP	22	192	1
BRTAP	22	192	5
NMSTR	22	288	0
NMSCR	22	288	0	96	48	3
NMSTR	22	288	4
NMSCR	22	288	4	96	48	7
NMTAP	23	0	0
NMTAP	23	0	4
NMSTR	23	96	3
NMSI_	23	96	3	96	48	6
NMSXR	23	96	3	96	96	7
CNSI_	23	240	6	0	48	4
NMTAP	24	0	0
NMTAP	24	48	0
NMTAP	24	96	1
NMTAP	24	96	7
NMTAP	24	144	2
NMTAP	24	168	4
NMTAP	24	192	3
NMTAP	24	216	5
NMTAP	24	240	4
NMSTR	24	288	2
NMSUL	24	288	2	96	72	5
NMSTR	24	288	6
NMSCR	24	288	6	96	72	1
BRTAP	25	144	0
BRTAP	25	144	7
BRTAP	25	192	0
BRTAP	25	192	7
NMSTR	25	288	5
NMSI_	25	288	5	96	48	3
NMSTR	25	288	7
NMSI_	25	288	7	96	48	3
NMTAP	26	0	5
NMTAP	26	0	7
NMSTR	26	96	0
NMSI_	26	96	0	96	48	4
NMSTR	26	96	2
NMSI_	26	96	2	96	48	4
NMTAP	26	192	0
NMTAP	26	192	2
NMTAP	26	288	2
NMTAP	26	288	6
NMTAP	27	0	0
NMTAP	27	0	7
NMTAP	27	48	1
NMTAP	27	72	3
NMTAP	27	120	5
NMTAP	27	144	3
NMHLD	27	192	2	456
NMHLD	27	192	6	432
NMTAP	29	0	5
NMTAP	29	24	4
NMTAP	29	48	5
NMHLD	29	96	3	48
NMHLD	29	96	6	48
NMHLD	29	192	1	48
NMHLD	29	192	4	48
NMSTR	29	288	2
NMSXL	29	288	2	96	192	5
NMTAP	29	336	2
NMTAP	30	0	4
NMTAP	30	48	5
NMTAP	30	96	6
NMTAP	30	144	7
NMHLD	30	192	7	96
NMTAP	30	288	5
NMTAP	30	336	5
NMTAP	31	0	6
NMTAP	31	24	4
NMTAP	31	48	6
NMSTR	31	96	0
NMSI_	31	96	0	96	48	4
NMSTR	31	144	7
NMSI_	31	144	7	96	48	3
NMTAP	31	192	0
NMTAP	31	240	7
NMTAP	31	288	2
NMTAP	31	336	4
NMTAP	32	0	1
NMTAP	32	0	5
NMTAP	32	32	1
NMTAP	32	32	5
NMTAP	32	64	1
NMTAP	32	64	5
NMSTR	32	96	1
NMSCR	32	96	1	96	48	3
NMSTR	32	96	5
NMSCL	32	96	5	96	48	3
NMTAP	32	144	0
NMTAP	32	144	6
EXTAP	32	192	1
EXTAP	32	192	5
NMTAP	32	288	2
NMTAP	32	288	4
NMTAP	32	336	2
NMTAP	32	336	4
NMTAP	33	0	1
NMTAP	33	0	5
NMTAP	33	48	6
NMTAP	33	72	6
NMTAP	33	96	0
NMTAP	33	144	1
NMTAP	33	168	1
NMTAP	33	192	7
NMTAP	33	240	2
NMTAP	33	240	6
NMSTR	33	288	1
BRSXR	33	288	1	96	192	6
NMTAP	33	288	5
NMTAP	34	0	7
NMTAP	34	48	6
NMTAP	34	96	5
NMTAP	34	144	4
NMTAP	34	192	3
NMTAP	34	288	4
NMTAP	34	336	4
NMTAP	35	0	3
NMTAP	35	0	5
NMTAP	35	48	6
NMTAP	35	72	6
NMTAP	35	96	4
NMTAP	35	144	1
NMTAP	35	168	1
NMTAP	35	192	3
NMTAP	35	240	2
NMTAP	35	240	4
NMSTR	35	288	3
BRSCL	35	288	3	96	48	0
NMTAP	35	288	5
NMSTR	36	0	3
BRSCR	36	0	3	96	48	6
NMSTR	36	96	3
BRSI_	36	96	3	96	48	7
NMTAP	36	192	3
NMTAP	36	288	1
NMTAP	36	288	5
NMSTR	37	0	0
NMTTP	37	0	0	C	0	M1
NMSCL	37	0	0	96	48	5
NMSCR	37	0	0	96	48	3
BRTAP	37	96	0
NMTTP	37	192	0	C	0	M1
NMSTR	37	192	6
NMSI_	37	192	6	96	48	1
NMSI_	37	192	6	96	48	3
BRTAP	37	288	6
NMTTP	38	0	0	C	0	M1
NMSTR	38	0	2
NMSCL	38	0	2	96	48	7
NMSUL	38	0	2	96	48	6
BRTAP	38	96	2
NMTTP	38	192	0	C	0	M1
NMSTR	38	192	7
NMSI_	38	192	7	96	48	2
NMSI_	38	192	7	96	48	4
BRTAP	38	288	7
NMTTP	39	0	0	C	0	M1
NMSTR	39	0	1
NMSI_	39	0	1	96	48	5
NMSCR	39	0	1	96	48	4
BRTAP	39	96	1
NMTTP	39	192	0	C	0	M1
NMSTR	39	192	6
NMSUL	39	192	6	96	48	2
NMSLL	39	192	6	96	48	2
BRTAP	39	288	6
NMSTR	40	0	0
NMTTP	40	0	0	C	0	M1
NMSCL	40	0	0	96	48	5
NMSCR	40	0	0	96	48	3
BRTAP	40	96	0
NMSTR	40	192	1
BRSI_	40	192	1	96	48	4
NMSTR	40	192	7
BRSI_	40	192	7	96	48	4
NMTAP	40	240	2
NMTAP	40	240	6
BRTAP	40	288	1
BRTAP	40	288	7
NMTAP	41	0	5
NMTAP	41	24	5
NMTAP	41	48	3
NMTAP	41	96	1
NMTAP	41	120	1
NMTAP	41	144	3
EXTAP	41	192	2
EXTAP	41	192	4
EXTAP	41	228	2
EXTAP	41	228	4
EXHLD	41	264	2	72
EXHLD	41	264	4	72
NMTAP	42	0	1
NMTAP	42	0	5
NMTAP	42	48	2
NMTAP	42	72	2
NMTAP	42	96	4
NMTAP	42	144	6
NMTAP	42	168	6
NMTAP	42	192	4
NMTAP	42	240	3
NMTAP	42	240	5
NMTAP	42	288	2
NMTAP	42	288	4
NMTAP	42	336	1
NMTAP	42	336	3
NMSTR	43	0	1
NMSUR	43	0	1	96	48	5
NMSTR	43	0	3
NMSCR	43	0	3	96	48	5
NMSTR	43	192	4
NMSCL	43	192	4	96	48	2
NMSTR	43	192	6
NMSUL	43	192	6	96	48	2
EXTAP	44	0	0
EXTAP	44	0	1
NMTAP	44	48	2
NMTAP	44	72	3
NMTAP	44	120	5
NMTAP	44	144	4
NMTAP	44	192	7
NMTAP	44	216	0
NMTAP	44	240	6
BRSTR	44	288	1
NMSI_	44	288	1	96	48	4
BRSTR	44	288	5
NMSV_	44	288	5	96	48	0
BRTAP	45	0	1
BRTAP	45	0	5
NMSTR	45	96	2
NMSCL	45	96	2	96	48	7
NMSTR	45	96	6
NMSV_	45	96	6	96	48	3
BRTAP	45	192	2
BRTAP	45	192	6
NMSTR	45	288	0
NMSCR	45	288	0	96	48	2
NMSTR	45	288	6
NMSUR	45	288	6	96	48	2
NMSTR	46	0	0
NMSUL	46	0	0	96	48	4
NMSTR	46	0	6
NMSCL	46	0	6	96	48	4
NMSTR	46	96	0
NMSCR	46	96	0	96	48	2
NMSTR	46	96	6
NMSUR	46	96	6	96	48	2
NMSTR	46	192	0
NMSV_	46	192	0	96	48	3
NMSTR	46	192	6
NMSV_	46	192	6	96	48	3
BRTAP	46	288	0
BRTAP	46	288	6
NMTAP	47	0	2
NMTAP	47	0	4
NMTAP	47	48	3
NMTAP	47	48	6
NMTAP	47	96	0
NMTAP	47	96	4
NMTAP	47	144	2
NMTAP	47	168	3
NMSTR	47	192	1
NMSI_	47	192	1	96	48	5
NMSTR	47	240	5
NMSI_	47	240	5	96	48	1
NMTAP	47	288	6
NMTAP	47	336	7
NMHLD	48	0	7	48
NMHLD	48	72	0	48
NMHLD	48	72	6	48
NMTAP	48	144	2
NMTAP	48	144	4
NMTAP	48	192	1
NMTAP	48	192	5
NMSTR	48	288	2
NMSCL	48	288	2	96	48	7
NMSTR	48	288	6
NMSUR	48	288	6	96	48	3
NMTAP	48	336	1
NMTAP	48	336	5
BRTAP	49	0	2
BRTAP	49	0	6
NMSTR	49	96	1
NMSUL	49	96	1	96	48	4
NMSTR	49	96	5
NMSCR	49	96	5	96	48	0
BRTAP	49	192	1
BRTAP	49	192	5
NMSTR	49	288	3
NMSCL	49	288	3	96	48	0
NMSTR	49	288	7
NMSCL	49	288	7	96	48	4
NMSTR	50	0	3
NMSUR	50	0	3	96	48	7
NMSTR	50	0	7
NMSUR	50	0	7	96	48	3
NMSTR	50	96	3
NMSCL	50	96	3	96	48	0
NMSTR	50	96	7
NMSCL	50	96	7	96	48	4
NMTAP	50	192	3
NMTAP	50	192	7
BXTAP	50	288	1
BXTAP	50	288	5
NMTAP	51	0	0
NMTAP	51	48	0
NMTAP	51	96	2
NMTAP	51	96	6
NMTAP	51	144	5
NMTAP	51	168	3
NMSTR	51	192	4
NMSI_	51	192	4	96	48	0
NMSTR	51	240	0
NMSI_	51	240	0	96	48	4
NMTAP	51	288	2
NMTAP	51	336	3
NMHLD	52	0	3	48
NMHLD	52	72	2	48
NMHLD	52	72	4	48
NMTAP	52	144	6
NMTAP	52	144	7
NMSTR	52	192	6
NMSI_	52	192	6	96	48	2
NMSTR	52	192	7
NMSI_	52	192	7	96	48	3
NMSTR	52	288	6
NMSCL	52	288	6	96	288	7
NMSTR	52	288	7
NMSCR	52	288	7	96	288	6
NMTTP	53	0	6	A	0	M1
NMTTP	53	0	7	A	0	M1
NMTTP	53	0	7	D	1	M1
NMTAP	54	0	4
NMSTR	54	0	5
NMSCR	54	0	5	96	48	0
NMSTR	54	192	2
NMSCL	54	192	2	96	48	7
NMTAP	54	192	3
NMTTP	55	0	1	B	0	M1
NMTTP	55	24	7	B	0	M1
NMTTP	55	48	3	B	0	M1
NMTTP	55	72	5	B	0	M1
NMTTP	55	96	0	B	0	M1
NMTTP	55	120	6	B	0	M1
NMTTP	55	144	2	B	0	M1
NMTTP	55	168	4	B	0	M1
NMTTP	55	192	1	E	0	M1
NMTTP	55	216	7	E	0	M1
NMTTP	55	240	3	E	0	M1
NMTTP	55	264	5	E	0	M1
NMTTP	55	288	0	E	0	M1
NMTTP	55	312	4	E	0	M1
NMTTP	55	336	0	C	0	M1
NMTTP	56	0	7	D	0	M1
NMTTP	56	24	6	D	0	M1
NMTTP	56	48	1	A	0	M1
NMTTP	56	60	2	D	0	M1
NMTTP	56	72	2	A	0	M1
NMTTP	56	84	3	D	0	M1
NMTTP	56	96	3	A	0	M1
NMTTP	56	144	0	E	0	M1
NMTTP	56	144	0	D	0	M1
NMTTP	56	192	1	B	0	M1
NMTTP	56	192	1	A	0	M1
NMTTP	56	240	6	D	0	M1
NMTTP	56	252	5	A	0	M1
NMTTP	56	264	5	D	0	M1
NMTTP	56	276	4	A	0	M1
NMTTP	56	288	4	D	0	M1
NMHLD	57	0	1	48
NMHLD	57	48	7	48
NMTAP	57	96	1
NMTAP	57	120	7
NMTAP	57	144	0
NMTAP	57	168	6
NMHLD	57	192	7	48
NMHLD	57	240	5	48
NMTAP	57	288	7
NMTAP	57	312	5
NMTAP	57	336	0
NMTAP	57	360	6
NMTAP	58	0	1
NMTAP	58	24	7
NMTAP	58	48	4
NMTAP	58	72	5
NMTAP	58	96	0
NMTAP	58	120	6
NMTAP	58	144	2
NMTAP	58	168	3
NMHLD	58	192	1	48
NMHLD	58	264	0	48
NMHLD	58	264	2	48
NMTAP	58	336	3
NMTAP	58	336	7
NMTAP	59	0	3
NMSTR	59	0	7
NMSLL	59	0	7	96	96	3
NMSTR	59	96	3
NMSCR	59	96	3	96	96	1
EXHLD	60	0	3	96
EXTAP	60	0	7
NMHLD	60	96	5	192
NMTAP	60	192	7
NMTAP	60	240	7
EXSTR	60	288	7
NMSSR	60	288	7	96	288	3
EXTAP	60	312	0
EXTAP	60	336	1
EXTAP	60	360	2
EXTAP	61	0	3
NMSTR	62	0	2
NMSCL	62	0	2	96	192	5
NMSTR	62	192	5
NMSCL	62	192	5	96	192	0
NMSTR	63	0	0
NMSCL	63	0	0	96	192	3
NMSTR	63	192	3
NMSV_	63	192	3	96	144	1
CNSCL	64	48	1	0	336	5
NMSTR	65	0	4
NMSSL	65	0	4	96	192	0
NMSSR	65	0	4	96	192	0
NMHLD	66	0	0	72
NMHLD	66	72	1	72
NMTAP	66	144	2
NMHLD	66	192	6	72
NMHLD	66	264	5	72
NMTAP	66	336	4
NMHLD	67	0	3	72
NMHLD	67	72	2	72
NMTAP	67	144	1
NMTAP	67	192	0
NMTAP	67	240	7
NMTAP	67	288	6
NMTAP	67	336	5
NMTAP	68	0	3
NMTAP	68	48	3
NMTAP	68	96	3
NMTAP	68	96	5
NMTAP	68	144	3
NMTAP	68	144	5
NMTAP	68	192	2
NMTAP	68	192	4
NMTAP	68	240	2
NMTAP	68	240	4
NMTAP	68	288	1
NMTAP	68	288	5
NMTAP	68	336	1
NMTAP	68	336	5
NMTAP	69	0	0
NMTAP	69	24	7
NMTAP	69	48	0
NMTAP	69	72	7
NMTAP	69	96	1
NMTAP	69	120	6
NMTAP	69	144	1
NMTAP	69	168	6
NMTAP	69	192	0
NMTAP	69	216	7
NMTAP	69	240	0
NMTAP	69	264	7
NMTAP	69	288	0
NMTAP	69	300	1
NMTAP	69	312	2
NMTAP	69	324	3
NMTAP	69	336	4
NMTAP	69	348	5
NMTAP	69	360	6
NMTAP	69	372	7
BXHLD	70	0	0	576
NMSTR	71	192	3
NMSI_	71	192	3	96	48	0
NMTAP	71	216	1
NMTAP	71	240	7
NMTTP	71	288	3	A	1	M1
EXSTR	71	288	6
NMSI_	71	288	6	96	48	2
NMHLD	72	0	0	48
NMSTR	72	0	6
NMSI_	72	0	6	96	48	0
NMHLD	72	96	3	48
NMSTR	72	96	6
NMSI_	72	96	6	96	48	4
NMHLD	72	192	2	48
NMTAP	72	192	6
NMSTR	72	288	3
NMSCL	72	288	3	96	48	0
NMSCR	72	288	3	96	48	6
NMTAP	72	336	2
NMTAP	72	336	4
NMSTR	73	0	3
NMSF_	73	0	3	96	48	7
BRTAP	73	96	3
BRTAP	73	192	1
BRTAP	73	192	5
NMSTR	73	288	0
NMSI_	73	288	0	96	48	4
NMSTR	73	288	1
NMSI_	73	288	1	96	48	5
NMTAP	73	336	2
NMTAP	73	336	7
NMTAP	74	0	0
NMTAP	74	0	1
NMSTR	74	96	6
NMSI_	74	96	6	96	48	2
NMSTR	74	96	7
NMSI_	74	96	7	96	48	3
NMTAP	74	192	6
NMTAP	74	192	7
NMSTR	74	288	1
NMSCR	74	288	1	96	48	4
NMSTR	74	288	5
NMSCR	74	288	5	96	48	0
NMSTR	75	0	1
NMSI_	75	0	1	96	48	5
NMTAP	75	0	5
NMSTR	75	96	1
NMSCL	75	96	1	96	48	6
NMSTR	75	96	6
NMSCL	75	96	6	96	48	3
NMTAP	75	192	1
NMTAP	75	192	6
BXTAP	75	288	0
BXTAP	75	288	4
NMTAP	76	0	6
NMTAP	76	0	7
NMTAP	76	48	4
NMTAP	76	48	5
NMTAP	76	96	3
NMTAP	76	96	6
NMTAP	76	144	0
NMTAP	76	168	5
NMTAP	76	192	7
NMTAP	76	216	6
NMTAP	76	240	7
NMSTR	76	288	0
NMSCR	76	288	0	96	48	2
NMSTR	76	288	5
NMSCL	76	288	5	96	48	3
NMTAP	77	0	0
NMTAP	77	0	5
NMSTR	77	96	0
NMSCL	77	96	0	96	48	5
NMSTR	77	96	1
NMSCR	77	96	1	96	48	4
NMTAP	77	192	0
NMTAP	77	192	1
NMTAP	77	288	2
NMSTR	77	288	6
NMSI_	77	288	6	96	48	3
NMTAP	78	0	0
NMTAP	78	0	6
NMTAP	78	96	2
NMTAP	78	96	4
NMTAP	78	144	6
NMSTR	78	192	4
NMSI_	78	192	4	96	48	0
NMTAP	78	240	2
NMSTR	78	288	1
NMSI_	78	288	1	96	48	4
NMTAP	78	288	4
NMTAP	79	0	1
NMTAP	79	0	7
NMTAP	79	96	3
NMTAP	79	96	5
NMTAP	79	144	2
NMSTR	79	192	0
NMSCL	79	192	0	96	48	5
NMTAP	79	240	1
NMTAP	79	288	0
NMSTR	79	288	3
NMSI_	79	288	3	96	48	7
NMTAP	80	0	3
NMTAP	80	0	4
NMTAP	80	96	0
NMTAP	80	96	6
NMTAP	80	144	4
NMSTR	80	192	2
NMSI_	80	192	2	96	48	6
NMTAP	80	240	1
NMSTR	80	288	0
NMSI_	80	288	0	96	48	5
NMTAP	80	288	2
NMTAP	81	0	0
NMTAP	81	0	3
NMTAP	81	96	2
NMTAP	81	96	4
NMTAP	81	144	0
NMSTR	81	192	6
BRSI_	81	192	6	96	48	2
NMTAP	81	240	5
NMSTR	81	288	1
BRSI_	81	288	1	96	48	4
NMTAP	81	288	6
NMTAP	81	336	0
NMTAP	82	0	1
NMTAP	82	0	5
NMTAP	82	96	3
NMTAP	82	96	6
NMTAP	82	144	5
NMTAP	82	168	5
NMSTR	82	192	3
NMSI_	82	192	3	96	48	7
NMTAP	82	240	2
NMTAP	82	240	4
NMTAP	82	288	3
NMSTR	82	288	5
NMSI_	82	288	5	96	48	0
NMTAP	82	336	4
NMTAP	83	0	0
NMTAP	83	0	5
NMTAP	83	96	1
NMTAP	83	96	3
NMTAP	83	144	2
NMTAP	83	168	2
NMSTR	83	192	4
NMSI_	83	192	4	96	48	7
NMTAP	83	240	3
BRSTR	83	288	1
NMSUR	83	288	1	96	48	5
NMTAP	83	288	4
BRTAP	83	336	0
NMTAP	84	0	1
NMSTR	84	0	6
NMSI_	84	0	6	96	48	3
NMTAP	84	48	7
NMSTR	84	96	2
NMSI_	84	96	2	96	48	6
NMTAP	84	144	1
NMSTR	84	192	4
NMSI_	84	192	4	96	48	0
NMTAP	84	240	5
NMSTR	84	288	3
BRSXL	84	288	3	96	96	3
BRSXR	84	288	3	96	96	3
NMTAP	84	336	2
NMTHO	85	192	0	912	C	0	M1

T_REC_TAP	372
T_REC_BRK	37
T_REC_XTP	20
T_REC_BXX	4
T_REC_HLD	30
T_REC_XHO	3
T_REC_BHO	0
T_REC_BXH	1
T_REC_STR	132
T_REC_BST	3
T_REC_XST	2
T_REC_XBS	0
T_REC_TTP	74
T_REC_THO	1
T_REC_SLD	141
T_REC_BSL	10
T_REC_ALL	830
T_NUM_TAP	600
T_NUM_BRK	55
T_NUM_HLD	34
T_NUM_SLD	141
T_NUM_ALL	830
T_JUDGE_TAP	644
T_JUDGE_HLD	94
T_JUDGE_SLD	151
T_JUDGE_ALL	889
TTM_EACHPAIRS	154
TTM_SCR_TAP	300000
TTM_SCR_BRK	143000
TTM_SCR_HLD	34000
TTM_SCR_SLD	211500
TTM_SCR_ALL	688500
TTM_SCR_S	662550
TTM_SCR_SS	683000
TTM_RAT_ACV	10080

