VERSION	0.00.00	1.04.00
FES_MODE	0
BPM_DEF	142.000	142.000	142.000	142.000
MET_DEF	4	4
RESOLUTION	384
CLK_DEF	384
COMPATIBLE_CODE	MA2

BPM	0	0	142.000
MET	0	0	4	4

EXHLD	1	0	3	384
BXTAP	1	0	5
NMHLD	2	0	6	192
NMHLD	2	192	5	192
NMHLD	3	0	4	192
NMTAP	3	192	3
NMHLD	4	0	2	192
NMTAP	4	0	4
NMHLD	4	192	3	192
NMSTR	5	0	4
NMSUL	5	0	4	96	192	3
NMHLD	6	0	2	288
NMTAP	6	96	4
NMTAP	6	192	4
NMTAP	6	288	3
NMTAP	7	0	1
NMTAP	7	0	4
NMSTR	7	96	1
NMSCR	7	96	1	96	96	4
NMTAP	7	96	4
NMTAP	8	0	5
NMTAP	8	96	4
NMTAP	8	96	5
NMTAP	8	192	2
NMTAP	8	288	2
NMTAP	8	288	3
NMTAP	9	0	3
NMTAP	9	0	4
NMTAP	9	96	2
NMSTR	9	96	5
NMSCR	9	96	5	96	96	0
NMSTR	10	0	1
NMSI_	10	0	1	96	96	5
NMSTR	10	192	6
NMSI_	10	192	6	96	96	2
NMTAP	11	0	1
NMSTR	11	96	0
NMSCL	11	96	0	96	96	5
NMSTR	11	96	1
NMSCR	11	96	1	96	96	4
NMHLD	12	0	6	96
NMTAP	12	96	4
NMHLD	12	192	2	96
NMTAP	12	288	3
NMTAP	13	0	1
NMTAP	13	0	4
NMSTR	13	96	2
NMSCL	13	96	2	96	96	7
NMSTR	13	96	3
NMSCR	13	96	3	96	96	6
NMHLD	14	0	5	192
NMHLD	14	96	4	96
NMTAP	14	288	4
NMTAP	14	288	5
NMHLD	15	0	2	192
NMHLD	15	96	3	96
NMSTR	15	288	2
NMSI_	15	288	2	96	96	5
NMTAP	15	288	3
NMSTR	16	96	6
NMSCL	16	96	6	96	96	3
NMSTR	16	288	0
NMSSL	16	288	0	96	192	4
EXTAP	17	288	3
EXTAP	17	288	5
NMHLD	18	0	0	72
NMHLD	18	72	1	72
NMTAP	18	144	2
NMHLD	18	192	7	72
NMHLD	18	264	6	72
NMTAP	18	336	5
NMHLD	19	0	1	72
NMHLD	19	72	2	72
NMTAP	19	144	3
NMTAP	19	192	3
NMTAP	19	288	0
NMTAP	19	288	6
NMTAP	20	0	5
NMTAP	20	48	5
NMTAP	20	96	4
NMTAP	20	96	6
NMTAP	20	192	2
NMTAP	20	240	2
NMHLD	20	288	1	96
NMSTR	20	288	3
NMSXL	20	288	3	96	192	3
EXTAP	21	192	2
EXTAP	21	288	1
EXTAP	21	288	4
NMHLD	22	0	7	72
NMHLD	22	72	6	72
NMTAP	22	144	5
NMHLD	22	192	0	72
NMHLD	22	264	1	72
NMTAP	22	336	2
NMHLD	23	0	6	72
NMHLD	23	72	5	72
NMTAP	23	144	4
NMTAP	23	192	4
NMTAP	23	288	1
EXTAP	23	288	7
NMTAP	24	0	2
NMTAP	24	48	2
NMTAP	24	96	2
NMTAP	24	96	3
NMTAP	24	192	5
NMTAP	24	240	5
NMSTR	24	288	4
NMSI_	24	288	4	96	96	1
NMSTR	24	288	5
NMSI_	24	288	5	96	96	0
BXTAP	25	192	2
BXTAP	25	192	7
NMHLD	26	0	4	96
NMHLD	26	0	6	96
NMHLD	26	192	2	96
NMHLD	26	192	3	96
EXTAP	27	0	0
EXTAP	27	72	1
EXTAP	27	72	7
EXTAP	27	144	2
EXTAP	27	144	6
BXSTR	27	192	2
NMSI_	27	192	2	96	96	0
BXSTR	27	192	6
NMSI_	27	192	6	96	96	4
CNSV_	28	0	0	0	192	3
CNSV_	28	0	4	0	192	7
EXHLD	29	0	6	96
NMHLD	29	96	5	96
NMHLD	29	192	4	96
NMHLD	29	288	5	96
NMHLD	30	0	6	96
NMSTR	30	96	7
NMSI_	30	96	7	96	96	2
NMTTP	31	0	3	E	0	M1
NMTTP	31	96	4	E	0	M1
NMTTP	31	192	5	E	0	M1
NMTTP	31	288	0	C	0	M1
EXHLD	32	0	0	96
EXHLD	32	0	7	96
EXTAP	32	192	1
EXTAP	32	192	6
NMSTR	33	0	2
BRSCR	33	0	2	96	96	5
NMTAP	33	192	6
NMTAP	33	288	6
NMSTR	34	0	5
BRSCL	34	0	5	96	96	2
BRTAP	34	192	1
NMTAP	34	288	1
NMTAP	35	0	2
NMTAP	35	48	2
NMTAP	35	96	3
NMTAP	35	192	5
NMTAP	35	240	5
NMTAP	35	288	4
NMTAP	36	0	3
NMTAP	36	0	5
NMTAP	36	96	2
NMSTR	36	96	6
BRSUL	36	96	6	96	96	2
NMTAP	37	0	0
NMTAP	37	0	1
BRTAP	37	96	0
BRTAP	37	96	1
NMTAP	37	192	6
NMTAP	37	192	7
BRTAP	37	288	6
BRTAP	37	288	7
NMTAP	38	0	0
NMTAP	38	0	2
BRTAP	38	96	0
BRTAP	38	96	2
NMTAP	38	192	5
NMTAP	38	192	7
BRTAP	38	288	5
BRTAP	38	288	7
NMTAP	39	0	1
NMTAP	39	0	3
BRTAP	39	96	1
BRTAP	39	96	3
NMTAP	39	192	4
NMTAP	39	192	6
BRTAP	39	288	4
BRTAP	39	288	6
NMTAP	40	0	2
NMTAP	40	0	3
BRTAP	40	96	2
BRSTR	40	96	3
NMSI_	40	96	3	96	96	6
BRSI_	40	96	3	96	96	0
EXTAP	41	0	0
EXHLD	41	0	6	288
NMTAP	41	96	0
NMTAP	41	192	7
NMTAP	41	288	0
EXHLD	42	0	1	288
EXTAP	42	0	7
NMTAP	42	96	7
NMTAP	42	192	0
NMTAP	42	288	7
NMSTR	43	0	7
NMSCL	43	0	7	96	96	4
NMSTR	43	192	0
BRSCR	43	192	0	96	96	3
NMTAP	44	0	4
NMTAP	44	96	4
BRTAP	44	192	2
BRTAP	44	192	6
NMTAP	45	0	0
NMSTR	45	0	1
BRSI_	45	0	1	96	48	4
NMSTR	45	192	6
NMSI_	45	192	6	96	48	3
NMTAP	45	192	7
NMTAP	46	0	0
NMSTR	46	0	1
BRSI_	46	0	1	96	48	4
NMTAP	46	192	6
NMTAP	46	192	7
EXTAP	46	288	0
EXTAP	46	288	4
NMHLD	47	0	1	48
NMHLD	47	0	3	48
NMHLD	47	96	1	48
NMHLD	47	96	3	48
NMHLD	47	192	4	48
NMHLD	47	192	6	48
NMSTR	47	288	4
NMSI_	47	288	4	96	96	0
NMSTR	47	288	6
NMSI_	47	288	6	96	96	2
EXTAP	48	192	1
EXTAP	48	192	7
NMTAP	48	288	0
NMTAP	48	336	0
NMSTR	49	0	6
NMSI_	49	0	6	96	48	3
NMTAP	49	0	7
NMTAP	49	192	0
NMSTR	49	192	1
BRSI_	49	192	1	96	48	4
NMSTR	50	0	6
NMSI_	50	0	6	96	48	3
NMTAP	50	0	7
NMTAP	50	192	0
NMTAP	50	192	1
NMTAP	50	288	2
NMTAP	50	288	7
NMTAP	51	0	6
NMTAP	51	48	6
NMTAP	51	96	4
NMTAP	51	192	1
NMTAP	51	240	1
NMTAP	51	288	3
EXTAP	52	0	0
EXTAP	52	0	6
NMTAP	52	96	2
NMTAP	52	96	4
BRTAP	52	192	1
BRTAP	52	192	5
NMTAP	53	0	0
NMTAP	53	0	1
NMTAP	53	96	0
NMTAP	53	96	1
NMTAP	53	192	2
NMTAP	53	192	3
NMTAP	53	288	0
NMTAP	53	288	1
NMTAP	54	0	6
NMTAP	54	0	7
NMTAP	54	96	6
NMTAP	54	96	7
NMTAP	54	192	4
NMTAP	54	192	5
NMTAP	54	288	6
NMTAP	54	288	7
NMTAP	55	0	0
NMTAP	55	48	0
NMTAP	55	96	6
NMTAP	55	144	6
NMTAP	55	192	1
NMTAP	55	240	1
NMTAP	55	288	7
NMTAP	55	336	7
NMTAP	56	0	0
NMTAP	56	0	1
NMTAP	56	48	0
NMTAP	56	48	1
NMTAP	56	96	0
NMTAP	56	96	1
BRTAP	56	192	3
BRTAP	56	192	7
NMTAP	56	288	3
NMTAP	56	288	7
NMHLD	57	0	6	96
NMHLD	57	96	4	96
NMHLD	57	192	2	96
NMHLD	57	288	4	96
NMHLD	58	0	6	96
NMHLD	58	96	0	96
NMHLD	58	192	2	96
NMHLD	58	288	0	96
BRTAP	59	0	7
NMTAP	59	96	4
NMTAP	59	96	6
NMTAP	59	144	4
NMTAP	59	144	6
NMTAP	59	192	4
NMTAP	59	192	6
NMTAP	59	288	2
NMTAP	59	288	3
NMTAP	59	336	2
NMTAP	59	336	3
NMTAP	60	0	2
NMSTR	60	0	3
NMSCL	60	0	3	96	288	4
NMTTP	61	0	3	B	0	M1
NMTTP	61	0	4	B	0	M1
NMTTP	61	0	4	E	1	M1
NMTHO	62	0	0	384	C	0	M1
NMTTP	63	0	0	D	0	M1
NMTTP	63	192	0	E	0	M1
NMTTP	64	0	0	C	0	M1
NMTTP	64	192	4	E	0	M1
NMTHO	65	0	0	192	C	0	M1
NMSTR	66	0	7
NMSCL	66	0	7	96	96	4
NMSTR	66	192	0
BRSCR	66	192	0	96	96	3
NMSTR	67	0	7
NMSI_	67	0	7	96	96	3
NMTAP	67	192	0
NMTAP	67	288	1
NMTAP	67	288	4
NMTAP	68	0	5
NMTAP	68	48	5
NMTAP	68	96	3
NMTAP	68	192	2
NMTAP	68	240	2
NMTAP	68	288	4
NMTAP	69	0	5
NMTAP	69	48	5
NMTAP	69	96	3
NMTAP	69	144	3
NMTAP	69	192	4
NMTAP	69	240	4
NMSTR	69	288	3
NMSI_	69	288	3	96	96	0
NMSTR	69	288	4
NMSI_	69	288	4	96	96	7
BXHLD	71	0	1	144
EXHLD	71	0	6	144
BXSTR	71	192	1
BRSI_	71	192	1	96	48	4
EXSTR	71	192	6
NMSI_	71	192	6	96	48	3
EXTAP	72	0	2
EXTAP	72	0	5
NMTAP	72	96	0
NMTAP	72	96	1
NMTAP	72	192	6
NMTAP	72	192	7
NMSTR	72	288	4
NMSXL	72	288	4	96	120	4
NMSXR	72	288	4	96	120	4
NMTAP	72	288	5
EXTAP	73	192	3
EXTAP	73	192	5
NMTAP	73	288	0
NMTAP	73	288	7
NMSTR	74	0	0
BRSI_	74	0	0	96	48	4
NMSTR	74	0	1
BRSI_	74	0	1	96	48	4
NMSTR	74	192	6
NMSI_	74	192	6	96	48	3
NMSTR	74	192	7
NMSI_	74	192	7	96	48	3
NMSTR	75	0	0
BRSI_	75	0	0	96	48	4
NMSTR	75	0	1
BRSI_	75	0	1	96	48	4
NMTAP	75	192	6
NMTAP	75	192	7
BRTAP	75	288	0
BRTAP	75	288	4
NMTAP	76	0	1
NMTAP	76	48	1
NMTAP	76	96	3
NMTAP	76	144	2
NMTAP	76	192	5
NMTAP	76	240	5
NMTAP	76	288	4
NMTAP	76	336	6
NMSTR	77	0	0
NMSI_	77	0	0	96	48	4
NMSTR	77	0	7
NMSI_	77	0	7	96	48	3
BRTAP	77	192	2
BRTAP	77	192	5
NMSTR	78	0	6
NMSI_	78	0	6	96	96	2
NMSTR	78	192	1
NMSI_	78	192	1	96	96	5
NMHLD	79	0	6	96
NMTAP	79	96	7
NMTAP	79	144	0
NMHLD	79	192	1	96
BRTAP	79	288	0
NMSTR	80	0	7
BRSCL	80	0	7	96	96	4
NMSTR	80	192	3
BRSCL	80	192	3	96	96	0
BXTAP	81	0	7
NMHLD	81	96	0	48
NMHLD	81	96	6	48
NMHLD	81	192	1	48
NMHLD	81	192	7	48
NMTAP	81	288	2
NMTAP	81	288	6
NMSTR	82	0	0
BRSI_	82	0	0	96	48	4
NMTAP	82	0	1
NMTAP	82	192	6
NMSTR	82	192	7
BRSI_	82	192	7	96	48	3
EXSTR	83	0	0
NMSI_	83	0	0	96	48	5
EXTAP	83	0	1
EXTAP	83	192	6
EXSTR	83	192	7
NMSI_	83	192	7	96	48	2
NMTAP	84	0	1
NMTAP	84	48	1
NMTAP	84	96	0
NMTAP	84	96	2
NMTAP	84	192	6
NMTAP	84	240	6
NMTAP	84	288	5
NMTAP	84	288	7
BXHLD	85	0	3	1128
BXSTR	85	0	4
BRSXR	85	0	4	96	480	4
CNSXL	86	192	4	0	552	4

T_REC_TAP	193
T_REC_BRK	26
T_REC_XTP	27
T_REC_BXX	4
T_REC_HLD	53
T_REC_XHO	7
T_REC_BHO	0
T_REC_BXH	2
T_REC_STR	50
T_REC_BST	1
T_REC_XST	3
T_REC_XBS	4
T_REC_TTP	11
T_REC_THO	2
T_REC_SLD	41
T_REC_BSL	19
T_REC_ALL	443
T_NUM_TAP	284
T_NUM_BRK	56
T_NUM_HLD	62
T_NUM_SLD	41
T_NUM_ALL	443
T_JUDGE_TAP	319
T_JUDGE_HLD	182
T_JUDGE_SLD	60
T_JUDGE_ALL	561
TTM_EACHPAIRS	112
TTM_SCR_TAP	142000
TTM_SCR_BRK	145600
TTM_SCR_HLD	62000
TTM_SCR_SLD	61500
TTM_SCR_ALL	411100
TTM_SCR_S	393350
TTM_SCR_SS	405500
TTM_RAT_ACV	10138

