VERSION	0.00.00	1.04.00
FES_MODE	0
BPM_DEF	165.000	165.000	165.000	165.000
MET_DEF	4	4
RESOLUTION	384
CLK_DEF	384
COMPATIBLE_CODE	MA2

BPM	0	0	165.000
MET	0	0	4	4

NMTAP	2	0	2
NMSTR	2	0	5
NMSCR	2	0	5	96	96	0
NMSTR	2	96	0
NMSCR	2	96	0	96	96	3
NMTAP	2	192	3
NMSTR	3	0	1
NMSCL	3	0	1	96	96	6
NMTAP	3	0	4
NMSTR	3	96	6
NMSCL	3	96	6	96	96	3
NMTAP	3	192	3
NMSTR	4	0	5
NMSCL	4	0	5	96	96	3
NMSTR	4	96	3
NMSCL	4	96	3	96	96	1
NMSTR	4	192	1
NMSUR	4	192	1	96	96	5
NMTAP	4	288	0
NMTAP	5	0	0
NMTAP	5	192	2
NMTAP	5	192	4
NMTAP	5	288	1
NMTAP	5	288	5
NMSTR	6	0	0
NMSCR	6	0	0	96	96	3
NMTAP	6	0	6
NMSTR	6	96	3
NMSCR	6	96	3	96	96	6
NMTAP	6	192	6
NMSTR	7	0	6
NMSCL	7	0	6	96	96	3
NMTAP	7	0	7
NMSTR	7	96	3
NMSCL	7	96	3	96	96	0
NMTAP	7	192	0
NMSTR	8	0	1
NMSI_	8	0	1	96	96	5
NMTAP	8	96	5
NMSTR	8	192	6
NMSI_	8	192	6	96	96	2
NMSTR	8	288	3
NMSXR	8	288	3	96	240	7
EXTAP	9	336	0
EXTAP	9	336	6
EXHLD	10	0	0	288
EXTAP	10	0	6
NMTTP	10	192	4	B	0	M1
NMTTP	10	288	3	E	0	M1
NMHLD	11	0	7	288
NMTTP	11	192	3	B	0	M1
NMTTP	11	288	5	E	0	M1
NMTTP	12	0	1	B	0	M1
NMTTP	12	8	0	C	0	M1
NMTTP	12	16	6	B	0	M1
NMTTP	12	192	3	A	0	M1
NMTTP	12	200	4	E	0	M1
NMTTP	12	208	4	A	0	M1
EXHLD	13	0	2	192
EXHLD	13	8	5	184
NMSTR	14	0	1
NMSCL	14	0	1	96	96	6
NMTAP	14	0	5
NMTAP	14	96	4
NMTAP	14	192	3
NMTAP	14	288	0
NMTAP	14	288	4
NMTAP	15	0	2
NMSTR	15	0	6
NMSCR	15	0	6	96	96	1
NMTAP	15	96	3
NMTAP	15	192	4
NMTAP	15	288	3
NMTAP	15	288	7
NMSTR	16	0	6
NMSI_	16	0	6	96	48	3
EXTAP	16	96	7
NMSTR	16	192	1
NMSI_	16	192	1	96	48	4
NMSTR	16	288	0
NMSCL	16	288	0	96	96	5
NMTAP	17	192	4
NMTAP	17	288	5
NMTAP	18	0	4
NMSTR	18	0	5
NMSCL	18	0	5	96	48	2
NMTAP	18	96	1
NMTAP	18	192	7
NMTAP	18	288	0
NMTAP	18	288	4
NMSTR	19	0	2
NMSCR	19	0	2	96	48	5
NMTAP	19	0	3
NMTAP	19	96	6
NMTAP	19	192	0
NMTAP	19	288	3
NMTAP	19	288	7
NMSTR	20	0	2
NMSI_	20	0	2	96	48	5
EXTAP	20	96	4
NMSTR	20	192	6
NMSI_	20	192	6	96	48	1
EXSTR	20	288	3
NMSXL	20	288	3	96	192	6
NMSXR	20	288	3	96	192	0
NMTAP	21	288	1
NMTAP	21	288	5
NMTAP	22	0	2
NMTAP	22	0	4
NMSTR	22	96	3
NMSI_	22	96	3	96	48	1
NMSTR	22	96	5
NMSI_	22	96	5	96	48	7
EXTAP	22	192	3
EXTAP	22	192	5
NMTAP	22	336	1
NMTAP	23	0	1
NMTAP	23	96	0
NMTAP	23	96	7
NMTAP	23	144	6
NMTAP	23	192	5
NMTAP	23	288	4
NMTAP	23	288	6
NMSTR	24	0	3
NMSCR	24	0	3	96	48	6
NMTAP	24	0	5
NMTAP	24	48	2
NMTAP	24	96	1
NMSTR	24	192	2
NMSUR	24	192	2	96	48	7
NMTAP	24	240	1
NMTAP	24	288	0
EXTAP	25	0	6
EXTAP	25	0	7
NMTAP	25	96	4
NMTAP	25	96	5
NMTAP	25	192	5
NMTAP	25	240	4
NMTAP	25	288	3
NMTAP	26	0	2
NMTAP	26	0	5
NMTAP	26	96	1
NMSTR	26	96	3
NMSI_	26	96	3	96	48	7
NMTAP	26	144	0
NMTAP	26	192	7
NMTAP	26	288	1
NMTAP	26	336	2
NMTAP	27	0	3
NMTAP	27	0	6
NMSTR	27	96	4
NMSI_	27	96	4	96	48	0
NMTAP	27	96	6
NMTAP	27	144	7
NMTAP	27	192	0
NMTAP	27	288	6
NMTAP	27	336	5
NMTAP	28	0	1
NMTAP	28	0	4
NMTAP	28	96	3
NMTAP	28	96	5
NMTAP	28	192	6
NMSTR	28	192	7
NMSI_	28	192	7	96	48	3
NMSTR	28	288	1
NMSI_	28	288	1	96	48	5
EXTAP	28	288	7
EXTAP	29	0	1
NMTAP	29	192	2
NMTAP	29	192	6
NMSTR	30	0	4
NMSXL	30	0	4	96	192	4
NMSXR	30	0	4	96	192	4
NMSTR	31	0	2
NMSXL	31	0	2	96	192	2
NMSXR	31	0	2	96	192	2
NMSTR	32	0	7
NMSXL	32	0	7	96	192	7
NMSXR	32	0	7	96	192	7
NMTTP	33	0	0	A	0	M1
NMTTP	33	0	7	A	0	M1
NMTTP	33	96	1	B	0	M1
NMTTP	33	96	6	B	0	M1
NMTTP	33	192	3	E	0	M1
NMTTP	33	192	5	E	0	M1
NMTTP	33	288	3	A	0	M1
NMTTP	33	288	4	A	0	M1
NMTTP	33	288	4	D	0	M1
EXTAP	34	0	1
EXTAP	34	0	4
EXHLD	34	72	0	216
EXSTR	34	72	3
NMSUL	34	72	3	96	120	6
EXTAP	35	0	3
EXTAP	35	0	6
EXSTR	35	72	4
NMSUR	35	72	4	96	120	1
EXHLD	35	72	7	216
EXTAP	36	0	1
EXTAP	36	0	4
EXHLD	36	72	0	216
EXSTR	36	72	3
NMSLL	36	72	3	96	120	6
EXTAP	37	0	6
EXTAP	37	0	7
EXTAP	37	72	4
EXTAP	37	72	6
EXTAP	37	144	3
EXTAP	37	144	4
EXTAP	37	216	1
EXTAP	37	216	3
EXTAP	37	288	1
EXTAP	37	288	3
BRTAP	38	0	0
BRTAP	38	0	4
NMTAP	38	96	6
NMTAP	38	96	7
NMTAP	38	144	0
NMTAP	38	192	1
NMSTR	38	192	5
NMSCR	38	192	5	96	48	1
NMTAP	38	288	3
EXTAP	38	288	5
NMTAP	39	0	2
NMTAP	39	96	0
NMTAP	39	96	1
NMTAP	39	144	7
NMSTR	39	192	2
NMSCL	39	192	2	96	48	6
NMTAP	39	192	6
EXTAP	39	288	2
NMTAP	39	288	4
NMTAP	40	0	5
NMTAP	40	96	3
NMTAP	40	96	4
NMTAP	40	144	2
NMTAP	40	192	1
NMTAP	40	240	0
NMTAP	40	288	6
NMTAP	40	288	7
NMTAP	41	0	6
NMTAP	41	0	7
NMTAP	41	96	0
NMTAP	41	144	1
NMTAP	41	192	2
NMTAP	41	192	3
NMTAP	41	288	1
NMTAP	41	288	4
NMHLD	42	0	6	16
NMHLD	42	0	7	32
NMHLD	42	64	2	16
NMHLD	42	64	4	32
NMHLD	42	128	0	32
NMHLD	42	128	1	16
NMHLD	42	192	3	32
NMHLD	42	192	5	16
NMHLD	42	256	6	16
NMHLD	42	256	7	32
EXTAP	42	320	0
EXTAP	42	320	1
NMHLD	43	0	0	32
NMHLD	43	0	1	16
NMHLD	43	64	3	32
NMHLD	43	64	5	16
NMHLD	43	128	6	16
NMHLD	43	128	7	32
NMHLD	43	192	2	16
NMHLD	43	192	4	32
NMHLD	43	256	0	32
NMHLD	43	256	1	16
EXTAP	43	320	6
EXTAP	43	320	7
NMSTR	44	0	0
NMSI_	44	0	0	96	48	2
NMSTR	44	0	6
NMSI_	44	0	6	96	48	2
EXTAP	44	96	0
EXTAP	44	96	6
NMSTR	44	192	1
NMSI_	44	192	1	96	48	5
NMSTR	44	192	7
NMSI_	44	192	7	96	48	5
EXTAP	44	288	1
EXTAP	44	288	7
EXTAP	45	0	0
EXTAP	45	0	6
EXTAP	45	72	2
EXTAP	45	72	3
EXSTR	45	144	4
NMSI_	45	144	4	96	48	0
EXSTR	45	144	5
NMSI_	45	144	5	96	48	1
BRTAP	45	240	4
BRTAP	45	240	5
BRTAP	46	0	2
BRTAP	46	0	3
NMTAP	46	96	1
NMTAP	46	96	7
NMTAP	46	144	6
NMSTR	46	192	0
NMSCL	46	192	0	96	48	5
NMTAP	46	192	5
EXTAP	46	288	0
NMTAP	46	288	4
EXTAP	47	0	5
NMTAP	47	96	0
NMTAP	47	96	6
NMTAP	47	144	1
NMTAP	47	192	2
NMSTR	47	192	7
NMSCR	47	192	7	96	48	2
NMTAP	47	288	3
EXTAP	47	288	7
EXTAP	48	0	2
NMTAP	48	96	3
NMTAP	48	96	4
NMTAP	48	144	5
NMTAP	48	192	6
NMTAP	48	240	7
NMTAP	48	288	0
NMTAP	49	0	2
NMTAP	49	0	3
NMSTR	49	96	1
NMSI_	49	96	1	96	48	5
EXTAP	49	192	5
NMTAP	49	288	4
NMTAP	49	288	6
NMHLD	50	0	0	32
NMHLD	50	0	1	16
NMHLD	50	64	3	32
NMHLD	50	64	5	16
NMHLD	50	128	6	16
NMHLD	50	128	7	32
NMHLD	50	192	2	16
NMHLD	50	192	4	32
NMHLD	50	256	0	32
NMHLD	50	256	1	16
EXTAP	50	320	6
EXTAP	50	320	7
NMHLD	51	0	6	16
NMHLD	51	0	7	32
NMHLD	51	64	2	16
NMHLD	51	64	4	32
NMHLD	51	128	0	32
NMHLD	51	128	1	16
NMHLD	51	192	3	32
NMHLD	51	192	5	16
NMHLD	51	256	6	16
NMHLD	51	256	7	32
EXTAP	51	320	0
EXTAP	51	320	1
NMSTR	52	0	2
NMSI_	52	0	2	96	48	0
NMSTR	52	0	3
NMSI_	52	0	3	96	48	7
BXTAP	52	96	2
BXTAP	52	96	3
NMTAP	52	192	1
NMTAP	52	192	5
NMSTR	52	288	3
NMSCR	52	288	3	96	192	2
NMTAP	52	288	4
BRTAP	53	0	7
EXTAP	53	336	2
EXTAP	53	336	6
EXTAP	54	0	2
EXTAP	54	0	6
EXHLD	54	64	7	64
EXTAP	54	128	1
EXTAP	54	192	1
EXTAP	54	204	0
NMTAP	54	288	2
NMTAP	54	288	6
NMTAP	55	0	1
NMTAP	55	0	7
NMTAP	55	72	0
NMTAP	55	72	6
NMTAP	55	144	5
NMTAP	55	144	7
NMTAP	55	192	5
NMTAP	55	192	7
NMTAP	55	288	0
NMTAP	55	288	6
NMHLD	56	0	1	96
NMTAP	56	0	5
NMTAP	56	48	3
NMTAP	56	96	3
NMTAP	56	192	2
NMHLD	56	192	6	96
NMTAP	56	240	4
NMSTR	56	288	4
NMSCL	56	288	4	96	96	0
NMTAP	57	0	7
NMTAP	57	96	5
NMTAP	57	144	5
NMTAP	57	240	2
NMTAP	57	240	4
NMTAP	57	288	2
NMTAP	57	288	4
EXHLD	58	0	0	16
EXHLD	58	0	1	32
EXHLD	58	64	0	16
EXHLD	58	64	1	32
EXTAP	58	128	0
EXTAP	58	128	1
NMTAP	58	192	2
NMTAP	58	192	7
NMTAP	58	256	3
NMTAP	58	256	6
NMTAP	58	320	4
NMTAP	58	320	5
EXHLD	59	0	6	32
EXHLD	59	0	7	16
EXHLD	59	64	6	32
EXHLD	59	64	7	16
EXTAP	59	128	6
EXTAP	59	128	7
NMTAP	59	192	0
NMTAP	59	192	5
NMTAP	59	256	1
NMTAP	59	256	4
NMTAP	59	320	2
NMTAP	59	320	3
BRTAP	60	0	0
BRTAP	60	0	1
NMTAP	60	64	5
NMTAP	60	96	4
NMTAP	60	128	6
BRTAP	60	192	6
BRTAP	60	192	7
NMTAP	60	256	2
NMTAP	60	288	3
NMTAP	60	320	1
BRSTR	61	0	0
BRSI_	61	0	0	96	48	3
BRSTR	61	0	7
BRSI_	61	0	7	96	48	4
NMTAP	61	192	1
NMTAP	61	192	6
NMSTR	62	0	4
NMSXR	62	0	4	96	48	2
CNSXR	62	144	2	0	48	0
CNSXR	62	192	0	0	48	6
CNSXR	62	240	6	0	1104	4
NMHLD	66	0	1	96
NMHLD	66	0	4	96
NMTAP	66	192	2
NMTAP	66	192	3
NMTAP	66	288	2
NMTAP	66	288	3
NMHLD	67	0	3	96
NMHLD	67	0	6	96
NMTAP	67	192	4
NMTAP	67	192	5
NMTAP	67	288	4
NMTAP	67	288	5
NMHLD	68	0	2	48
NMHLD	68	0	5	48
NMHLD	68	192	3	48
NMHLD	68	192	4	48
NMTAP	69	0	0
NMTAP	69	0	7
NMTAP	69	96	1
NMTAP	69	96	6
NMTAP	69	144	1
NMTAP	69	144	6
NMTAP	69	192	2
NMTAP	69	192	5
NMSTR	69	288	4
NMSI_	69	288	4	96	48	7
BRTAP	69	336	0
BRTAP	70	0	0
NMTAP	70	192	1
NMTAP	70	216	0
NMTAP	70	240	1
NMTAP	70	264	0
EXTAP	70	288	2
EXTAP	70	288	7
BRTAP	71	0	3
BRTAP	71	0	5
NMSTR	71	96	2
NMSI_	71	96	2	96	48	7
NMSTR	71	144	7
NMSI_	71	144	7	96	48	3
NMSTR	71	192	5
NMSCR	71	192	5	96	48	1
EXTAP	71	288	5
NMTAP	72	0	3
NMSTR	72	96	6
NMSI_	72	96	6	96	48	3
NMSTR	72	144	3
NMSI_	72	144	3	96	48	7
NMSTR	72	192	1
NMSCR	72	192	1	96	48	5
EXTAP	72	288	1
NMTAP	73	0	7
NMSTR	73	96	7
NMSCL	73	96	7	96	48	4
NMSTR	73	144	4
NMSI_	73	144	4	96	48	0
NMSTR	73	192	0
NMSCR	73	192	0	96	48	3
NMTAP	73	288	3
NMTAP	74	0	1
NMTAP	74	96	1
NMSTR	74	96	3
NMSI_	74	96	3	96	48	7
EXTAP	74	192	3
NMTAP	74	192	4
NMTAP	74	288	1
NMTAP	74	288	5
NMTAP	75	0	2
NMTAP	75	0	4
NMTAP	75	64	1
NMTAP	75	96	3
NMTAP	75	128	0
NMHLD	75	192	5	16
NMHLD	75	192	7	32
NMHLD	75	256	3	32
NMHLD	75	256	4	16
NMHLD	75	320	0	16
NMHLD	75	320	2	32
NMTAP	76	0	5
NMTAP	76	0	7
NMTAP	76	64	6
NMTAP	76	96	4
NMTAP	76	128	7
NMHLD	76	192	0	32
NMHLD	76	192	2	16
NMHLD	76	256	3	16
NMHLD	76	256	4	32
NMHLD	76	320	5	32
NMHLD	76	320	7	16
NMSTR	77	0	7
NMSI_	77	0	7	96	48	2
NMSI_	77	0	7	96	48	4
EXTAP	77	96	7
NMSTR	77	192	0
NMSI_	77	192	0	96	48	3
NMSI_	77	192	0	96	48	5
EXTAP	77	288	0
NMTAP	78	0	2
NMTAP	78	0	6
NMTAP	78	72	0
NMTAP	78	72	4
NMSTR	78	144	1
BRSI_	78	144	1	96	48	4
NMSTR	78	144	5
BRSI_	78	144	5	96	48	0
BXTAP	78	240	1
BXTAP	78	240	5
NMTAP	79	0	2
NMTAP	79	0	6
NMSTR	79	96	1
NMSI_	79	96	1	96	48	5
NMSTR	79	144	5
NMSI_	79	144	5	96	48	3
NMSTR	79	192	7
NMSCR	79	192	7	96	48	3
EXTAP	79	288	7
EXTAP	80	0	1
NMSTR	80	96	6
NMSI_	80	96	6	96	48	2
NMSTR	80	144	2
NMSI_	80	144	2	96	48	4
NMSTR	80	192	0
NMSCL	80	192	0	96	48	4
EXTAP	80	288	0
EXTAP	81	0	6
NMSTR	81	96	7
NMSCL	81	96	7	96	48	4
NMSTR	81	144	4
NMSCL	81	144	4	96	48	1
NMSTR	81	192	1
NMSCL	81	192	1	96	48	6
NMTTP	81	288	4	E	0	M1
NMTAP	82	0	2
NMSTR	82	96	3
NMSI_	82	96	3	96	48	7
NMTAP	82	96	4
EXTAP	82	192	3
NMTAP	82	192	6
NMTAP	83	0	3
NMTAP	83	0	5
NMTAP	83	64	6
NMTAP	83	96	4
NMTAP	83	128	7
NMHLD	83	192	0	32
NMHLD	83	192	2	16
NMHLD	83	256	3	16
NMHLD	83	256	4	32
NMHLD	83	320	5	32
NMHLD	83	320	7	16
NMTAP	84	0	0
NMTAP	84	0	2
NMTAP	84	64	1
NMTAP	84	96	3
NMTAP	84	128	0
NMHLD	84	192	5	16
NMHLD	84	192	7	32
NMHLD	84	256	3	32
NMHLD	84	256	4	16
NMHLD	84	320	0	16
NMHLD	84	320	2	32
NMSTR	85	0	6
NMSCL	85	0	6	96	48	4
NMSTR	85	0	7
NMSUL	85	0	7	96	48	3
BXTAP	85	96	6
BXTAP	85	96	7
NMSTR	85	192	0
NMSUR	85	192	0	96	48	4
NMSTR	85	192	1
NMSCR	85	192	1	96	48	3
BXSTR	85	288	0
BRSCL	85	288	0	96	192	1
BXTAP	85	288	1
NMTTP	87	0	7	D	0	M1
NMTTP	87	64	6	D	0	M1
NMTTP	87	128	5	D	0	M1
NMTTP	87	192	3	A	0	M1
NMTTP	87	192	3	D	0	M1
NMTTP	87	192	4	D	0	M1
NMTTP	88	0	1	D	0	M1
NMTTP	88	64	2	D	0	M1
NMTTP	88	128	3	D	0	M1
NMTTP	88	192	4	A	0	M1
NMTTP	88	192	4	D	0	M1
NMTTP	88	192	5	D	0	M1
NMTTP	88	256	3	B	0	M1
NMTTP	88	256	5	B	0	M1
NMTTP	88	320	2	E	0	M1
NMTTP	88	320	7	E	0	M1
NMTAP	89	0	1
NMTAP	89	0	7
NMTAP	89	96	2
NMTAP	89	96	6
NMTAP	89	192	3
NMTAP	89	192	4
NMSTR	89	288	3
NMSXR	89	288	3	96	48	1
NMSTR	89	288	4
NMSXL	89	288	4	96	48	6

T_REC_TAP	237
T_REC_BRK	15
T_REC_XTP	73
T_REC_BXX	7
T_REC_HLD	75
T_REC_XHO	15
T_REC_BHO	0
T_REC_BXH	0
T_REC_STR	79
T_REC_BST	2
T_REC_XST	6
T_REC_XBS	1
T_REC_TTP	36
T_REC_THO	0
T_REC_SLD	89
T_REC_BSL	5
T_REC_ALL	640
T_NUM_TAP	431
T_NUM_BRK	30
T_NUM_HLD	90
T_NUM_SLD	89
T_NUM_ALL	640
T_JUDGE_TAP	456
T_JUDGE_HLD	125
T_JUDGE_SLD	94
T_JUDGE_ALL	675
TTM_EACHPAIRS	179
TTM_SCR_TAP	215500
TTM_SCR_BRK	78000
TTM_SCR_HLD	90000
TTM_SCR_SLD	133500
TTM_SCR_ALL	517000
TTM_SCR_S	498600
TTM_SCR_SS	514000
TTM_RAT_ACV	10058

