VERSION	0.00.00	1.04.00
FES_MODE	0
BPM_DEF	165.000	165.000	165.000	165.000
MET_DEF	4	4
RESOLUTION	384
CLK_DEF	384
COMPATIBLE_CODE	MA2

BPM	0	0	165.000
MET	0	0	4	4

NMSTR	2	0	0
NMSCR	2	0	0	96	192	4
NMSTR	3	0	7
NMSLL	3	0	7	96	192	3
NMHLD	4	0	1	192
NMHLD	4	192	3	192
NMHLD	5	0	4	192
NMTAP	5	192	6
NMSTR	6	0	7
NMSUL	6	0	7	96	144	3
NMSTR	7	0	1
NMSCR	7	0	1	96	192	5
NMHLD	8	0	6	192
NMHLD	8	192	4	192
NMHLD	9	0	3	192
NMHLD	9	192	1	192
NMTTP	10	0	4	E	0	M1
NMTTP	10	96	3	E	0	M1
NMTTP	10	192	2	E	0	M1
NMTTP	10	288	1	E	0	M1
NMTTP	11	0	0	E	0	M1
NMTTP	11	96	7	E	0	M1
NMTTP	11	192	6	E	0	M1
NMTTP	11	288	5	E	0	M1
NMTHO	12	0	0	384	C	0	M1
NMTAP	14	0	6
NMHLD	14	96	6	192
NMTAP	14	192	7
NMTAP	14	288	7
NMTAP	15	0	1
NMHLD	15	96	1	192
NMTAP	15	192	0
NMTAP	15	288	0
NMTAP	16	0	7
NMTAP	16	96	5
NMTAP	16	192	1
NMSTR	16	288	3
NMSI_	16	288	3	96	96	0
NMSI_	16	288	3	96	96	6
NMTAP	17	192	7
NMTAP	17	288	0
NMTAP	17	288	6
NMTAP	18	0	1
NMHLD	18	96	1	192
NMTAP	18	192	0
NMTAP	18	288	0
NMTAP	19	0	6
NMHLD	19	96	6	192
NMTAP	19	192	7
NMTAP	19	288	7
NMTAP	20	0	0
NMTAP	20	96	2
NMTAP	20	192	4
NMSTR	20	288	6
NMSCL	20	288	6	96	192	0
NMHLD	22	0	0	96
NMHLD	22	0	6	96
NMTAP	22	192	1
NMTAP	22	192	5
NMTAP	22	288	1
NMTAP	22	288	5
NMTAP	23	0	2
NMTAP	23	96	2
NMTAP	23	96	3
NMTAP	23	192	5
NMTAP	23	288	4
NMTAP	23	288	5
NMTAP	24	0	6
NMTAP	24	96	0
NMTAP	24	192	2
NMTAP	24	288	4
NMTAP	25	0	1
NMTAP	25	0	5
NMTAP	25	96	6
NMTAP	25	144	6
NMTAP	25	192	4
NMTAP	25	288	3
NMTAP	25	288	5
NMTAP	26	0	1
NMTAP	26	0	7
NMTAP	26	96	1
NMTAP	26	96	7
NMTAP	26	192	2
NMTAP	26	192	6
NMTAP	26	288	2
NMTAP	26	288	6
NMTAP	27	0	5
NMTAP	27	96	4
NMTAP	27	96	5
NMTAP	27	192	2
NMTAP	27	288	2
NMTAP	27	288	3
NMTAP	28	0	1
NMTAP	28	96	7
NMTAP	28	192	5
NMTAP	28	288	3
NMHLD	29	0	2	96
NMHLD	29	0	6	96
BRSTR	29	192	7
NMSI_	29	192	7	96	96	3
NMHLD	30	0	2	384
NMHLD	31	0	0	384
NMHLD	32	0	7	384
NMTAP	33	0	5
NMTAP	33	192	4
NMTAP	34	0	5
NMTAP	34	96	5
NMHLD	34	192	5	192
NMTAP	35	0	7
NMTAP	35	96	7
NMHLD	35	192	7	192
NMTAP	36	0	0
NMTAP	36	96	0
NMHLD	36	192	0	192
NMTAP	37	0	2
NMTAP	37	192	3
NMTAP	37	288	3
BRTAP	38	0	2
BRTAP	38	0	4
NMTAP	38	96	1
NMTAP	38	192	7
NMTAP	38	288	0
NMTAP	38	288	6
NMTAP	39	0	3
NMTAP	39	0	5
NMTAP	39	96	6
NMTAP	39	192	0
NMTAP	39	288	1
NMTAP	39	288	7
NMTAP	40	0	2
NMTAP	40	0	4
NMTAP	40	96	1
NMTAP	40	192	7
NMTAP	40	288	0
NMTAP	40	288	6
NMTAP	41	0	3
NMTAP	41	0	5
NMTAP	41	96	3
NMTAP	41	96	5
NMTAP	41	192	2
NMTAP	41	192	6
NMTAP	42	0	1
NMHLD	42	64	1	128
NMTAP	42	192	3
NMHLD	42	256	3	128
NMTAP	43	0	5
NMHLD	43	64	5	128
NMTAP	43	192	7
NMHLD	43	256	7	128
NMTAP	44	0	1
NMTAP	44	96	2
NMTAP	44	96	3
NMTAP	44	192	6
NMSTR	44	288	4
NMSUR	44	288	4	96	192	3
NMSTR	44	288	5
NMSCR	44	288	5	96	192	2
BRTAP	46	0	3
BRTAP	46	0	5
NMTAP	46	96	6
NMTAP	46	192	0
NMTAP	46	288	1
NMTAP	46	288	7
NMTAP	47	0	2
NMTAP	47	0	4
NMTAP	47	96	1
NMTAP	47	192	7
NMTAP	47	288	0
NMTAP	47	288	6
NMTAP	48	0	3
NMTAP	48	0	5
NMTAP	48	96	6
NMTAP	48	192	0
NMTAP	48	288	1
NMTAP	48	288	7
NMTAP	49	0	2
NMTAP	49	0	4
NMTAP	49	96	2
NMTAP	49	96	4
NMTAP	49	192	1
NMTAP	49	192	5
NMTAP	50	0	6
NMHLD	50	64	6	128
NMTAP	50	192	4
NMHLD	50	256	4	128
NMTAP	51	0	2
NMHLD	51	64	2	128
NMTAP	51	192	0
NMHLD	51	256	0	128
NMTAP	52	0	6
NMTAP	52	96	6
NMTAP	52	96	7
NMTAP	52	192	1
NMSTR	52	288	0
NMSUR	52	288	0	96	192	7
NMSTR	52	288	1
NMSCR	52	288	1	96	192	6
BRTAP	54	0	0
BRTAP	54	0	5
NMTAP	54	96	3
NMTAP	54	192	2
NMTAP	54	192	7
NMTAP	54	288	4
NMTAP	55	0	3
NMTAP	55	0	5
NMTAP	55	96	3
NMTAP	55	96	5
NMTAP	55	192	2
NMTAP	55	192	4
NMTAP	55	288	2
NMTAP	55	288	4
NMTAP	56	0	4
NMTAP	56	0	5
NMTAP	56	96	6
NMTAP	56	96	7
NMTAP	56	192	0
NMTAP	56	192	1
NMTAP	56	288	2
NMTAP	56	288	3
NMHLD	57	0	1	96
NMHLD	57	0	4	96
NMHLD	57	144	2	96
NMHLD	57	144	5	96
NMTAP	57	288	3
NMTAP	57	288	6
NMTAP	58	0	4
NMTAP	58	0	6
NMTAP	58	64	4
NMTAP	58	64	6
NMTAP	58	192	1
NMTAP	58	192	3
NMTAP	58	256	1
NMTAP	58	256	3
NMTAP	59	0	5
NMTAP	59	0	7
NMTAP	59	64	5
NMTAP	59	64	7
NMTAP	59	192	0
NMTAP	59	192	2
NMTAP	59	256	0
NMTAP	59	256	2
NMTAP	60	0	1
NMTAP	60	0	7
NMTAP	60	64	1
NMTAP	60	64	7
NMTAP	60	128	1
NMTAP	60	128	7
NMTAP	60	192	2
NMTAP	60	192	6
NMTAP	60	256	2
NMTAP	60	256	6
NMTAP	60	320	2
NMTAP	60	320	6
NMTAP	61	0	1
NMTAP	61	0	5
NMTAP	61	64	1
NMTAP	61	64	5
NMTAP	61	128	1
NMTAP	61	128	5
NMTAP	61	192	0
NMTAP	61	192	6
NMTAP	61	256	0
NMTAP	61	256	6
NMTAP	61	320	0
NMTAP	61	320	6
NMSTR	62	0	7
NMSCR	62	0	7	96	192	3
NMSTR	63	0	0
NMSLL	63	0	0	96	192	4
NMHLD	64	0	5	192
NMHLD	64	192	7	192
NMHLD	65	0	0	192
NMTAP	65	192	2
NMSTR	66	0	0
NMSUR	66	0	0	96	144	4
NMSTR	67	0	6
NMSCL	67	0	6	96	192	2
NMTAP	68	0	1
NMTAP	68	0	3
NMTAP	68	192	4
NMTAP	68	192	6
NMTAP	69	0	2
NMTAP	69	0	5
EXTAP	69	96	3
EXTAP	69	96	4
EXTAP	69	144	3
EXTAP	69	144	4
EXTAP	69	192	3
EXTAP	69	192	4
EXTAP	69	240	3
EXTAP	69	240	4
EXTAP	69	288	3
EXTAP	69	288	4
EXTAP	69	336	3
EXTAP	69	336	4
EXSTR	70	0	3
BRSCL	70	0	3	96	144	0
EXSTR	70	0	4
BRSCR	70	0	4	96	144	7
EXTAP	71	0	1
EXTAP	71	0	7
NMTAP	71	96	6
NMTAP	71	144	6
NMTAP	71	192	4
NMTAP	71	288	2
NMTAP	71	288	4
NMTAP	72	0	0
NMTAP	72	0	6
NMTAP	72	96	1
NMTAP	72	144	1
NMTAP	72	192	3
NMTAP	72	288	3
NMTAP	72	288	5
NMTAP	73	0	1
NMTAP	73	0	7
NMTAP	73	96	6
NMTAP	73	144	6
NMTAP	73	192	4
NMTAP	73	288	2
NMTAP	73	288	4
NMTAP	74	0	0
NMTAP	74	0	6
NMTAP	74	96	0
NMTAP	74	96	6
NMTAP	74	192	1
NMTAP	74	192	5
NMTAP	75	0	2
NMHLD	75	64	2	128
NMTAP	75	192	0
NMHLD	75	256	0	128
NMTAP	76	0	6
NMHLD	76	64	6	128
NMTAP	76	192	4
NMHLD	76	256	4	128
NMTAP	77	0	2
NMTAP	77	96	0
NMTAP	77	96	1
NMTAP	77	192	5
NMSTR	77	288	6
NMSUR	77	288	6	96	192	5
NMSTR	77	288	7
NMSCR	77	288	7	96	192	4
BRTAP	79	0	0
BRTAP	79	0	6
NMTAP	79	96	1
NMTAP	79	144	1
NMTAP	79	192	3
NMTAP	79	288	3
NMTAP	79	288	5
NMTAP	80	0	1
NMTAP	80	0	7
NMTAP	80	96	6
NMTAP	80	144	6
NMTAP	80	192	4
NMTAP	80	288	2
NMTAP	80	288	4
NMTAP	81	0	0
NMTAP	81	0	6
NMTAP	81	96	1
NMTAP	81	144	1
NMTAP	81	192	3
NMTAP	81	288	3
NMTAP	81	288	5
NMTAP	82	0	1
NMTAP	82	0	7
NMTAP	82	96	1
NMTAP	82	96	7
NMTAP	82	192	2
NMTAP	82	192	6
NMTAP	83	0	5
NMHLD	83	64	5	128
NMTAP	83	192	7
NMHLD	83	256	7	128
NMTAP	84	0	1
NMHLD	84	64	1	128
NMTAP	84	192	3
NMHLD	84	256	3	128
NMTAP	85	0	5
NMTAP	85	96	4
NMTAP	85	96	5
NMTAP	85	192	2
NMSTR	85	288	2
NMSUR	85	288	2	96	192	1
NMSTR	85	288	3
NMSCR	85	288	3	96	192	0
NMTTP	87	0	2	E	0	M1
NMTTP	87	192	1	E	0	M1
NMTTP	88	0	0	E	0	M1
NMTTP	88	192	7	E	0	M1
NMTTP	89	0	6	E	0	M1
NMTAP	89	192	3
NMTAP	89	192	4
NMSTR	89	288	3
NMSXR	89	288	3	96	144	1
NMSTR	89	288	4
NMSXL	89	288	4	96	144	6

T_REC_TAP	269
T_REC_BRK	8
T_REC_XTP	14
T_REC_BXX	0
T_REC_HLD	44
T_REC_XHO	0
T_REC_BHO	0
T_REC_BXH	0
T_REC_STR	20
T_REC_BST	1
T_REC_XST	2
T_REC_XBS	0
T_REC_TTP	13
T_REC_THO	1
T_REC_SLD	22
T_REC_BSL	2
T_REC_ALL	396
T_NUM_TAP	318
T_NUM_BRK	11
T_NUM_HLD	45
T_NUM_SLD	22
T_NUM_ALL	396
T_JUDGE_TAP	327
T_JUDGE_HLD	164
T_JUDGE_SLD	24
T_JUDGE_ALL	515
TTM_EACHPAIRS	104
TTM_SCR_TAP	159000
TTM_SCR_BRK	28600
TTM_SCR_HLD	45000
TTM_SCR_SLD	33000
TTM_SCR_ALL	265600
TTM_SCR_S	256600
TTM_SCR_SS	264500
TTM_RAT_ACV	10041

