VERSION	0.00.00	1.04.00
FES_MODE	0
BPM_DEF	185.000	185.000	185.000	185.000
MET_DEF	4	4
RESOLUTION	384
CLK_DEF	384
COMPATIBLE_CODE	MA2

BPM	0	0	185.000
MET	0	0	4	4

NMSTR	1	0	6
NMSI_	1	0	6	96	48	4
NMSTR	1	96	0
NMSI_	1	96	0	96	48	2
NMSTR	1	192	7
NMSI_	1	192	7	96	48	3
NMTAP	1	288	0
NMSTR	2	0	1
NMSI_	2	0	1	96	48	3
NMSTR	2	96	7
NMSI_	2	96	7	96	48	5
NMSTR	2	192	0
NMSI_	2	192	0	96	48	4
NMTAP	2	288	7
NMHLD	3	0	7	72
NMHLD	3	72	5	72
NMTAP	3	144	4
NMTAP	3	192	4
NMTAP	3	288	3
NMTAP	3	288	6
NMTAP	4	0	0
NMTAP	4	96	2
NMTAP	4	96	4
NMTAP	4	192	7
NMTAP	4	288	3
NMTAP	4	288	5
NMHLD	5	0	0	72
NMHLD	5	72	2	72
NMTAP	5	144	3
NMTAP	5	192	3
NMTAP	5	288	1
NMTAP	5	288	4
NMSTR	6	0	5
NMSXL	6	0	5	96	144	3
NMHLD	7	0	0	72
NMHLD	7	72	2	72
NMTAP	7	144	3
NMTAP	7	192	3
NMTAP	7	288	1
NMTAP	7	288	4
NMTAP	8	0	7
NMTAP	8	96	3
NMTAP	8	96	5
NMTAP	8	192	0
NMTAP	8	288	2
NMTAP	8	288	4
NMTAP	9	0	5
NMTAP	9	48	5
NMTAP	9	96	1
NMTAP	9	144	1
NMTAP	9	192	7
NMTAP	9	240	7
NMTAP	9	288	3
NMHLD	9	336	3	96
NMTAP	10	48	0
NMSTR	10	96	0
NMSF_	10	96	0	96	96	4
NMHLD	11	0	7	96
NMTAP	11	96	4
NMTAP	11	144	4
NMTAP	11	192	6
NMTAP	11	240	6
NMTAP	11	288	2
NMHLD	11	336	2	96
NMTAP	12	48	0
NMTAP	12	96	0
NMTAP	12	144	3
NMTAP	12	192	3
NMTAP	12	288	1
NMTAP	12	288	4
NMHLD	12	336	1	96
NMTAP	12	336	4
NMHLD	13	48	3	96
NMHLD	13	144	4	96
NMTAP	13	240	6
NMTAP	13	288	6
NMSTR	14	0	6
NMSI_	14	0	6	96	48	3
NMSTR	14	0	7
NMSI_	14	0	7	96	48	3
NMTAP	14	192	2
NMTAP	14	192	4
NMTAP	14	288	2
NMTAP	14	288	4
NMHLD	15	0	0	96
NMTAP	15	96	3
NMTAP	15	144	3
NMTAP	15	192	1
NMTAP	15	240	1
NMTAP	15	288	5
NMHLD	15	336	5	96
NMTAP	16	48	7
NMTAP	16	96	7
NMTAP	16	144	4
NMTAP	16	192	4
NMTAP	16	288	3
NMTAP	16	288	6
NMTAP	16	336	3
NMHLD	16	336	6	96
NMHLD	17	48	4	96
NMHLD	17	144	3	96
NMHLD	17	240	1	96
NMHLD	17	336	7	336
BRHLD	18	144	0	144
NMSTR	19	0	1
NMSI_	19	0	1	96	48	5
NMSTR	19	96	7
NMSI_	19	96	7	96	48	3
NMSTR	19	192	0
NMSI_	19	192	0	96	48	4
NMSTR	19	288	6
NMSLL	19	288	6	96	96	2
NMTAP	20	0	7
NMHLD	20	96	1	96
NMTAP	20	192	3
NMTAP	20	240	3
NMTAP	20	288	2
NMTAP	20	336	2
NMSTR	21	0	6
NMSI_	21	0	6	96	48	2
NMSTR	21	96	0
NMSI_	21	96	0	96	48	4
NMSTR	21	192	7
NMSI_	21	192	7	96	48	3
NMSTR	21	288	1
NMSCR	21	288	1	96	96	5
NMTAP	22	0	0
NMTAP	22	96	6
NMTAP	22	144	6
NMTAP	22	192	4
NMTAP	22	288	3
NMTAP	22	288	5
NMSTR	23	0	1
NMSI_	23	0	1	96	48	5
NMSTR	23	96	6
NMSI_	23	96	6	96	48	2
NMSTR	23	192	0
NMSI_	23	192	0	96	48	4
NMTAP	23	288	7
NMSTR	24	0	7
NMSLL	24	0	7	96	96	3
NMSLR	24	0	7	96	96	3
NMTAP	24	288	2
NMTAP	24	288	4
NMSTR	25	0	6
NMSI_	25	0	6	96	48	2
NMSTR	25	96	0
NMSI_	25	96	0	96	48	4
NMSTR	25	192	7
NMSI_	25	192	7	96	48	3
NMTAP	25	288	2
NMHLD	25	336	2	96
NMTAP	26	48	0
NMHLD	26	96	0	96
NMHLD	26	192	7	96
NMHLD	26	288	5	96
BRSTR	27	0	3
NMSCL	27	0	3	96	480	5
NMTTP	27	192	5	E	0	M1
NMTTP	28	192	3	E	0	M1
NMSTR	29	0	4
NMSCR	29	0	4	96	480	2
NMTTP	29	192	3	E	0	M1
NMTTP	30	192	5	E	0	M1
NMSTR	31	0	3
NMSCL	31	0	3	96	480	5
NMTTP	31	192	5	E	0	M1
NMTTP	32	192	3	E	0	M1
NMTAP	33	0	3
NMTAP	33	48	3
NMTAP	33	96	5
NMTAP	33	144	5
NMTAP	33	192	2
NMSTR	33	288	0
NMSI_	33	288	0	96	48	3
NMSTR	33	288	4
NMSI_	33	288	4	96	48	7
BRTAP	34	288	0
BRTAP	34	288	7
NMSTR	35	0	6
NMSI_	35	0	6	96	48	4
NMSTR	35	0	7
NMSI_	35	0	7	96	48	3
EXTAP	35	96	6
EXTAP	35	96	7
NMSTR	35	192	0
NMSI_	35	192	0	96	48	4
NMSTR	35	192	1
NMSI_	35	192	1	96	48	3
EXTAP	35	288	0
EXTAP	35	288	1
NMTAP	36	0	6
NMTAP	36	0	7
NMTAP	36	96	6
NMTAP	36	96	7
NMTAP	36	192	4
NMTAP	36	192	5
NMTAP	36	288	2
NMTAP	36	336	2
NMTAP	37	0	3
NMTAP	37	48	1
NMTAP	37	96	5
NMTAP	37	144	5
NMTAP	37	192	4
NMTAP	37	240	7
NMSTR	37	288	0
NMSCR	37	288	0	96	96	4
NMSTR	38	0	4
NMSCR	38	0	4	96	96	0
NMTAP	38	96	0
NMTAP	38	192	4
NMTAP	38	288	2
NMTAP	38	288	6
NMSTR	39	0	0
NMSI_	39	0	0	96	48	4
NMSTR	39	0	1
NMSI_	39	0	1	96	48	3
EXTAP	39	96	0
EXTAP	39	96	1
NMSTR	39	192	6
NMSI_	39	192	6	96	48	4
NMSTR	39	192	7
NMSI_	39	192	7	96	48	3
EXTAP	39	288	6
EXTAP	39	288	7
NMTAP	40	0	0
NMTAP	40	0	1
NMTAP	40	96	0
NMTAP	40	96	1
NMTAP	40	192	2
NMTAP	40	192	3
NMTAP	40	288	5
NMTAP	40	336	5
NMTAP	41	0	4
NMTAP	41	48	6
NMTAP	41	96	2
NMTAP	41	144	2
NMTAP	41	192	3
NMSTR	41	240	1
NMSI_	41	240	1	96	48	7
NMSTR	41	336	4
NMSXL	41	336	4	96	144	4
NMSXR	41	336	4	96	144	4
EXTAP	42	288	3
EXTAP	42	288	5
NMSTR	43	0	0
NMSI_	43	0	0	96	48	4
NMSTR	43	0	1
NMSI_	43	0	1	96	48	3
EXTAP	43	96	0
EXTAP	43	96	1
NMSTR	43	192	6
NMSI_	43	192	6	96	48	4
NMSTR	43	192	7
NMSI_	43	192	7	96	48	3
EXTAP	43	288	6
EXTAP	43	288	7
NMTAP	44	0	0
NMTAP	44	0	1
NMTAP	44	96	0
NMTAP	44	96	1
NMTAP	44	192	2
NMTAP	44	192	3
NMTAP	44	288	6
NMTAP	44	336	6
NMTAP	45	0	4
NMTAP	45	48	5
NMTAP	45	96	1
NMTAP	45	144	1
NMTAP	45	192	3
NMTAP	45	240	2
NMSTR	45	288	7
NMSCL	45	288	7	96	96	3
NMSTR	46	0	3
NMSCL	46	0	3	96	96	7
NMTAP	46	96	7
NMTAP	46	192	3
NMTAP	46	288	1
NMTAP	46	288	5
NMSTR	47	0	6
NMSI_	47	0	6	96	48	4
NMSTR	47	0	7
NMSI_	47	0	7	96	48	3
EXTAP	47	96	6
EXTAP	47	96	7
NMSTR	47	192	0
NMSI_	47	192	0	96	48	4
NMSTR	47	192	1
NMSI_	47	192	1	96	48	3
EXTAP	47	288	0
EXTAP	47	288	1
NMTAP	48	0	6
NMTAP	48	0	7
NMTAP	48	96	6
NMTAP	48	96	7
NMTAP	48	192	4
NMTAP	48	192	5
NMTAP	48	288	1
NMTAP	48	336	1
NMTAP	49	0	3
NMTAP	49	48	2
NMTAP	49	96	6
NMTAP	49	144	6
NMTAP	49	192	4
NMSTR	49	240	5
NMSCL	49	240	5	96	48	2
NMHLD	49	336	1	96
NMTAP	50	48	7
NMSTR	50	96	7
NMSSR	50	96	7	96	144	3
NMSTR	51	0	2
NMSI_	51	0	2	96	48	7
NMSTR	51	96	6
NMSI_	51	96	6	96	48	3
NMSTR	51	192	1
NMSI_	51	192	1	96	48	4
NMSTR	51	288	5
NMSUL	51	288	5	96	144	4
CNSCL	52	144	4	0	144	6
NMHLD	53	0	0	72
NMHLD	53	72	2	72
NMTAP	53	144	3
NMTAP	53	192	3
NMSTR	53	288	3
NMSSL	53	288	3	96	192	7
NMSTR	53	288	4
NMSSR	53	288	4	96	192	0
EXTAP	54	288	1
EXTAP	54	288	6
NMHLD	55	0	4	72
NMHLD	55	72	6	72
NMTAP	55	144	7
NMTAP	55	192	7
NMSTR	55	288	0
NMSLL	55	288	0	96	96	4
NMSTR	55	288	5
NMSI_	55	288	5	96	192	1
CNSI_	56	96	4	0	96	2
EXTAP	56	288	1
EXTAP	56	288	3
NMHLD	57	0	0	72
NMHLD	57	72	2	72
NMTAP	57	144	3
NMTAP	57	192	3
NMTAP	57	288	2
NMTAP	57	288	4
NMSTR	58	0	7
NMSUL	58	0	7	96	96	2
NMTAP	58	288	0
NMTAP	58	288	1
NMTAP	59	0	2
NMTAP	59	48	2
NMTAP	59	96	4
NMTAP	59	144	4
NMTAP	59	192	3
NMTAP	59	240	3
NMSTR	59	288	6
NMSXL	59	288	6	96	96	7
CNSI_	60	96	7	0	96	4
EXTAP	60	288	3
EXSTR	60	288	5
NMSI_	60	288	5	96	192	2
EXHLD	61	192	1	192
CNSI_	61	192	2	0	192	6
CNSI_	62	0	6	0	192	1
CNSI_	62	192	1	0	192	4
EXSTR	62	288	0
NMSI_	62	288	0	96	192	3
CNSI_	63	192	3	0	192	7
EXHLD	63	192	6	192
CNSI_	64	0	7	0	192	4
CNSI_	64	192	4	0	192	1
EXSTR	64	288	7
NMSI_	64	288	7	96	192	4
EXHLD	65	192	1	192
CNSI_	65	192	4	0	192	0
CNSI_	66	0	0	0	192	3
CNSI_	66	192	3	0	192	6
EXSTR	66	288	1
NMSI_	66	288	1	96	192	5
CNSI_	67	192	5	0	192	2
EXHLD	67	192	7	192
CNSI_	68	0	2	0	192	7
EXHLD	68	192	6	192
NMTTP	69	0	4	A	0	M1
NMTTP	69	96	3	A	0	M1
NMTTP	69	192	2	A	0	M1
NMTTP	69	288	1	A	0	M1
NMTTP	70	0	0	A	0	M1
NMTTP	70	96	7	A	0	M1
NMTTP	70	192	6	A	0	M1
NMTTP	70	288	5	A	0	M1
NMTHO	71	0	0	384	C	0	M1
NMTTP	71	0	3	E	0	M1
NMTTP	71	96	2	E	0	M1
NMTTP	71	192	1	E	0	M1
NMTTP	71	288	0	E	0	M1
NMTTP	72	0	7	E	0	M1
NMTTP	72	96	6	E	0	M1
NMTTP	72	192	5	E	0	M1
NMTTP	72	288	4	E	0	M1
NMTTP	73	0	2	B	0	M1
NMTTP	73	96	1	B	0	M1
NMTTP	73	192	0	B	0	M1
NMTTP	73	288	7	B	0	M1
NMTTP	74	0	6	B	0	M1
NMTTP	74	96	5	B	0	M1
NMTTP	74	192	4	B	0	M1
NMTTP	74	288	3	B	0	M1
NMTTP	75	0	0	C	1	M1
NMTAP	76	0	1
NMTAP	76	48	1
NMTAP	76	96	5
NMTAP	76	144	5
NMTAP	76	192	0
NMTAP	76	240	0
NMTAP	76	288	4
NMSTR	77	0	2
NMSUR	77	0	2	96	192	7
NMSTR	77	0	3
NMSCR	77	0	3	96	192	6
NMSTR	78	0	1
NMSCR	78	0	1	96	192	4
NMSTR	78	0	7
NMSUR	78	0	7	96	192	4
NMSTR	79	0	4
NMSLL	79	0	4	96	192	0
NMSTR	79	0	5
NMSUR	79	0	5	96	192	3
NMSTR	80	0	1
NMSLL	80	0	1	96	192	5
NMSTR	80	0	4
NMSV_	80	0	4	96	192	2
NMSTR	81	0	0
NMSXL	81	0	0	96	192	2
NMSTR	81	0	5
NMSV_	81	0	5	96	192	7
NMSTR	82	0	1
NMSCR	82	0	1	96	192	5
NMSTR	82	0	6
NMSXL	82	0	6	96	192	0
NMSTR	83	0	3
NMSLL	83	0	3	96	192	5
NMSTR	83	0	7
NMSLR	83	0	7	96	192	4
NMTAP	84	0	3
NMTAP	84	0	6
NMTAP	84	96	1
NMTAP	84	96	4
NMTAP	84	192	6
NMTAP	84	240	6
BRTAP	84	288	0
NMSTR	85	0	0
NMSI_	85	0	0	96	48	4
NMSTR	85	0	1
NMSI_	85	0	1	96	48	5
NMSTR	85	192	6
NMSI_	85	192	6	96	48	2
NMSTR	85	192	7
NMSI_	85	192	7	96	48	3
NMHLD	86	0	1	96
NMHLD	86	96	3	96
NMHLD	86	192	4	96
NMTAP	86	288	6
NMTAP	86	336	6
NMTAP	87	0	2
NMTAP	87	48	2
NMTAP	87	96	4
NMTAP	87	144	4
NMTAP	87	192	0
NMHLD	87	240	0	96
NMSTR	87	336	3
NMSSL	87	336	3	96	144	7
NMTAP	88	192	0
NMTAP	88	288	0
NMSTR	89	0	1
NMSI_	89	0	1	96	48	5
NMSTR	89	0	7
NMSI_	89	0	7	96	48	3
NMSTR	89	192	0
NMSI_	89	192	0	96	48	4
NMSTR	89	192	6
NMSI_	89	192	6	96	48	2
NMTAP	90	0	1
NMTAP	90	0	7
NMTAP	90	96	3
NMTAP	90	96	5
NMTAP	90	192	0
NMTAP	90	192	6
NMTAP	90	288	2
NMTAP	90	336	2
NMTAP	91	0	4
NMTAP	91	48	4
NMTAP	91	96	0
NMTAP	91	144	0
NMTAP	91	192	6
NMHLD	91	240	6	96
NMSTR	91	336	7
NMSI_	91	336	7	96	96	4
CNSI_	92	144	4	0	96	0
CNSI_	92	240	0	0	96	3
NMTHO	93	0	0	576	C	0	M1
NMTTP	93	0	3	B	0	M1
NMTTP	93	0	4	B	0	M1
NMTTP	94	288	0	C	1	M1
NMTTP	94	288	1	B	0	M1
NMTTP	94	288	2	B	0	M1
NMTTP	94	288	2	E	0	M1
NMTTP	94	288	5	B	0	M1
NMTTP	94	288	6	B	0	M1
NMTTP	94	288	6	E	0	M1
EXTAP	95	0	0
EXTAP	95	0	7
EXSTR	95	96	0
NMSI_	95	96	0	96	48	4
EXSTR	95	96	7
NMSI_	95	96	7	96	48	3
NMTAP	95	288	2
NMSTR	95	288	5
NMSXL	95	288	5	96	192	3
NMHLD	96	0	1	288
NMTAP	96	288	3
NMSTR	97	0	0
NMSI_	97	0	0	96	48	4
NMSTR	97	0	1
NMSI_	97	0	1	96	48	4
EXTAP	97	96	0
EXTAP	97	96	1
NMSTR	97	192	6
NMSI_	97	192	6	96	48	3
NMSTR	97	192	7
NMSI_	97	192	7	96	48	3
EXTAP	97	288	6
EXTAP	97	288	7
NMHLD	98	0	0	48
NMHLD	98	0	1	48
NMHLD	98	96	5	48
NMHLD	98	96	6	48
NMHLD	98	192	1	48
NMHLD	98	192	3	48
NMTAP	98	288	5
NMTAP	98	336	5
NMTAP	99	0	3
NMTAP	99	48	3
NMTAP	99	96	7
NMTAP	99	144	7
NMTAP	99	192	0
NMTAP	99	240	0
NMSTR	99	336	2
NMSXR	99	336	2	96	192	4
NMSTR	99	336	5
NMSXL	99	336	5	96	192	3
EXTAP	100	288	2
EXTAP	100	288	5
NMSTR	101	0	6
NMSI_	101	0	6	96	48	3
NMSTR	101	0	7
NMSI_	101	0	7	96	48	3
EXTAP	101	96	6
EXTAP	101	96	7
NMSTR	101	192	0
NMSI_	101	192	0	96	48	4
NMSTR	101	192	1
NMSI_	101	192	1	96	48	4
EXTAP	101	288	0
EXTAP	101	288	1
NMHLD	102	0	6	48
NMHLD	102	0	7	48
NMHLD	102	96	1	48
NMHLD	102	96	2	48
NMHLD	102	192	4	48
NMHLD	102	192	6	48
NMTAP	102	288	2
NMTAP	102	336	2
NMTAP	103	0	4
NMTAP	103	48	4
NMTAP	103	96	0
NMTAP	103	144	0
NMTAP	103	192	6
NMHLD	103	240	6	96
NMSTR	103	336	4
NMSXR	103	336	4	96	144	0
NMTAP	104	192	6
NMTAP	104	288	6
NMSTR	105	0	0
NMSI_	105	0	0	96	48	4
NMSTR	105	0	7
NMSI_	105	0	7	96	48	5
EXTAP	105	96	0
EXTAP	105	96	7
NMSTR	105	192	0
NMSI_	105	192	0	96	48	2
NMSTR	105	192	7
NMSI_	105	192	7	96	48	3
EXTAP	105	288	0
EXTAP	105	288	7
NMHLD	106	0	0	48
NMHLD	106	0	7	48
NMHLD	106	96	5	48
NMHLD	106	96	6	48
NMHLD	106	192	3	48
NMHLD	106	192	4	48
NMTAP	106	288	1
NMTAP	106	336	1
NMTAP	107	0	3
NMTAP	107	48	3
NMTAP	107	96	0
NMTAP	107	144	0
NMTAP	107	192	6
NMHLD	107	240	6	96
NMTAP	107	336	4
NMTAP	108	48	0
NMTAP	108	48	7
NMTAP	108	96	0
NMTAP	108	96	7
NMTAP	108	192	1
NMTAP	108	192	3
NMTAP	108	288	4
NMTAP	108	288	6
BRSTR	109	0	7
NMSCL	109	0	7	96	96	3
NMSTR	109	96	3
NMSCL	109	96	3	96	96	7
NMSTR	109	192	7
NMSCL	109	192	7	96	96	3
NMSTR	109	288	3
NMSCL	109	288	3	96	96	7
NMSTR	110	0	7
NMSCL	110	0	7	96	96	3
NMTAP	110	96	3
NMTAP	110	192	7
BXTAP	110	288	1
BXTAP	110	288	5
NMHLD	111	0	0	72
NMHLD	111	72	2	72
NMTAP	111	144	3
NMTAP	111	192	3
NMSTR	111	288	0
NMSI_	111	288	0	96	48	4
NMTAP	111	288	7
NMSTR	112	0	6
NMSI_	112	0	6	96	48	2
NMSTR	112	96	1
NMSI_	112	96	1	96	48	4
NMTAP	112	192	5
NMTAP	112	288	6
NMHLD	113	0	7	72
NMHLD	113	72	5	72
NMTAP	113	144	4
NMTAP	113	192	4
NMTAP	113	288	0
NMSTR	113	288	7
NMSI_	113	288	7	96	48	3
NMSTR	114	0	1
NMSI_	114	0	1	96	48	5
NMSTR	114	96	6
NMSI_	114	96	6	96	48	3
NMTAP	114	192	2
NMTAP	114	288	1
NMHLD	115	0	0	72
NMHLD	115	72	2	72
NMTAP	115	144	3
NMTAP	115	192	3
NMSTR	115	288	0
NMSI_	115	288	0	96	48	4
NMTAP	115	288	7
NMSTR	116	0	6
NMSI_	116	0	6	96	48	2
NMSTR	116	96	1
NMSI_	116	96	1	96	48	4
NMSTR	116	192	7
NMSI_	116	192	7	96	48	3
NMTAP	116	288	1
NMTAP	117	0	0
NMTAP	117	48	0
NMTAP	117	96	4
NMTAP	117	144	4
NMTAP	117	192	2
NMTAP	117	240	2
NMTAP	117	288	6
NMTAP	117	336	6
NMTAP	118	0	4
NMTAP	118	48	4
NMTAP	118	96	7
NMTAP	118	144	7
NMTAP	118	192	1
NMTAP	118	240	1
NMSTR	118	288	2
BRSI_	118	288	2	96	48	5
NMSTR	118	288	6
BRSI_	118	288	6	96	48	1

T_REC_TAP	264
T_REC_BRK	3
T_REC_XTP	39
T_REC_BXX	2
T_REC_HLD	63
T_REC_XHO	5
T_REC_BHO	1
T_REC_BXH	0
T_REC_STR	119
T_REC_BST	2
T_REC_XST	6
T_REC_XBS	0
T_REC_TTP	40
T_REC_THO	2
T_REC_SLD	127
T_REC_BSL	2
T_REC_ALL	675
T_NUM_TAP	468
T_NUM_BRK	10
T_NUM_HLD	70
T_NUM_SLD	127
T_NUM_ALL	675
T_JUDGE_TAP	475
T_JUDGE_HLD	160
T_JUDGE_SLD	129
T_JUDGE_ALL	764
TTM_EACHPAIRS	107
TTM_SCR_TAP	234000
TTM_SCR_BRK	26000
TTM_SCR_HLD	70000
TTM_SCR_SLD	190500
TTM_SCR_ALL	520500
TTM_SCR_S	503950
TTM_SCR_SS	519500
TTM_RAT_ACV	10019

