VERSION	0.00.00	1.04.00
FES_MODE	0
BPM_DEF	185.000	185.000	185.000	185.000
MET_DEF	4	4
RESOLUTION	384
CLK_DEF	384
COMPATIBLE_CODE	MA2

BPM	0	0	185.000
MET	0	0	4	4

NMTAP	3	0	2
NMTAP	3	96	2
NMTAP	3	192	1
NMTAP	3	192	7
NMTAP	3	288	1
NMTAP	3	288	7
NMTAP	4	0	5
NMTAP	4	96	5
NMTAP	4	192	0
NMTAP	4	192	6
NMTAP	4	288	0
NMTAP	4	288	6
NMHLD	5	0	1	96
NMTAP	5	96	3
NMHLD	5	192	5	96
NMTAP	5	288	3
NMHLD	6	0	1	96
NMTAP	6	96	3
EXTAP	6	192	0
EXTAP	6	192	4
NMTAP	7	0	2
NMTAP	7	96	2
NMTAP	7	192	1
NMTAP	7	192	7
NMTAP	7	288	1
NMTAP	7	288	7
NMTAP	8	0	5
NMTAP	8	96	5
NMTAP	8	192	0
NMTAP	8	192	6
NMTAP	8	288	0
NMTAP	8	288	6
NMSTR	9	0	7
NMSI_	9	0	7	96	48	3
NMSTR	9	192	0
NMSI_	9	192	0	96	48	4
NMTAP	10	0	5
NMTAP	10	96	4
NMTAP	10	96	6
EXTAP	10	192	3
EXTAP	10	192	7
NMHLD	11	0	2	576
NMTAP	11	192	4
NMTAP	11	288	4
NMTAP	12	0	3
NMTAP	12	96	3
NMHLD	12	192	4	768
NMSTR	13	0	1
NMSI_	13	0	1	96	96	5
NMSTR	14	0	6
NMSI_	14	0	6	96	96	2
NMHLD	15	0	2	576
NMTAP	15	192	4
NMTAP	15	288	4
NMTAP	16	0	3
NMTAP	16	96	3
NMHLD	16	192	4	672
NMSTR	17	0	1
NMSI_	17	0	1	96	96	5
EXHLD	17	336	6	144
EXTAP	18	144	4
EXTAP	18	144	7
NMTAP	19	0	5
NMTAP	19	48	5
NMTAP	19	96	3
NMTAP	19	192	2
NMTAP	19	192	4
NMTAP	19	288	1
NMTAP	19	288	3
NMHLD	20	0	0	192
NMSTR	20	0	2
NMSUR	20	0	2	96	96	6
NMTAP	21	0	2
NMTAP	21	48	2
NMTAP	21	96	4
NMTAP	21	192	3
NMTAP	21	192	5
NMTAP	21	288	4
NMTAP	21	288	6
NMSTR	22	0	5
NMSUL	22	0	5	96	96	1
NMHLD	22	0	7	192
NMTAP	23	0	6
NMTAP	23	48	6
NMTAP	23	96	4
NMTAP	23	192	3
NMTAP	23	192	5
NMTAP	23	288	2
NMTAP	23	288	4
NMTAP	24	0	1
NMTAP	24	48	1
NMTAP	24	96	3
NMTAP	24	192	2
NMTAP	24	192	4
NMTAP	24	288	3
NMTAP	24	288	5
NMTAP	25	0	6
NMTAP	25	48	6
NMTAP	25	96	4
NMTAP	25	192	2
NMTAP	25	192	5
NMTAP	25	288	1
NMTAP	25	288	4
EXHLD	25	336	1	144
EXHLD	25	336	4	144
EXTAP	26	192	2
EXTAP	26	192	3
EXTAP	26	288	1
EXTAP	26	288	6
NMHLD	27	0	2	384
NMTAP	27	0	7
NMTTP	27	192	1	B	0	M1
NMTTP	27	192	2	B	0	M1
NMHLD	28	0	5	288
NMTTP	28	192	5	B	0	M1
NMTTP	28	192	6	B	0	M1
NMSTR	29	0	0
NMSCR	29	0	0	96	192	4
NMTTP	29	192	0	B	0	M1
NMTTP	29	192	1	B	0	M1
NMSTR	30	0	7
NMSCL	30	0	7	96	192	3
NMTTP	30	192	6	B	0	M1
NMTTP	30	192	7	B	0	M1
NMHLD	31	0	0	384
NMTAP	31	96	2
NMTAP	31	192	3
NMTAP	31	288	4
NMHLD	32	0	5	288
NMTAP	32	96	6
NMTAP	32	192	7
NMTAP	32	288	0
NMTAP	33	0	1
NMTAP	33	48	1
NMTAP	33	96	3
NMTAP	33	192	6
NMTAP	33	240	6
NMTAP	33	288	4
NMHLD	34	0	3	192
NMHLD	34	0	4	192
BXSTR	35	0	0
NMSI_	35	0	0	96	48	4
BXSTR	35	0	1
NMSI_	35	0	1	96	48	3
NMSTR	35	192	6
NMSI_	35	192	6	96	48	4
NMSTR	35	192	7
NMSI_	35	192	7	96	48	3
NMTAP	36	0	0
NMTAP	36	0	1
NMTAP	36	96	2
NMTAP	36	96	7
NMTAP	36	192	3
NMTAP	36	192	6
NMTAP	36	288	4
NMTAP	36	288	5
NMTAP	37	0	6
NMTAP	37	48	6
NMTAP	37	96	7
NMTAP	37	192	0
NMTAP	37	192	5
NMSTR	37	240	0
NMSCR	37	240	0	96	96	3
NMSTR	37	240	5
NMSCR	37	240	5	96	96	0
EXTAP	38	192	0
EXTAP	38	288	0
NMSTR	39	0	6
NMSI_	39	0	6	96	48	4
NMSTR	39	0	7
NMSI_	39	0	7	96	48	3
NMSTR	39	192	0
NMSI_	39	192	0	96	48	4
NMSTR	39	192	1
NMSI_	39	192	1	96	48	3
NMTAP	40	0	6
NMTAP	40	0	7
NMTAP	40	96	0
NMTAP	40	96	5
NMTAP	40	192	1
NMTAP	40	192	4
NMTAP	40	288	2
NMTAP	40	288	3
NMTAP	41	0	1
NMTAP	41	48	1
NMTAP	41	96	0
NMTAP	41	192	2
NMTAP	41	192	7
NMTAP	41	240	2
NMTAP	41	240	7
BRSTR	41	336	1
BRSSR	41	336	1	96	192	5
NMSTR	43	0	6
NMSI_	43	0	6	96	48	4
NMSTR	43	0	7
NMSI_	43	0	7	96	48	3
NMSTR	43	192	0
NMSI_	43	192	0	96	48	4
NMSTR	43	192	1
NMSI_	43	192	1	96	48	3
NMTAP	44	0	6
NMTAP	44	0	7
NMTAP	44	96	0
NMTAP	44	96	5
NMTAP	44	192	1
NMTAP	44	192	4
NMTAP	44	288	2
NMTAP	44	288	3
NMTAP	45	0	1
NMTAP	45	48	1
NMTAP	45	96	0
NMTAP	45	192	2
NMTAP	45	192	7
NMSTR	45	240	2
NMSCL	45	240	2	96	96	7
NMSTR	45	240	7
NMSCL	45	240	7	96	96	4
EXTAP	46	192	7
EXTAP	46	288	7
NMSTR	47	0	0
NMSI_	47	0	0	96	48	4
NMSTR	47	0	1
NMSI_	47	0	1	96	48	3
NMSTR	47	192	6
NMSI_	47	192	6	96	48	4
NMSTR	47	192	7
NMSI_	47	192	7	96	48	3
NMTAP	48	0	0
NMTAP	48	0	1
NMTAP	48	96	2
NMTAP	48	96	7
NMTAP	48	192	3
NMTAP	48	192	6
NMTAP	48	288	4
NMTAP	48	288	5
NMTAP	49	0	6
NMTAP	49	48	6
NMTAP	49	96	7
NMTAP	49	192	0
NMTAP	49	192	5
NMTAP	49	240	0
NMTAP	49	240	5
BRSTR	49	336	6
BRSSL	49	336	6	96	192	2
NMSTR	51	0	0
NMSCR	51	0	0	96	288	7
CNSXR	52	0	7	0	288	4
NMTAP	53	0	5
NMTAP	53	96	5
NMTAP	53	192	0
NMTAP	53	192	6
NMTAP	53	288	1
NMTAP	53	288	7
NMTAP	54	0	2
NMTAP	54	96	2
NMTAP	54	192	1
NMTAP	54	192	7
NMTAP	54	288	0
NMTAP	54	288	6
NMHLD	55	0	5	96
NMTAP	55	96	3
NMHLD	55	192	1	96
NMTAP	55	288	3
NMHLD	56	0	5	96
NMTAP	56	96	3
EXTAP	56	192	3
EXTAP	56	192	7
NMTAP	57	0	5
NMTAP	57	96	5
NMTAP	57	192	0
NMTAP	57	192	6
NMTAP	57	288	1
NMTAP	57	288	7
NMTAP	58	0	2
NMTAP	58	96	2
NMTAP	58	192	1
NMTAP	58	192	7
NMTAP	58	288	0
NMTAP	58	288	6
NMSTR	59	0	5
NMSI_	59	0	5	96	48	2
NMSTR	59	192	1
NMSI_	59	192	1	96	48	6
NMTAP	60	0	5
NMTAP	60	96	4
NMTAP	60	96	6
EXTAP	60	192	3
EXTAP	60	192	7
NMHLD	61	0	1	576
NMTTP	61	192	4	E	0	M1
NMTTP	61	288	3	E	0	M1
NMTTP	62	0	2	E	0	M1
NMTTP	62	96	1	E	0	M1
NMTTP	62	192	0	E	0	M1
NMHLD	63	0	6	576
NMTTP	63	192	4	E	0	M1
NMTTP	63	288	5	E	0	M1
NMTTP	64	0	6	E	0	M1
NMTTP	64	96	7	E	0	M1
NMTTP	64	192	0	E	0	M1
NMHLD	65	0	1	384
NMTTP	65	192	4	B	0	M1
NMTTP	65	192	4	E	0	M1
NMTTP	65	192	5	E	0	M1
NMHLD	66	0	6	384
NMTTP	66	192	3	B	0	M1
NMTTP	66	192	3	E	0	M1
NMTTP	66	192	4	E	0	M1
NMHLD	67	0	0	384
NMTTP	67	192	4	E	0	M1
NMTTP	67	288	6	E	0	M1
NMHLD	68	0	7	384
NMTTP	68	192	4	E	0	M1
NMTTP	68	288	2	E	0	M1
NMHLD	69	0	0	192
NMHLD	69	192	2	192
NMHLD	70	0	4	192
NMHLD	70	192	6	192
NMHLD	71	0	7	192
NMHLD	71	192	5	192
NMHLD	72	0	3	192
NMHLD	72	192	1	192
NMSTR	73	0	0
NMSCR	73	0	0	96	672	7
NMTTP	75	0	0	E	1	M1
NMTAP	76	0	4
NMTAP	76	0	5
NMTAP	76	96	2
NMTAP	76	96	3
NMTAP	76	192	0
NMTAP	76	192	1
NMTAP	76	288	6
NMTAP	76	288	7
NMSTR	77	0	4
NMSXL	77	0	4	96	288	0
CNSCL	78	0	0	0	960	2
NMSTR	81	0	3
NMSSR	81	0	3	96	288	7
CNSXL	82	0	7	0	576	5
NMTAP	84	0	6
NMTAP	84	0	7
NMTAP	84	96	0
NMTAP	84	96	1
NMTAP	84	192	2
NMTAP	84	192	3
NMTAP	84	288	4
NMTAP	84	288	5
NMHLD	85	0	7	192
NMTAP	85	96	6
NMHLD	85	192	6	192
NMTAP	85	288	5
NMHLD	86	0	5	192
NMTAP	86	96	4
NMHLD	86	192	4	192
NMTAP	86	288	3
NMHLD	87	0	3	192
NMTAP	87	96	2
NMHLD	87	192	2	192
NMTAP	87	288	1
NMSTR	88	0	1
NMSSR	88	0	1	96	192	5
EXTAP	89	0	0
NMTAP	89	48	0
NMTAP	89	96	0
NMTAP	89	192	1
NMTAP	89	240	1
NMTAP	89	288	1
NMTAP	90	0	2
NMTAP	90	48	2
NMTAP	90	96	2
NMTAP	90	192	3
NMTAP	90	240	3
NMTAP	90	288	3
NMTAP	91	0	4
NMTAP	91	48	4
NMTAP	91	96	2
NMTAP	91	96	4
NMTAP	91	192	3
NMTAP	91	240	3
NMTAP	91	288	3
NMTAP	91	288	5
NMTAP	92	0	6
NMTAP	92	48	6
NMTAP	92	96	4
NMTAP	92	144	4
NMSTR	92	192	5
NMSF_	92	192	5	96	96	1
BXTAP	94	288	1
BXTAP	94	288	6
EXTAP	95	0	0
NMTAP	95	48	0
NMTAP	95	96	3
NMTAP	95	192	1
NMTAP	95	192	4
NMSTR	95	240	1
NMSCR	95	240	1	96	96	4
NMSTR	95	240	4
NMSCR	95	240	4	96	96	7
EXTAP	96	192	0
EXTAP	96	288	0
EXSTR	97	0	6
NMSI_	97	0	6	96	48	3
EXSTR	97	0	7
NMSI_	97	0	7	96	48	3
NMSTR	97	192	0
NMSI_	97	192	0	96	48	4
NMSTR	97	192	1
NMSI_	97	192	1	96	48	4
NMTAP	98	0	6
NMTAP	98	0	7
NMTAP	98	96	4
NMTAP	98	96	5
NMTAP	98	192	2
NMTAP	98	192	3
NMTAP	98	288	0
NMTAP	98	288	1
NMTAP	99	0	7
NMTAP	99	48	7
NMTAP	99	96	4
NMTAP	99	144	4
NMTAP	99	192	6
NMTAP	99	240	6
BXSTR	99	336	0
BRSSL	99	336	0	96	192	4
BXTAP	99	336	5
EXSTR	101	0	6
NMSI_	101	0	6	96	48	3
EXSTR	101	0	7
NMSI_	101	0	7	96	48	3
NMSTR	101	192	0
NMSI_	101	192	0	96	48	4
NMSTR	101	192	1
NMSI_	101	192	1	96	48	4
NMTAP	102	0	6
NMTAP	102	0	7
NMTAP	102	96	4
NMTAP	102	96	5
NMTAP	102	192	2
NMTAP	102	192	3
NMTAP	102	288	0
NMTAP	102	288	1
EXTAP	103	0	7
NMTAP	103	48	7
NMTAP	103	96	4
NMTAP	103	192	3
NMTAP	103	192	6
NMSTR	103	240	3
NMSCL	103	240	3	96	96	0
NMSTR	103	240	6
NMSCL	103	240	6	96	96	3
EXTAP	104	192	7
EXTAP	104	288	7
EXSTR	105	0	0
NMSI_	105	0	0	96	48	4
EXSTR	105	0	1
NMSI_	105	0	1	96	48	4
NMSTR	105	192	6
NMSI_	105	192	6	96	48	3
NMSTR	105	192	7
NMSI_	105	192	7	96	48	3
NMTAP	106	0	0
NMTAP	106	0	1
NMTAP	106	96	2
NMTAP	106	96	3
NMTAP	106	192	4
NMTAP	106	192	5
NMTAP	106	288	6
NMTAP	106	288	7
NMTAP	107	0	0
NMTAP	107	48	0
NMTAP	107	96	3
NMTAP	107	144	3
NMTAP	107	192	1
NMTAP	107	240	1
BXSTR	107	336	2
BRSSL	107	336	2	96	192	6
BXTAP	107	336	4
NMSTR	109	0	7
NMSCL	109	0	7	96	288	0
CNSXL	110	0	0	0	288	3
EXTAP	111	0	2
NMTAP	111	96	1
NMTAP	111	96	3
NMTAP	111	192	0
NMTAP	111	192	4
NMTAP	111	288	0
NMTAP	111	288	4
NMTAP	112	0	5
NMTAP	112	96	4
NMTAP	112	96	6
NMTAP	112	192	3
NMTAP	112	192	7
NMTAP	112	288	3
NMTAP	112	288	7
NMHLD	113	0	2	96
NMTAP	113	96	4
NMHLD	113	192	6	96
NMTAP	113	288	4
NMHLD	114	0	2	96
NMTAP	114	96	4
EXTAP	114	192	0
EXTAP	114	192	4
NMTAP	115	0	5
NMTAP	115	96	4
NMTAP	115	96	6
NMTAP	115	192	3
NMTAP	115	192	7
NMTAP	115	288	3
NMTAP	115	288	7
NMTAP	116	0	2
NMTAP	116	96	1
NMTAP	116	96	3
NMTAP	116	192	0
NMTAP	116	192	4
NMTAP	116	288	0
NMTAP	116	288	4
NMSTR	117	0	5
NMSI_	117	0	5	96	48	1
NMSTR	117	192	0
NMSI_	117	192	0	96	48	4
NMTAP	118	0	5
NMTAP	118	96	4
NMTAP	118	96	6
NMTAP	118	192	7
NMTAP	118	240	0
NMTAP	118	288	7
BXTAP	119	0	1
BXTAP	119	0	6

T_REC_TAP	297
T_REC_BRK	0
T_REC_XTP	28
T_REC_BXX	6
T_REC_HLD	41
T_REC_XHO	3
T_REC_BHO	0
T_REC_BXH	0
T_REC_STR	48
T_REC_BST	2
T_REC_XST	6
T_REC_XBS	4
T_REC_TTP	29
T_REC_THO	0
T_REC_SLD	56
T_REC_BSL	4
T_REC_ALL	524
T_NUM_TAP	408
T_NUM_BRK	16
T_NUM_HLD	44
T_NUM_SLD	56
T_NUM_ALL	524
T_JUDGE_TAP	420
T_JUDGE_HLD	237
T_JUDGE_SLD	60
T_JUDGE_ALL	717
TTM_EACHPAIRS	122
TTM_SCR_TAP	204000
TTM_SCR_BRK	41600
TTM_SCR_HLD	44000
TTM_SCR_SLD	84000
TTM_SCR_ALL	373600
TTM_SCR_S	360850
TTM_SCR_SS	372000
TTM_RAT_ACV	10043

