VERSION	0.00.00	1.04.00
FES_MODE	0
BPM_DEF	185.000	185.000	185.000	185.000
MET_DEF	4	4
RESOLUTION	384
CLK_DEF	384
COMPATIBLE_CODE	MA2

BPM	0	0	185.000
MET	0	0	4	4

NMTAP	3	0	4
NMTAP	3	96	4
NMTAP	3	192	4
NMTAP	4	0	5
NMTAP	4	96	5
NMTAP	4	192	5
NMTAP	5	0	6
NMTAP	5	96	6
NMTAP	5	192	6
NMTAP	6	0	0
NMTAP	6	0	7
NMTAP	6	192	0
NMTAP	6	192	7
NMTAP	7	0	0
NMTAP	7	96	0
NMTAP	7	192	0
NMTAP	8	0	1
NMTAP	8	96	1
NMTAP	8	192	1
NMTAP	9	0	2
NMTAP	9	96	2
NMTAP	9	192	2
NMTAP	10	0	3
NMTAP	10	0	4
NMTAP	10	192	3
NMTAP	10	192	4
NMHLD	11	0	2	192
NMTAP	11	192	3
NMHLD	12	0	1	192
NMTAP	12	192	0
NMHLD	13	0	6	192
NMTAP	13	192	7
NMHLD	14	0	5	192
NMTAP	14	192	4
NMHLD	15	0	5	192
NMTAP	15	192	4
NMHLD	16	0	6	192
NMTAP	16	192	7
NMHLD	17	0	1	192
NMTAP	17	192	0
EXHLD	18	0	2	192
NMTAP	18	192	3
NMTAP	19	0	2
NMTAP	19	96	2
NMTAP	19	192	2
NMTAP	19	192	3
NMTAP	20	0	1
NMTAP	20	96	1
NMTAP	20	192	0
NMTAP	20	192	1
NMTAP	21	0	7
NMTAP	21	96	7
NMTAP	21	192	6
NMTAP	21	192	7
NMTAP	22	0	4
NMTAP	22	0	5
NMTAP	22	96	4
NMTAP	22	96	5
NMTAP	22	192	4
NMTAP	22	192	5
NMTAP	23	0	5
NMTAP	23	96	5
NMTAP	23	192	4
NMTAP	23	192	5
NMTAP	24	0	6
NMTAP	24	96	6
NMTAP	24	192	6
NMTAP	24	192	7
NMTAP	25	0	0
NMTAP	25	96	0
NMTAP	25	192	0
NMTAP	25	192	1
NMTAP	26	0	2
NMTAP	26	0	3
NMTAP	26	96	2
NMTAP	26	96	3
NMTAP	26	192	2
NMTAP	26	192	3
NMSTR	27	0	2
NMSI_	27	0	2	96	192	5
NMSTR	28	0	6
NMSI_	28	0	6	96	192	3
NMSTR	29	0	1
NMSI_	29	0	1	96	192	4
NMSTR	30	0	5
NMSI_	30	0	5	96	192	0
NMSTR	31	0	1
NMSI_	31	0	1	96	192	5
NMSTR	32	0	7
NMSI_	32	0	7	96	192	3
NMTAP	33	0	2
NMTAP	33	192	2
NMTAP	33	192	3
NMTAP	34	0	3
NMTAP	34	0	4
BXTAP	35	0	2
NMTAP	35	96	2
NMTAP	35	192	1
NMTAP	35	288	1
NMTAP	36	0	0
NMTAP	36	96	0
NMTAP	36	192	6
NMTAP	36	192	7
NMTAP	37	0	5
NMTAP	37	96	5
NMTAP	37	192	6
NMTAP	37	288	6
NMTAP	38	0	7
NMTAP	38	96	7
NMTAP	38	192	0
NMTAP	38	192	1
NMTAP	39	0	1
NMTAP	39	96	1
NMTAP	39	192	2
NMTAP	39	288	2
NMTAP	40	0	3
NMTAP	40	96	3
NMTAP	40	192	4
NMTAP	40	192	5
NMTAP	41	0	6
NMTAP	41	96	6
NMTAP	41	192	5
NMTAP	41	288	5
NMTAP	42	0	4
NMTAP	42	96	4
NMTAP	42	192	2
NMTAP	42	192	3
BXTAP	43	0	2
NMTAP	43	96	2
NMTAP	43	192	1
NMTAP	43	288	1
NMTAP	44	0	0
NMTAP	44	96	0
NMTAP	44	192	6
NMTAP	44	192	7
NMTAP	45	0	5
NMTAP	45	96	5
NMTAP	45	192	6
NMTAP	45	288	6
NMTAP	46	0	7
NMTAP	46	96	7
NMTAP	46	192	0
NMTAP	46	192	1
NMTAP	47	0	1
NMTAP	47	96	1
NMTAP	47	192	2
NMTAP	47	288	2
NMTAP	48	0	3
NMTAP	48	96	3
NMTAP	48	192	4
NMTAP	48	192	5
NMTAP	49	0	6
NMTAP	49	96	6
NMTAP	49	192	5
NMTAP	49	288	5
NMTAP	50	0	4
NMTAP	50	96	4
NMTAP	50	192	2
NMTAP	50	192	3
NMSTR	51	0	3
NMSCL	51	0	3	96	480	0
NMSTR	51	0	4
NMSCR	51	0	4	96	480	7
NMTAP	53	0	7
NMTAP	53	96	7
NMTAP	53	192	6
NMTAP	53	288	6
NMTAP	54	0	5
NMTAP	54	96	5
NMTAP	54	192	4
NMTAP	54	288	4
NMTAP	55	0	3
NMTAP	55	96	3
NMTAP	55	192	2
NMTAP	55	288	2
NMTAP	56	0	1
NMTAP	56	96	1
NMTAP	56	192	0
NMTAP	56	192	7
NMTAP	57	0	0
NMTAP	57	96	0
NMTAP	57	192	1
NMTAP	57	288	1
NMTAP	58	0	2
NMTAP	58	96	2
NMTAP	58	192	3
NMTAP	58	288	3
NMTAP	59	0	4
NMTAP	59	96	4
NMTAP	59	192	5
NMTAP	59	288	5
NMTAP	60	0	6
NMTAP	60	96	6
NMTAP	60	192	0
NMTAP	60	192	7
NMHLD	61	0	1	192
NMHLD	61	192	0	192
NMHLD	62	0	7	192
NMTAP	62	192	6
NMHLD	63	0	6	192
NMHLD	63	192	7	192
NMHLD	64	0	0	192
NMTAP	64	192	1
NMHLD	65	0	2	192
NMHLD	65	192	3	192
NMHLD	66	0	4	192
NMTAP	66	192	5
NMHLD	67	0	5	192
NMHLD	67	192	4	192
NMHLD	68	0	3	192
NMTAP	68	192	2
NMTAP	69	0	2
NMTAP	69	96	2
NMTAP	69	192	3
NMTAP	70	0	4
NMTAP	70	96	4
NMTAP	70	192	5
NMHLD	71	0	4	576
NMHLD	71	0	5	576
NMTAP	73	0	5
NMTAP	73	96	5
NMTAP	73	192	4
NMTAP	74	0	3
NMTAP	74	96	3
NMTAP	74	192	2
NMSTR	75	0	1
NMSCR	75	0	1	96	288	4
NMTTP	77	0	4	B	0	L1
NMTTP	77	0	5	B	0	L1
NMTTP	78	0	6	B	0	L1
NMTTP	78	0	7	B	0	L1
NMTTP	79	0	0	B	0	L1
NMTTP	79	0	1	B	0	L1
NMTTP	80	0	2	B	0	L1
NMTTP	80	0	3	B	0	L1
NMTTP	81	0	6	B	0	L1
NMTTP	81	192	5	B	0	L1
NMTTP	82	0	4	B	0	L1
NMTTP	82	192	3	B	0	L1
NMTTP	83	0	2	B	0	L1
NMTTP	83	192	1	B	0	L1
NMTTP	84	0	0	C	1	L1
BXTAP	85	0	6
EXTAP	85	96	6
EXTAP	85	192	6
EXTAP	85	288	6
EXTAP	85	288	7
NMTAP	86	0	5
NMTAP	86	96	5
NMTAP	86	192	5
NMTAP	86	288	4
NMTAP	86	288	5
NMTAP	87	0	3
NMTAP	87	96	3
NMTAP	87	192	3
NMTAP	87	288	2
NMTAP	87	288	3
NMTAP	88	0	0
NMTAP	88	0	1
NMTAP	88	96	0
NMTAP	88	96	1
NMTAP	88	192	0
NMTAP	88	192	1
NMTAP	89	0	1
NMTAP	89	96	1
NMTAP	89	192	1
NMTAP	89	288	0
NMTAP	89	288	1
NMTAP	90	0	2
NMTAP	90	96	2
NMTAP	90	192	2
NMTAP	90	288	2
NMTAP	90	288	3
NMTAP	91	0	4
NMTAP	91	96	4
NMTAP	91	192	4
NMTAP	91	288	4
NMTAP	91	288	5
NMTAP	92	0	6
NMTAP	92	0	7
NMTAP	92	96	6
NMTAP	92	96	7
NMTAP	92	192	6
NMTAP	92	192	7
NMSTR	93	0	0
NMSI_	93	0	0	96	288	3
NMSTR	93	0	7
NMSI_	93	0	7	96	288	4
EXTAP	94	192	3
EXTAP	94	192	4
NMTAP	95	0	2
NMTAP	95	96	2
NMTAP	95	192	0
NMTAP	95	192	1
NMTAP	95	288	0
NMTAP	95	288	1
NMTAP	96	0	7
NMTAP	96	96	7
NMTAP	96	192	6
NMTAP	96	192	7
NMTAP	97	0	6
NMTAP	97	96	6
NMTAP	97	192	4
NMTAP	97	192	5
NMTAP	97	288	4
NMTAP	97	288	5
NMTAP	98	0	3
NMTAP	98	96	3
NMTAP	98	192	2
NMTAP	98	192	3
NMTAP	98	288	2
NMTAP	98	288	3
NMTAP	99	0	1
NMTAP	99	96	1
NMTAP	99	192	2
NMTAP	99	192	3
NMTAP	99	288	2
NMTAP	99	288	3
NMTAP	100	0	4
NMTAP	100	96	4
NMTAP	100	192	4
NMTAP	100	192	5
NMTAP	101	0	6
NMTAP	101	96	6
NMTAP	101	192	6
NMTAP	101	192	7
NMTAP	101	288	6
NMTAP	101	288	7
NMTAP	102	0	5
NMTAP	102	96	5
NMTAP	102	192	4
NMTAP	102	192	5
NMTAP	102	288	4
NMTAP	102	288	5
NMTAP	103	0	3
NMTAP	103	96	3
NMTAP	103	192	2
NMTAP	103	192	3
NMTAP	103	288	2
NMTAP	103	288	3
NMTAP	104	0	0
NMTAP	104	0	1
NMTAP	104	96	0
NMTAP	104	96	1
NMTAP	104	192	2
NMTAP	104	192	7
NMTAP	105	0	1
NMTAP	105	96	1
NMTAP	105	192	0
NMTAP	105	192	1
NMTAP	105	288	0
NMTAP	105	288	1
NMTAP	106	0	2
NMTAP	106	96	2
NMTAP	106	192	2
NMTAP	106	192	3
NMTAP	106	288	2
NMTAP	106	288	3
NMTAP	107	0	4
NMTAP	107	96	4
NMTAP	107	192	4
NMTAP	107	192	5
NMTAP	107	288	4
NMTAP	107	288	5
NMTAP	108	0	6
NMTAP	108	0	7
NMTAP	108	96	6
NMTAP	108	96	7
NMTAP	108	192	0
NMTAP	108	192	5
NMSTR	109	0	6
NMSXR	109	0	6	96	480	3
NMSTR	109	0	7
NMSXL	109	0	7	96	480	2
NMTAP	111	0	1
NMTAP	111	96	2
NMTAP	111	192	3
NMTAP	111	288	4
NMTAP	112	0	5
NMTAP	112	96	6
NMTAP	112	192	0
NMTAP	112	192	7
NMTAP	113	0	6
NMTAP	113	96	5
NMTAP	113	192	4
NMTAP	113	288	3
NMTAP	114	0	2
NMTAP	114	96	1
NMTAP	114	192	0
NMTAP	114	192	7
NMTAP	115	0	0
NMTAP	115	96	1
NMTAP	115	192	2
NMTAP	115	288	3
NMTAP	116	0	4
NMTAP	116	96	5
NMTAP	116	192	6
NMTAP	116	288	7
NMTAP	117	0	0
NMTAP	117	96	1
NMTAP	117	192	2
NMTAP	117	288	3
NMTAP	118	0	3
NMTAP	118	0	4
NMTAP	118	96	3
NMTAP	118	96	4
NMTAP	118	192	2
NMTAP	118	192	5
NMTAP	118	288	2
NMTAP	118	288	5
BRTAP	119	0	1
BRTAP	119	0	6

T_REC_TAP	338
T_REC_BRK	2
T_REC_XTP	6
T_REC_BXX	3
T_REC_HLD	21
T_REC_XHO	1
T_REC_BHO	0
T_REC_BXH	0
T_REC_STR	13
T_REC_BST	0
T_REC_XST	0
T_REC_XBS	0
T_REC_TTP	15
T_REC_THO	0
T_REC_SLD	13
T_REC_BSL	0
T_REC_ALL	412
T_NUM_TAP	372
T_NUM_BRK	5
T_NUM_HLD	22
T_NUM_SLD	13
T_NUM_ALL	412
T_JUDGE_TAP	377
T_JUDGE_HLD	104
T_JUDGE_SLD	13
T_JUDGE_ALL	494
TTM_EACHPAIRS	80
TTM_SCR_TAP	186000
TTM_SCR_BRK	13000
TTM_SCR_HLD	22000
TTM_SCR_SLD	19500
TTM_SCR_ALL	240500
TTM_SCR_S	232800
TTM_SCR_SS	240000
TTM_RAT_ACV	10020

