VERSION	0.00.00	1.04.00
FES_MODE	0
BPM_DEF	183.000	183.000	183.000	183.000
MET_DEF	4	4
RESOLUTION	384
CLK_DEF	384
COMPATIBLE_CODE	MA2

BPM	0	0	183.000
MET	0	0	4	4

NMTTP	1	288	3	B	0	M1
NMTTP	1	288	4	B	0	M1
NMTTP	1	288	4	E	0	M1
NMTTP	2	0	6	B	0	M1
NMTTP	2	0	6	E	0	M1
NMHLD	2	96	7	192
NMTTP	2	192	1	B	0	M1
NMTTP	2	192	2	E	0	M1
NMTAP	2	288	0
NMTAP	3	0	3
NMTAP	3	0	4
NMTTP	3	96	0	C	0	M1
NMTTP	3	96	2	B	0	M1
NMTTP	3	96	5	B	0	M1
NMTAP	3	192	1
NMSTR	3	192	6
NMSI_	3	192	6	96	48	2
NMSI_	3	192	6	96	48	3
NMTTP	4	0	6	B	0	M1
NMTTP	4	0	6	E	0	M1
NMHLD	4	96	7	192
NMTTP	4	192	1	B	0	M1
NMTTP	4	192	2	E	0	M1
NMTAP	4	288	0
NMTAP	5	0	3
NMTAP	5	0	4
NMTTP	5	96	0	C	0	M1
NMTTP	5	96	2	B	0	M1
NMTTP	5	96	5	B	0	M1
NMSTR	5	192	1
NMSI_	5	192	1	96	48	3
NMSTR	5	192	6
NMSI_	5	192	6	96	48	4
NMTTP	6	0	6	B	0	M1
NMTTP	6	0	6	E	0	M1
NMHLD	6	96	7	192
NMTTP	6	192	1	B	0	M1
NMTTP	6	192	2	E	0	M1
NMTAP	6	288	0
NMTAP	7	0	3
NMTAP	7	0	4
NMTTP	7	96	0	C	0	M1
NMTTP	7	96	2	B	0	M1
NMTTP	7	96	5	B	0	M1
NMSTR	7	192	1
NMSI_	7	192	1	96	48	4
NMSI_	7	192	1	96	48	5
NMTAP	7	192	6
NMTTP	8	0	6	B	0	M1
NMTTP	8	0	6	E	0	M1
NMHLD	8	96	7	192
NMTTP	8	192	1	B	0	M1
NMTTP	8	192	2	E	0	M1
NMTAP	8	288	0
NMTAP	9	0	3
NMTAP	9	0	4
NMTTP	9	96	0	C	0	M1
NMTTP	9	96	2	B	0	M1
NMTTP	9	96	5	B	0	M1
BRTAP	9	192	0
BRTAP	9	192	6
BRSTR	9	288	1
NMSI_	9	288	1	96	24	3
BRTAP	9	288	7
EXTAP	10	0	0
CNSCR	10	24	3	0	24	4
CNSI_	10	48	4	0	48	7
EXTAP	10	96	0
NMTAP	10	192	1
NMTAP	10	192	7
NMSTR	10	240	1
NMSI_	10	240	1	96	48	5
NMTAP	10	240	7
NMSTR	10	336	6
NMSI_	10	336	6	96	48	3
NMSTR	11	48	2
NMSCL	11	48	2	96	48	7
NMTAP	11	144	4
NMTAP	11	192	4
NMSTR	11	288	6
NMSUR	11	288	6	96	48	3
NMSTR	11	288	7
NMSI_	11	288	7	96	48	4
EXTAP	12	96	0
NMTAP	12	192	2
NMTAP	12	192	4
NMTAP	12	240	3
NMTAP	12	240	5
NMTAP	12	288	3
NMTAP	12	288	5
NMSTR	13	0	6
NMSCL	13	0	6	96	48	3
NMSTR	13	0	7
NMSUL	13	0	7	96	48	2
NMTAP	13	192	1
NMSTR	13	288	0
NMSXR	13	288	0	96	96	0
NMSTR	14	0	0
NMSCR	14	0	0	96	48	2
EXTAP	14	192	4
EXTAP	14	240	4
NMSTR	14	336	5
NMSI_	14	336	5	96	48	0
NMTAP	15	48	3
NMSTR	15	96	2
NMSI_	15	96	2	96	48	7
NMTAP	15	192	4
NMSTR	15	288	1
NMSCL	15	288	1	96	48	7
NMSTR	15	288	5
NMSCL	15	288	5	96	48	3
EXTAP	16	96	0
EXTAP	16	96	4
NMTAP	16	192	2
NMTAP	16	240	1
NMSTR	16	288	1
NMSXR	16	288	1	96	192	5
NMTAP	17	0	5
NMTAP	17	96	3
NMTAP	17	192	4
NMTAP	17	288	3
NMTAP	17	288	5
NMHLD	18	0	4	96
NMHLD	18	0	6	96
NMHLD	18	192	2	48
NMHLD	18	240	4	48
NMHLD	18	288	1	48
NMTAP	18	336	3
EXTAP	19	0	0
EXTAP	19	0	6
NMSTR	19	96	5
NMSV_	19	96	5	96	48	3
NMTAP	19	192	2
CNSI_	19	240	3	0	48	1
NMHLD	19	288	0	96
NMTAP	20	0	3
NMSTR	20	96	4
NMSI_	20	96	4	96	48	6
NMSI_	20	96	4	96	48	7
NMSTR	20	192	4
NMSI_	20	192	4	96	48	1
NMSI_	20	192	4	96	48	2
EXTAP	21	0	0
NMTAP	21	96	2
NMTAP	21	96	7
BXTAP	21	192	3
BXTAP	21	192	6
BXTAP	21	240	3
BXTAP	21	240	6
BXTAP	21	288	3
BXTAP	21	288	6
NMTAP	22	0	1
NMTAP	22	0	4
EXSTR	22	96	2
NMSI_	22	96	2	96	72	0
EXSTR	22	96	3
NMSI_	22	96	3	96	72	7
EXTAP	22	144	2
EXTAP	22	144	3
CNSI_	22	264	0	0	72	2
CNSI_	22	264	7	0	72	3
EXTAP	23	0	4
EXSTR	23	96	4
NMSI_	23	96	4	96	72	0
EXSTR	23	96	5
NMSI_	23	96	5	96	72	7
EXTAP	23	144	4
EXTAP	23	144	5
CNSI_	23	264	0	0	72	4
CNSI_	23	264	7	0	72	5
NMSTR	24	0	3
NMSI_	24	0	3	96	48	0
NMTAP	24	96	5
NMSTR	24	192	7
NMSI_	24	192	7	96	48	4
NMTAP	24	288	1
NMSTR	25	0	0
NMSV_	25	0	0	96	48	3
NMSTR	25	0	6
NMSV_	25	0	6	96	48	3
NMSTR	25	96	0
NMSI_	25	96	0	96	48	2
NMSTR	25	96	6
NMSI_	25	96	6	96	48	4
BXTAP	25	288	1
BXSTR	25	288	5
NMSUL	25	288	5	96	192	2
NMTAP	26	0	0
NMTAP	26	96	1
NMTAP	26	192	1
NMSTR	26	288	0
NMSI_	26	288	0	96	48	3
NMSTR	26	288	5
NMSCL	26	288	5	96	48	3
EXTAP	27	96	2
EXTAP	27	96	4
NMTTP	27	192	3	E	0	M1
NMTTP	27	240	5	B	0	M1
NMTTP	27	288	1	B	0	M1
NMTTP	27	336	7	E	0	M1
NMTAP	28	0	0
NMTAP	28	48	0
NMSTR	28	96	7
NMSCL	28	96	7	96	96	3
NMSCR	28	96	7	96	96	3
NMTAP	29	0	2
NMTAP	29	0	4
NMTAP	29	48	2
NMTAP	29	48	4
EXSTR	29	96	1
NMSV_	29	96	1	96	96	7
EXSTR	29	96	5
NMSV_	29	96	5	96	96	3
NMSTR	30	0	0
NMSI_	30	0	0	96	48	4
NMSV_	30	0	0	96	48	2
NMTAP	30	192	3
NMTAP	30	240	3
NMTAP	30	288	2
NMTAP	30	288	4
NMSTR	31	0	0
NMSI_	31	0	0	96	48	4
NMSTR	31	0	6
NMSI_	31	0	6	96	48	1
CNSI_	31	144	1	0	48	3
NMTAP	31	192	5
NMTAP	31	240	5
NMTAP	31	288	4
NMTAP	31	288	6
NMSTR	32	0	6
NMSCL	32	0	6	96	48	3
NMSTR	32	0	7
NMSCR	32	0	7	96	48	2
NMSTR	32	192	0
NMSCL	32	192	0	96	48	5
NMSTR	32	192	1
NMSCR	32	192	1	96	48	4
NMTAP	33	0	3
NMTAP	33	0	6
NMSTR	33	96	4
BRSF_	33	96	4	96	96	0
NMTTP	33	192	4	B	1	M1
NMTTP	33	192	4	E	0	M1
NMTTP	33	192	5	E	0	M1
NMSTR	34	0	6
NMSI_	34	0	6	96	768	3
NMSTR	34	0	7
NMSI_	34	0	7	96	192	4
CNSCR	34	288	4	0	192	5
CNSUR	35	96	5	0	192	2
CNSV_	35	288	2	0	192	1
EXSTR	36	288	2
NMSI_	36	288	2	96	48	6
EXTAP	36	288	4
NMSTR	37	0	5
NMSI_	37	0	5	96	48	1
NMTAP	37	96	4
NMSTR	37	144	3
NMSCL	37	144	3	96	48	0
NMTTP	37	240	5	E	0	M1
NMTTP	37	288	4	E	1	M1
NMTAP	38	48	7
NMHLD	38	96	7	96
NMSTR	38	192	4
NMSCR	38	192	4	96	192	3
NMTTP	38	288	0	E	1	M1
NMTAP	39	192	1
NMTAP	39	192	3
NMTAP	39	240	1
NMTAP	39	240	3
NMTAP	39	336	0
NMTAP	39	336	4
BRTAP	40	0	0
NMTAP	40	0	4
BRTAP	40	96	1
NMSTR	40	96	3
NMSI_	40	96	3	96	48	7
BRTAP	40	192	2
NMTAP	40	240	1
BXSTR	40	288	0
NMSI_	40	288	0	96	48	2
BXSTR	41	0	0
NMSI_	41	0	0	96	48	4
BXSTR	41	96	0
NMSI_	41	96	0	96	48	3
BXSTR	41	192	0
NMSI_	41	192	0	96	48	5
BXSTR	41	288	0
NMSCR	41	288	0	96	96	4
NMTAP	42	0	6
NMTAP	42	48	7
NMTAP	42	96	7
NMTAP	42	192	3
NMTAP	42	192	6
NMHLD	42	240	3	96
NMHLD	42	240	6	96
NMSTR	43	0	7
NMSLL	43	0	7	96	96	2
NMSTR	43	96	2
NMSCL	43	96	2	96	96	6
NMSTR	43	192	6
NMSI_	43	192	6	96	48	0
NMSTR	43	288	3
NMSCR	43	288	3	96	96	7
CNSV_	43	336	0	0	48	3
NMSTR	44	0	7
NMSI_	44	0	7	96	96	2
NMSTR	44	96	2
NMSSL	44	96	2	96	96	6
EXTAP	44	192	6
EXTAP	44	288	0
EXTAP	44	336	0
NMSTR	45	96	0
NMSI_	45	96	0	96	48	2
NMSTR	45	96	7
NMSI_	45	96	7	96	48	3
EXSTR	45	288	3
NMSCL	45	288	3	96	48	0
NMSCR	45	288	3	96	48	6
NMTTP	46	0	3	A	1	M1
NMTTP	46	0	3	D	0	M1
NMTTP	46	0	4	D	0	M1
EXTAP	46	96	1
EXTAP	46	96	5
EXSTR	46	144	1
NMSI_	46	144	1	96	48	6
EXSTR	46	144	5
NMSI_	46	144	5	96	48	2
NMHLD	46	336	0	96
NMTAP	47	48	3
NMSTR	47	96	3
NMSLR	47	96	3	96	96	7
NMSTR	47	192	7
NMSLR	47	192	7	96	96	3
NMTAP	47	288	3
NMTAP	48	0	7
NMTAP	48	48	7
NMTAP	48	96	4
NMTAP	48	144	5
NMTAP	48	192	3
NMTAP	48	240	2
NMTAP	48	288	5
NMTAP	48	336	6
NMSTR	49	0	1
NMSI_	49	0	1	96	48	4
NMSTR	49	0	7
NMSI_	49	0	7	96	48	4
NMTAP	49	96	1
NMTAP	49	96	7
NMTAP	49	192	3
NMTAP	49	192	5
NMTAP	49	240	3
NMTAP	49	240	5
NMTAP	49	288	2
NMTAP	49	288	4
NMTAP	49	336	2
NMTAP	49	336	4
NMSTR	50	48	0
NMSSL	50	48	0	96	96	4
NMHLD	50	48	1	96
NMSTR	50	336	2
NMSI_	50	336	2	96	48	7
NMSTR	50	336	3
NMSI_	50	336	3	96	48	7
NMSTR	51	144	4
NMSI_	51	144	4	96	48	0
NMSTR	51	144	5
NMSI_	51	144	5	96	48	0
NMTAP	51	336	2
NMTAP	51	336	3
NMTAP	52	48	1
NMTAP	52	48	5
NMSTR	52	96	1
NMSI_	52	96	1	96	48	6
NMSTR	52	96	5
NMSI_	52	96	5	96	48	2
BRTAP	52	192	1
BRTAP	52	192	5
BRTAP	52	288	0
BRTAP	52	288	4
NMSTR	53	0	1
NMSV_	53	0	1	96	48	4
NMSTR	53	0	7
NMSV_	53	0	7	96	48	4
NMSTR	53	192	3
NMSI_	53	192	3	96	48	0
NMSCL	53	192	3	96	48	0
EXTAP	54	0	7
NMTAP	54	96	0
NMTAP	54	96	6
NMSTR	54	144	0
NMSCR	54	144	0	96	48	3
NMSTR	54	144	6
NMSCL	54	144	6	96	48	3
EXTAP	54	240	0
EXTAP	54	240	6
NMSTR	54	336	5
NMSI_	54	336	5	96	48	2
NMTAP	55	48	3
CNSI_	55	96	2	0	48	0
NMHLD	55	96	3	240
CNSCL	55	144	0	0	48	6
CNSV_	55	192	6	0	96	4
EXTAP	55	336	5
NMTAP	56	48	0
NMTAP	56	48	6
NMSTR	56	96	0
BRSI_	56	96	0	96	48	4
NMSTR	56	96	6
BRSI_	56	96	6	96	48	2
NMTAP	56	288	1
NMSTR	56	288	3
NMSI_	56	288	3	96	48	6
NMSTR	57	0	0
NMSI_	57	0	0	96	48	5
NMSTR	57	96	4
NMSI_	57	96	4	96	48	1
NMSTR	57	192	7
NMSI_	57	192	7	96	48	2
NMSTR	57	288	3
NMSXL	57	288	3	96	96	2
EXTAP	58	0	1
NMSTR	58	96	0
NMSI_	58	96	0	96	48	3
NMSI_	58	96	0	96	48	5
EXSTR	58	288	4
NMSI_	58	288	4	96	48	1
EXTAP	58	288	6
NMSTR	59	0	7
NMSI_	59	0	7	96	48	2
NMSTR	59	96	3
NMSI_	59	96	3	96	48	6
NMSTR	59	192	0
NMSI_	59	192	0	96	48	5
NMTAP	59	288	4
NMTAP	60	0	4
NMTAP	60	48	5
NMTAP	60	96	6
NMSTR	60	144	7
NMSI_	60	144	7	96	48	4
NMSTR	60	192	0
NMSCR	60	192	0	96	48	3
BXTAP	60	240	7
BXTAP	60	288	0
NMHLD	61	0	5	96
NMSTR	61	96	7
NMSUL	61	96	7	96	96	2
EXTAP	61	192	0
EXTAP	61	288	1
NMTAP	62	0	2
NMTAP	62	0	3
NMSTR	62	96	0
NMSUR	62	96	0	96	96	5
NMSTR	62	96	1
NMSCR	62	96	1	96	96	4
EXTAP	62	192	0
EXTAP	62	192	1
NMHLD	62	336	6	96
NMTAP	63	48	4
NMTAP	63	96	4
NMTAP	63	192	0
NMTAP	63	192	7
NMSTR	63	288	2
NMSI_	63	288	2	96	48	7
NMSTR	63	288	3
NMSI_	63	288	3	96	48	6
EXTAP	64	0	2
EXTAP	64	0	3
BRTAP	64	96	0
BRTAP	64	96	5
NMTAP	64	240	2
NMTAP	64	240	6
NMTAP	64	288	2
NMTAP	64	288	6
NMTAP	65	0	3
NMTAP	65	0	5
NMTAP	65	96	7
NMTAP	65	144	7
NMTAP	65	192	2
NMTAP	65	288	0
NMTAP	65	336	0
NMTAP	66	0	6
NMTAP	66	96	3
NMTAP	66	96	4
NMTAP	66	192	2
NMTAP	66	192	5
NMTAP	66	240	3
NMTAP	66	264	4
NMTAP	66	288	3
NMTAP	66	336	2
NMHLD	67	0	1	48
NMHLD	67	0	3	48
NMHLD	67	96	3	48
NMHLD	67	96	4	48
NMHLD	67	192	4	48
NMHLD	67	192	6	48
NMSTR	67	288	0
NMSI_	67	288	0	96	48	3
NMSTR	67	288	7
NMSI_	67	288	7	96	48	4
NMTAP	68	0	0
NMTAP	68	0	7
NMTTP	68	96	1	E	0	M1
NMTTP	68	96	1	A	0	M1
NMTTP	68	96	6	A	0	M1
NMTTP	68	96	7	E	0	M1
NMTTP	68	192	3	B	0	M1
NMTTP	68	192	3	E	0	M1
NMTTP	68	192	4	B	0	M1
NMTTP	68	192	5	E	0	M1

T_REC_TAP	140
T_REC_BRK	12
T_REC_XTP	35
T_REC_BXX	9
T_REC_HLD	24
T_REC_XHO	0
T_REC_BHO	0
T_REC_BXH	0
T_REC_STR	89
T_REC_BST	1
T_REC_XST	11
T_REC_XBS	6
T_REC_TTP	52
T_REC_THO	0
T_REC_SLD	113
T_REC_BSL	3
T_REC_ALL	495
T_NUM_TAP	327
T_NUM_BRK	31
T_NUM_HLD	24
T_NUM_SLD	113
T_NUM_ALL	495
T_JUDGE_TAP	355
T_JUDGE_HLD	50
T_JUDGE_SLD	116
T_JUDGE_ALL	521
TTM_EACHPAIRS	95
TTM_SCR_TAP	163500
TTM_SCR_BRK	80600
TTM_SCR_HLD	24000
TTM_SCR_SLD	169500
TTM_SCR_ALL	437600
TTM_SCR_S	421500
TTM_SCR_SS	434500
TTM_RAT_ACV	10071

