VERSION	0.00.00	1.04.00
FES_MODE	0
BPM_DEF	183.000	183.000	183.000	183.000
MET_DEF	4	4
RESOLUTION	384
CLK_DEF	384
COMPATIBLE_CODE	MA2

BPM	0	0	183.000
MET	0	0	4	4
MET	34	0	4	3
MET	37	0	4	4

EXTAP	1	288	3
EXTAP	1	288	4
NMTAP	2	0	5
NMTAP	2	96	4
NMTAP	2	96	5
NMTAP	2	192	2
NMTAP	2	288	2
NMTAP	2	288	3
NMTAP	3	0	2
NMTAP	3	0	5
NMTAP	3	96	3
NMTAP	3	96	4
NMTAP	3	192	2
NMTAP	3	192	5
NMTAP	4	0	5
NMTAP	4	96	4
NMTAP	4	96	5
NMTAP	4	192	2
NMTAP	4	288	2
NMTAP	4	288	3
NMTAP	5	0	2
NMTAP	5	0	5
NMTAP	5	96	3
NMTAP	5	96	4
NMTAP	5	192	1
NMTAP	5	192	6
NMTAP	6	0	6
NMTAP	6	96	4
NMTAP	6	96	6
NMTAP	6	192	1
NMTAP	6	288	1
NMTAP	6	288	3
NMTAP	7	0	2
NMTAP	7	0	5
NMTAP	7	96	3
NMTAP	7	96	4
NMTAP	7	192	1
NMTAP	7	192	6
NMTAP	8	0	5
NMTAP	8	96	4
NMTAP	8	96	6
NMTAP	8	192	2
NMTAP	8	288	1
NMTAP	8	288	3
NMTAP	9	0	1
NMTAP	9	0	6
NMTAP	9	96	3
NMTAP	9	96	4
NMTAP	9	192	2
NMTAP	9	192	5
BRTAP	9	288	0
BRTAP	9	288	7
NMTAP	10	0	1
NMTAP	10	96	0
NMTAP	10	96	1
NMTAP	10	192	6
NMHLD	10	240	6	96
NMTAP	10	336	7
NMHLD	11	48	0	96
NMTAP	11	144	7
NMTAP	11	240	0
NMTAP	11	240	6
NMTAP	11	288	0
NMTAP	11	288	6
NMTAP	12	0	5
NMTAP	12	96	6
NMTAP	12	96	7
NMTAP	12	192	1
NMHLD	12	240	1	96
NMTAP	12	336	0
NMHLD	13	48	7	96
NMTAP	13	144	0
NMTAP	13	240	1
NMTAP	13	240	7
NMTAP	13	288	1
NMTAP	13	288	7
NMTAP	14	0	2
NMTAP	14	96	2
NMTAP	14	96	3
NMTAP	14	192	5
NMHLD	14	240	5	96
NMTAP	14	336	4
NMHLD	15	48	2	96
NMTAP	15	144	3
NMTAP	15	240	1
NMTAP	15	240	4
NMTAP	15	288	1
NMTAP	15	288	4
NMTAP	16	0	0
NMTAP	16	96	1
NMTAP	16	96	7
NMTAP	16	192	2
NMTAP	16	192	6
NMTAP	16	240	2
NMTAP	16	240	6
NMTAP	16	336	1
NMTAP	16	336	3
NMTAP	17	48	4
NMTAP	17	48	6
NMTAP	17	144	3
NMTAP	17	144	4
NMTAP	17	192	3
NMTAP	17	192	4
BRTAP	17	288	2
BRTAP	17	288	5
NMTAP	18	0	1
NMHLD	18	96	1	192
NMTTP	18	192	3	E	0	M1
NMTTP	18	288	4	E	0	M1
NMTAP	19	0	6
NMHLD	19	96	6	192
NMTTP	19	192	5	E	0	M1
NMTTP	19	288	4	E	0	M1
NMTAP	20	0	2
NMHLD	20	96	2	192
NMTTP	20	192	6	A	0	M1
NMTTP	20	288	7	A	0	M1
NMTAP	21	0	0
NMSTR	21	96	0
NMSUL	21	96	0	96	96	4
NMSUR	21	96	0	96	96	4
NMTAP	22	0	5
NMTAP	22	96	4
NMTAP	22	192	2
NMTAP	22	288	1
NMTAP	22	288	3
NMTAP	23	0	2
NMTAP	23	96	3
NMTAP	23	192	5
NMTAP	23	288	4
NMTAP	23	288	6
NMSTR	24	0	5
NMSCR	24	0	5	96	48	7
NMSTR	24	192	2
NMSCL	24	192	2	96	48	0
NMTAP	25	0	7
NMSTR	25	96	0
NMSI_	25	96	0	96	48	4
NMSTR	25	96	7
NMSI_	25	96	7	96	48	3
NMTAP	26	0	2
NMTAP	26	96	0
NMTAP	26	96	1
NMTAP	26	192	7
NMTAP	26	288	6
NMTAP	26	288	7
NMTAP	27	0	5
NMTAP	27	96	6
NMTAP	27	96	7
NMTAP	27	192	0
NMTAP	27	288	0
NMSTR	27	288	1
NMSCL	27	288	1	96	288	2
NMSTR	29	0	6
NMSI_	29	0	6	96	48	2
NMSTR	29	192	0
NMSI_	29	192	0	96	48	4
NMTAP	30	0	5
NMSTR	30	96	4
NMSI_	30	96	4	96	48	0
NMSTR	30	96	6
NMSI_	30	96	6	96	48	0
NMTAP	31	0	2
NMSTR	31	96	1
BRSI_	31	96	1	96	48	7
NMSTR	31	96	3
BRSI_	31	96	3	96	48	7
NMTAP	32	0	6
NMTAP	32	48	6
NMTAP	32	96	7
NMTAP	32	192	1
NMTAP	32	240	1
NMTAP	32	288	0
NMTAP	33	0	2
NMTAP	33	0	3
NMSTR	33	96	3
NMSCL	33	96	3	96	48	0
NMSTR	33	96	4
NMSCR	33	96	4	96	48	7
NMTTP	34	0	1	B	0	M1
NMTTP	34	0	2	B	0	M1
NMTTP	34	0	2	E	0	M1
NMTTP	34	288	5	B	0	M1
NMTTP	34	288	6	B	0	M1
NMTTP	34	288	6	E	0	M1
NMTTP	35	192	0	B	0	M1
NMTTP	35	192	0	E	0	M1
NMTTP	35	192	7	B	0	M1
NMTTP	36	96	3	E	0	M1
NMTTP	36	96	4	E	0	M1
NMTTP	36	96	5	E	0	M1
EXHLD	37	0	4	96
EXHLD	37	0	6	96
EXHLD	37	144	3	96
EXHLD	37	144	4	96
EXTAP	37	288	1
EXTAP	37	288	3
NMTAP	38	48	2
NMHLD	38	96	2	96
NMSTR	38	192	4
NMSUL	38	192	4	96	216	3
CNSCL	39	120	3	0	264	5
EXTAP	40	0	0
EXTAP	40	96	1
EXTAP	40	192	2
BRTAP	41	0	0
BRTAP	41	0	1
NMTAP	41	96	2
NMTAP	41	96	3
NMTAP	41	192	4
NMTAP	41	192	5
NMTAP	41	288	6
NMTAP	41	288	7
NMHLD	42	0	1	96
NMTAP	42	96	0
NMTAP	42	192	2
NMTAP	42	192	7
NMTAP	42	240	2
NMTAP	42	240	7
NMTAP	42	336	6
NMTAP	43	0	6
NMTAP	43	48	6
NMTAP	43	48	7
NMTAP	43	144	1
NMTAP	43	192	1
NMTAP	43	240	0
NMTAP	43	240	1
NMTAP	43	336	2
NMTAP	43	336	3
NMTAP	44	48	0
NMTAP	44	48	1
NMTAP	44	96	0
NMTAP	44	96	1
NMTAP	44	192	6
NMTAP	44	192	7
BRTAP	44	288	0
BRTAP	44	288	5
NMHLD	45	96	1	96
NMHLD	45	192	7	96
NMHLD	45	288	5	96
NMHLD	46	0	3	96
NMTAP	46	96	2
NMTAP	46	144	2
NMTAP	46	240	1
NMTAP	46	240	3
NMTAP	46	336	0
NMTAP	47	48	1
NMTAP	47	48	7
NMTAP	47	96	1
NMTAP	47	96	7
NMSTR	47	192	0
NMSXL	47	192	0	96	288	3
NMSTR	47	192	6
NMSXR	47	192	6	96	288	3
EXTAP	48	288	1
EXTAP	48	288	5
BRTAP	49	0	6
BRTAP	49	0	7
NMTAP	49	96	4
NMTAP	49	96	5
NMTAP	49	192	2
NMTAP	49	192	3
NMTAP	49	288	0
NMTAP	49	288	1
NMHLD	50	0	6	96
NMTAP	50	96	7
NMTAP	50	192	0
NMTAP	50	192	5
NMTAP	50	240	0
NMTAP	50	240	5
NMTAP	50	336	1
NMTAP	51	0	1
NMTAP	51	48	0
NMTAP	51	48	1
NMTAP	51	144	6
NMTAP	51	192	6
NMTAP	51	240	6
NMTAP	51	240	7
NMTAP	51	336	4
NMTAP	51	336	5
NMTAP	52	48	1
NMTAP	52	48	7
NMTAP	52	96	1
NMTAP	52	96	7
NMTAP	52	192	2
NMTAP	52	192	3
BRTAP	52	288	1
BRTAP	52	288	5
NMHLD	53	96	6	96
NMHLD	53	192	0	96
NMHLD	53	288	2	96
NMHLD	54	0	4	96
NMTAP	54	96	5
NMTAP	54	144	5
NMTAP	54	240	4
NMTAP	54	240	5
NMTAP	54	336	6
NMTAP	55	48	6
NMTAP	55	48	7
NMSTR	55	96	6
NMSCL	55	96	6	96	96	3
NMSTR	55	96	7
NMSCR	55	96	7	96	96	2
EXTAP	55	336	1
NMTAP	56	48	0
NMTAP	56	48	1
NMSTR	56	96	0
NMSI_	56	96	0	96	96	4
NMSTR	56	96	1
NMSI_	56	96	1	96	96	5
NMTAP	57	0	3
NMTAP	57	0	6
NMTAP	57	96	7
NMTAP	57	192	2
NMTAP	57	192	3
NMTAP	57	288	0
NMTAP	58	0	1
NMTAP	58	0	3
NMSTR	58	96	1
NMSXR	58	96	1	96	96	7
NMSTR	58	96	3
NMSCR	58	96	3	96	96	6
NMHLD	59	0	0	96
NMHLD	59	96	6	96
NMHLD	59	192	4	96
NMHLD	59	288	2	96
NMHLD	60	0	0	96
NMTAP	60	96	7
NMTAP	60	144	7
BRTAP	60	240	1
BRTAP	60	240	6
BRTAP	60	288	1
BRTAP	60	288	6
NMTAP	61	0	2
NMTAP	61	48	2
NMTAP	61	96	2
NMTAP	61	96	7
NMTAP	61	192	5
NMTAP	61	240	5
NMTAP	61	288	0
NMTAP	61	288	5
NMTTP	62	0	1	B	0	M1
NMTTP	62	0	1	A	0	M1
NMTTP	62	0	6	B	0	M1
NMTTP	62	0	6	A	0	M1
NMTTP	62	96	3	B	0	M1
NMTTP	62	96	4	B	0	M1
NMTTP	62	96	4	E	0	M1
NMTTP	62	192	0	C	1	M1
EXHLD	62	336	0	96
EXTAP	63	48	7
EXTAP	63	96	7
NMTAP	63	192	4
NMTAP	63	192	6
NMTAP	63	288	1
NMTAP	63	288	3
NMTAP	64	0	0
NMTAP	64	0	7
NMTAP	64	96	4
NMTAP	64	96	6
BRTAP	64	192	3
BRTAP	64	192	7
NMHLD	65	0	4	96
NMTAP	65	0	5
NMTAP	65	96	7
NMTAP	65	192	2
NMHLD	65	192	3	96
NMTAP	65	288	0
NMTAP	66	0	1
NMTAP	66	0	6
NMTAP	66	96	3
NMTAP	66	96	4
NMTAP	66	192	2
NMTAP	66	192	5
NMTAP	67	0	4
NMHLD	67	0	5	96
NMTAP	67	96	7
NMHLD	67	192	2	96
NMTAP	67	192	3
NMTAP	67	288	0
NMTAP	68	0	0
NMTAP	68	0	7
NMTAP	68	96	3
NMTAP	68	96	4
NMTTP	68	192	0	B	0	M1
NMTTP	68	192	0	C	1	M1
NMTTP	68	192	1	B	0	M1
NMTTP	68	192	6	B	0	M1
NMTTP	68	192	7	B	0	M1

T_REC_TAP	246
T_REC_BRK	18
T_REC_XTP	12
T_REC_BXX	0
T_REC_HLD	29
T_REC_XHO	5
T_REC_BHO	0
T_REC_BXH	0
T_REC_STR	23
T_REC_BST	0
T_REC_XST	0
T_REC_XBS	0
T_REC_TTP	31
T_REC_THO	0
T_REC_SLD	22
T_REC_BSL	2
T_REC_ALL	388
T_NUM_TAP	312
T_NUM_BRK	20
T_NUM_HLD	34
T_NUM_SLD	22
T_NUM_ALL	388
T_JUDGE_TAP	330
T_JUDGE_HLD	74
T_JUDGE_SLD	24
T_JUDGE_ALL	428
TTM_EACHPAIRS	111
TTM_SCR_TAP	156000
TTM_SCR_BRK	52000
TTM_SCR_HLD	34000
TTM_SCR_SLD	33000
TTM_SCR_ALL	275000
TTM_SCR_S	264850
TTM_SCR_SS	273000
TTM_RAT_ACV	10073

