VERSION	0.00.00	1.04.00
FES_MODE	0
BPM_DEF	120.000	120.000	120.000	120.000
MET_DEF	4	4
RESOLUTION	384
CLK_DEF	384
COMPATIBLE_CODE	MA2

BPM	0	0	120.000
MET	0	0	4	4

NMSTR	1	0	1
NMSUL	1	0	1	96	48	5
CNSCL	1	144	5	0	48	4
CNSV_	1	192	4	0	384	1
NMTAP	2	288	3
NMTAP	2	288	4
NMHLD	3	0	3	288
NMHLD	3	0	5	384
NMHLD	4	0	4	72
NMHLD	4	72	3	72
NMHLD	4	144	2	96
NMTAP	4	240	4
NMTAP	4	288	2
NMTAP	4	288	4
NMTAP	5	0	3
NMHLD	5	0	5	384
NMTAP	5	192	4
NMTAP	5	240	3
NMTAP	5	288	3
NMHLD	6	0	4	72
NMHLD	6	72	3	72
NMTAP	6	144	2
NMTAP	6	192	1
NMTAP	6	192	5
NMTAP	6	272	0
NMSTR	6	288	7
NMSI_	6	288	7	96	48	2
NMTAP	6	336	7
BRTAP	7	0	1
NMTAP	7	0	7
NMTAP	7	80	5
NMSTR	7	96	4
NMSI_	7	96	4	96	48	0
NMTAP	7	144	4
NMTAP	7	192	7
NMTAP	7	272	6
NMTAP	7	288	7
NMTAP	7	336	0
NMTAP	7	336	5
NMTAP	8	0	4
NMTAP	8	48	3
NMTAP	8	48	5
NMSTR	8	96	2
NMSCL	8	96	2	96	48	7
NMTAP	8	144	7
NMHLD	8	192	6	144
NMTAP	8	288	5
NMTAP	8	336	3
NMTAP	9	0	1
NMTAP	9	0	5
NMTAP	9	48	2
NMTAP	9	80	2
NMTAP	9	96	3
NMTAP	9	144	5
NMTAP	9	176	5
NMTAP	9	192	4
NMTAP	9	240	3
NMTAP	9	240	6
NMTAP	9	288	4
NMTAP	9	288	5
NMTAP	9	336	2
NMTAP	9	368	2
NMTAP	10	0	3
NMTAP	10	32	3
NMTAP	10	48	1
NMTAP	10	80	1
NMSTR	10	96	4
NMSI_	10	96	4	96	48	1
NMSI_	10	96	4	96	48	7
NMTAP	10	144	2
NMTAP	10	144	6
NMSTR	10	288	6
NMSI_	10	288	6	96	48	3
NMTAP	10	320	6
NMTAP	10	336	7
NMHLD	11	0	2	80
NMTAP	11	80	0
NMSTR	11	96	1
NMSI_	11	96	1	96	48	4
NMTAP	11	144	4
NMHLD	11	192	5	80
NMTAP	11	272	7
NMTAP	11	288	6
NMTAP	11	336	0
NMTAP	11	336	5
NMHLD	12	0	1	72
NMTAP	12	0	4
NMHLD	12	72	2	72
NMSTR	12	144	3
NMSCL	12	144	3	96	48	0
NMTAP	12	192	1
NMTAP	12	192	7
NMSTR	12	240	6
NMSI_	12	240	6	96	48	2
NMTAP	12	336	6
NMHLD	13	0	0	72
NMHLD	13	72	1	72
NMTAP	13	144	2
NMTAP	13	192	4
NMTAP	13	192	6
NMTAP	13	240	3
NMTAP	13	240	5
NMTAP	13	272	2
NMTAP	13	288	3
NMTAP	13	320	3
NMHLD	13	336	1	48
NMTAP	14	0	0
NMTAP	14	32	0
NMTAP	14	48	2
NMTAP	14	80	2
NMTAP	14	96	4
NMTAP	14	128	4
NMTAP	14	144	0
NMTTP	14	192	0	C	1	M1
NMHLD	14	192	6	96
NMTAP	14	288	0
NMTAP	14	336	1
NMTAP	14	336	7
NMSTR	15	0	2
NMSXL	15	0	2	96	192	5
NMTAP	15	0	6
NMTTP	15	96	7	E	0	M1
NMTTP	15	192	1	E	0	M1
NMTTP	15	288	0	E	0	M1
NMSTR	16	0	6
NMSXL	16	0	6	96	192	1
NMTTP	16	96	3	E	0	M1
NMTTP	16	192	5	E	0	M1
NMTTP	16	288	4	E	0	M1
NMSTR	17	0	2
NMSXL	17	0	2	96	192	5
NMTTP	17	96	7	E	0	M1
NMTTP	17	192	1	E	0	M1
NMSTR	17	288	7
NMSCL	17	288	7	96	192	0
NMTTP	18	0	0	C	0	M1
NMSTR	18	192	3
NMSI_	18	192	3	96	48	0
NMTTP	18	288	0	C	0	M1
NMSTR	19	0	0
NMSI_	19	0	0	96	48	2
NMTTP	19	96	3	E	0	M1
CNSCR	19	144	2	0	48	3
CNSI_	19	192	3	0	48	5
NMTTP	19	192	7	E	0	M1
CNSI_	19	240	5	0	48	3
NMTTP	19	288	0	C	0	M1
CNSCL	19	288	3	0	48	2
CNSI_	19	336	2	0	48	0
NMSTR	20	0	7
NMSI_	20	0	7	96	48	5
NMTTP	20	96	5	E	0	M1
CNSCL	20	144	5	0	48	4
NMTTP	20	192	1	E	0	M1
CNSI_	20	192	4	0	48	2
CNSI_	20	240	2	0	48	4
NMTTP	20	288	0	C	0	M1
CNSCR	20	288	4	0	48	5
CNSI_	20	336	5	0	48	7
NMSTR	21	0	0
NMSV_	21	0	0	96	48	7
NMSTR	21	96	6
NMSUL	21	96	6	96	48	1
NMSTR	21	192	2
NMSCR	21	192	2	96	48	5
NMTAP	22	0	0
NMTAP	22	48	1
NMTAP	22	96	2
NMTAP	22	144	3
NMTAP	22	192	4
NMTAP	22	192	5
NMTAP	22	240	6
NMTAP	22	240	7
NMSTR	22	288	0
NMSSL	22	288	0	96	96	4
NMTAP	22	288	1
NMTAP	22	336	2
NMTAP	22	336	3
NMTAP	23	176	1
NMTAP	23	192	3
NMTAP	23	224	3
NMTAP	23	240	2
NMTAP	23	272	6
NMTAP	23	288	4
NMSTR	23	320	4
NMSCL	23	320	4	96	96	5
NMTAP	23	336	5
NMTAP	23	368	3
NMTAP	23	368	6
NMHLD	24	32	2	64
NMTAP	24	144	1
NMTAP	24	192	0
NMTAP	24	192	4
NMTAP	24	288	2
NMSTR	24	288	7
NMSI_	24	288	7	96	48	3
NMSTR	24	336	1
NMSI_	24	336	1	96	48	3
NMSTR	25	0	7
NMSI_	25	0	7	96	48	5
NMSTR	25	48	1
NMSI_	25	48	1	96	48	5
NMSTR	25	96	7
NMSCR	25	96	7	96	96	6
NMTAP	25	144	1
NMTAP	25	192	7
NMTAP	25	288	0
NMTAP	25	336	0
NMTAP	26	0	4
NMSTR	26	0	7
NMSI_	26	0	7	96	48	3
NMTAP	26	48	2
NMTAP	26	96	0
NMTAP	26	96	7
NMTAP	26	176	1
NMTAP	26	192	3
NMTAP	26	224	3
NMTAP	26	240	5
NMTAP	26	272	5
NMTAP	26	288	7
NMTAP	26	320	1
NMTAP	26	336	0
NMTAP	26	368	0
NMSTR	27	0	1
NMSI_	27	0	1	96	48	6
NMSTR	27	48	6
NMSI_	27	48	6	96	48	1
NMHLD	27	96	4	96
NMTAP	27	272	1
NMTAP	27	288	3
NMSTR	27	320	3
NMSCR	27	320	3	96	96	2
NMTAP	27	336	2
NMTAP	27	368	1
NMTAP	27	368	4
NMHLD	28	32	5	64
NMTAP	28	144	6
NMTAP	28	192	3
NMTAP	28	192	7
NMSTR	28	288	0
NMSI_	28	288	0	96	48	4
NMTAP	28	288	5
NMSTR	28	336	6
NMSI_	28	336	6	96	48	4
NMSTR	29	0	0
NMSI_	29	0	0	96	48	2
NMSTR	29	48	6
NMSI_	29	48	6	96	48	2
NMSTR	29	96	0
NMSCL	29	96	0	96	96	1
NMTAP	29	144	6
NMTAP	29	192	0
NMTAP	29	288	7
NMTAP	29	336	7
BRTAP	30	0	1
NMTAP	30	0	3
NMTAP	30	48	4
BRTAP	30	48	6
NMTAP	30	96	0
NMTAP	30	96	1
NMTAP	30	128	0
NMTAP	30	128	1
NMTAP	30	176	3
NMTAP	30	192	4
NMTAP	30	240	6
NMTAP	30	240	7
NMTAP	30	272	6
NMTAP	30	272	7
NMTAP	30	320	4
NMTAP	30	336	3
NMTAP	30	368	1
NMTAP	30	368	6
NMSTR	31	0	1
NMSLR	31	0	1	96	96	0
NMSTR	31	0	6
NMSLL	31	0	6	96	96	7
NMTAP	31	96	1
NMTAP	31	96	6
NMTAP	31	240	1
NMTAP	31	240	6
NMTAP	31	288	2
NMTAP	31	288	5
NMTAP	31	336	3
NMTAP	31	336	4
NMSTR	32	0	1
NMSI_	32	0	1	96	48	4
NMTAP	32	0	7
NMTAP	32	48	3
NMTAP	32	96	1
NMSTR	32	96	7
NMSXR	32	96	7	96	96	0
NMTAP	32	144	6
NMTAP	32	192	3
NMSTR	32	288	1
NMSI_	32	288	1	96	48	4
NMTAP	32	336	3
NMTAP	33	0	1
NMSTR	33	0	7
NMSXR	33	0	7	96	96	0
NMTAP	33	48	6
NMTAP	33	96	3
NMTAP	33	144	3
NMTAP	33	240	0
NMTAP	33	240	1
NMTAP	33	288	2
NMTAP	33	288	3
NMTAP	33	336	4
NMTAP	33	336	5
NMTAP	34	0	6
NMSTR	34	0	7
NMSCL	34	0	7	96	48	4
NMTAP	34	48	0
NMTAP	34	96	1
NMTAP	34	96	7
NMTAP	34	144	0
NMTAP	34	192	6
NMSTR	34	192	7
NMSI_	34	192	7	96	48	3
NMTAP	34	240	0
NMTAP	34	288	1
NMTAP	34	288	7
NMTAP	34	336	0
NMSTR	35	0	6
NMSI_	35	0	6	96	48	4
NMTAP	35	0	7
NMSTR	35	48	6
NMSUL	35	48	6	96	48	2
NMTAP	35	48	7
NMTAP	35	192	7
BRTAP	35	240	0
NMTAP	35	240	6
BRTAP	35	288	0
NMTAP	35	288	6
NMSTR	36	0	1
NMSI_	36	0	1	96	48	4
NMTAP	36	0	7
NMTAP	36	48	3
NMTAP	36	96	1
NMSTR	36	96	7
NMSXR	36	96	7	96	96	0
NMTAP	36	144	6
NMTAP	36	192	3
NMSTR	36	288	1
NMSI_	36	288	1	96	48	4
NMTAP	36	336	3
NMTAP	37	0	1
NMSTR	37	0	7
NMSXR	37	0	7	96	96	0
NMTAP	37	48	6
NMTAP	37	96	3
NMTAP	37	144	3
NMTAP	37	240	0
NMTAP	37	240	1
NMTAP	37	288	2
NMTAP	37	288	3
NMTAP	37	336	4
NMTAP	37	336	5
NMTAP	38	0	6
NMTAP	38	0	7
NMTAP	38	48	1
NMTAP	38	80	1
NMTAP	38	96	2
NMTAP	38	128	2
NMSTR	38	144	3
NMSCL	38	144	3	96	48	0
NMTAP	38	192	5
NMTAP	38	240	4
NMTAP	38	320	6
NMTAP	38	336	7
NMTAP	38	368	7
NMTAP	39	0	6
NMTAP	39	48	0
NMTAP	39	48	5
NMTAP	39	80	0
NMTAP	39	80	5
NMTAP	39	128	1
NMTAP	39	144	7
NMSTR	39	192	2
NMSI_	39	192	2	96	48	5
NMSTR	39	192	6
NMSI_	39	192	6	96	48	1
NMTAP	39	224	2
NMTAP	39	224	6
BRTAP	39	288	2
BRSTR	39	288	6
NMSCR	39	288	6	96	336	4
NMHLD	41	0	5	80
NMHLD	41	80	4	64
NMHLD	41	144	3	96
NMTAP	41	240	4
NMSTR	41	288	4
NMSI_	41	288	4	96	48	0
NMTAP	41	336	4
BRSTR	42	0	4
NMSLR	42	0	4	96	144	3
NMSTR	42	192	1
NMSI_	42	192	1	96	48	4
NMHLD	42	288	3	144
NMTAP	43	48	4
NMSTR	43	96	4
NMSI_	43	96	4	96	48	2
NMSI_	43	96	4	96	48	6
NMSTR	43	288	3
NMSI_	43	288	3	96	48	6
NMTAP	43	288	5
NMTAP	44	0	2
NMSTR	44	0	3
NMSLL	44	0	3	96	144	4
NMSTR	44	192	6
NMSI_	44	192	6	96	48	3
NMHLD	44	288	4	144
NMTAP	45	48	3
NMSTR	45	96	3
NMSI_	45	96	3	96	48	0
NMSI_	45	96	3	96	48	6
NMHLD	45	288	1	48
NMHLD	45	288	5	48
NMTTP	46	0	4	B	0	M1
NMTTP	46	0	5	B	0	M1
NMTTP	46	0	6	E	0	M1
NMTAP	46	80	1
NMTAP	46	96	0
NMTAP	46	144	0
NMTAP	46	144	1
NMTTP	46	192	2	B	0	M1
NMTTP	46	192	2	E	0	M1
NMTTP	46	192	3	B	0	M1
NMTAP	46	272	6
NMTAP	46	288	7
NMTAP	46	336	6
NMTAP	46	336	7
NMTTP	47	0	4	B	0	M1
NMTTP	47	0	5	B	0	M1
NMTTP	47	0	6	E	0	M1
NMTAP	47	80	1
NMTAP	47	96	0
NMTAP	47	144	0
NMTAP	47	144	1
NMTTP	47	192	0	C	0	M1
NMTTP	47	192	2	B	0	M1
NMTTP	47	192	5	B	0	M1
NMTAP	47	240	0
NMTAP	47	240	7
NMTAP	47	288	1
NMTAP	47	288	6
NMTAP	47	336	3
NMTAP	47	336	4
NMTAP	48	0	2
NMTAP	48	0	6
NMTTP	48	48	1	E	0	M1
NMTTP	48	48	4	B	0	M1
NMTAP	48	96	1
NMTAP	48	96	5
NMTTP	48	144	3	B	0	M1
NMTTP	48	144	7	E	0	M1
NMTAP	48	192	2
NMTAP	48	192	6
NMTAP	48	288	7
NMTAP	48	336	7
NMTAP	49	0	1
NMTAP	49	0	5
NMTTP	49	48	3	E	0	M1
NMTTP	49	48	7	E	0	M1
NMTAP	49	96	2
NMTAP	49	96	6
NMTTP	49	144	1	E	0	M1
NMTTP	49	144	5	E	0	M1
NMTTP	49	192	0	C	1	M1
NMTTP	49	192	2	B	0	M1
BRTAP	49	192	7
NMTAP	49	288	0
NMTAP	49	288	7
NMTAP	49	336	0
NMTAP	49	336	1
NMTAP	50	0	2
NMTAP	50	32	3
NMTAP	50	48	2
NMTAP	50	80	3
NMTAP	50	96	2
NMTAP	50	144	2
NMTAP	50	192	2
NMTAP	50	224	3
NMTAP	50	240	2
NMTAP	50	288	2
NMTAP	50	288	3
NMTAP	50	336	1
NMTAP	50	336	2
NMTAP	51	0	1
NMTAP	51	32	2
NMTAP	51	48	1
NMTAP	51	80	2
NMTAP	51	96	1
NMTAP	51	128	2
NMTAP	51	144	1
NMTAP	51	176	2
NMTAP	51	224	1
NMTAP	51	224	2
NMTAP	51	272	2
NMTAP	51	288	1
NMTAP	51	336	2
NMTAP	51	336	3
NMTAP	52	0	5
NMTAP	52	32	4
NMTAP	52	48	5
NMTAP	52	80	4
NMTAP	52	96	5
NMTAP	52	144	5
NMTAP	52	192	5
NMTAP	52	224	4
NMTAP	52	240	5
NMTAP	52	288	4
NMTAP	52	288	5
NMTAP	52	336	5
NMTAP	52	336	6
NMTAP	52	368	5
NMTAP	52	368	6
NMTAP	53	32	4
NMTAP	53	32	7
NMTAP	53	80	5
NMTAP	53	96	4
NMTAP	53	144	3
NMTAP	53	144	5
NMHLD	53	176	3	48
NMHLD	53	176	5	48
NMTAP	53	272	4
NMTAP	53	288	3
NMTAP	53	320	4
NMTAP	53	336	3
NMTAP	53	368	4
NMSTR	54	0	1
NMSCR	54	0	1	96	48	4
NMTAP	54	48	7
NMTAP	54	96	0
NMTAP	54	144	7
NMSTR	54	192	5
NMSCL	54	192	5	96	48	2
NMTAP	54	240	6
NMTAP	54	288	7
NMTAP	54	336	6
NMTAP	55	0	1
NMTAP	55	0	4
NMTAP	55	32	2
NMTAP	55	48	3
NMTAP	55	96	0
NMTAP	55	96	5
NMTAP	55	128	6
NMTAP	55	144	7
NMTAP	55	176	0
NMTAP	55	176	5
NMTAP	55	224	2
NMTAP	55	224	7
NMTAP	55	272	5
NMTAP	55	288	4
NMTAP	55	336	0
NMTAP	55	336	7
NMTAP	56	0	1
NMSTR	56	0	6
NMSCL	56	0	6	96	48	3
NMTAP	56	48	0
NMTAP	56	96	7
NMTAP	56	144	0
NMSTR	56	192	2
NMSI_	56	192	2	96	48	6
NMTAP	56	240	1
NMSTR	56	288	7
NMSI_	56	288	7	96	48	2
NMSV_	56	288	7	96	48	4
NMTAP	57	0	7
BRTAP	57	288	0
BRTAP	57	288	7
NMTAP	58	0	3
NMHLD	58	0	5	96
NMTAP	58	48	7
NMHLD	58	96	4	96
NMTAP	58	144	7
NMHLD	58	192	3	96
NMTAP	58	240	0
NMTAP	58	288	2
NMTAP	58	336	1
NMTAP	58	336	4
NMTAP	59	0	2
NMHLD	59	0	3	96
NMTAP	59	48	0
NMHLD	59	96	4	96
NMTAP	59	144	7
NMTAP	59	192	5
NMTAP	59	240	0
NMTAP	59	240	7
NMTAP	59	288	2
NMTAP	59	288	4
NMTAP	59	336	0
NMTAP	59	336	7
NMTAP	60	0	3
NMSTR	60	0	5
NMSCR	60	0	5	96	96	1
NMSTR	60	96	1
NMSCR	60	96	1	96	96	5
NMSTR	60	192	5
NMSCR	60	192	5	96	96	1
NMTAP	60	288	1
NMTAP	61	0	3
NMTAP	61	96	2
NMTAP	61	96	6
NMTAP	61	128	4
NMTAP	61	144	3
NMTAP	61	192	1
NMTAP	61	192	5
NMTAP	61	224	3
NMTAP	61	240	4
NMTAP	61	288	0
NMTAP	61	288	7
NMHLD	62	0	2	96
NMTAP	62	0	4
NMTAP	62	48	0
NMHLD	62	96	3	96
NMTAP	62	144	0
NMHLD	62	192	4	96
NMTAP	62	240	7
NMTAP	62	288	5
NMTAP	62	336	3
NMTAP	62	336	6
NMHLD	63	0	4	96
NMTAP	63	0	5
NMTAP	63	48	7
NMHLD	63	96	3	96
NMTAP	63	144	0
NMTAP	63	192	2
NMTAP	63	240	0
NMTAP	63	240	7
NMTAP	63	288	3
NMTAP	63	288	5
NMTAP	63	336	0
NMTAP	63	336	7
NMSTR	64	0	2
NMSCL	64	0	2	96	96	6
NMTAP	64	0	4
NMSTR	64	96	6
NMSCL	64	96	6	96	96	2
NMSTR	64	192	2
NMSCL	64	192	2	96	96	6
NMTAP	64	288	6
NMTAP	65	0	4
NMTAP	65	96	1
NMTAP	65	96	7
NMTAP	65	128	5
NMTAP	65	144	4
NMTAP	65	192	0
NMTAP	65	192	6
NMTAP	65	224	2
NMTAP	65	240	3
NMTAP	65	288	0
NMTAP	65	288	7
NMTAP	65	336	4
NMTAP	65	336	5
NMSTR	66	0	2
NMSCR	66	0	2	96	192	5
NMTAP	66	0	3
NMTTP	66	144	7	B	0	M1
NMTTP	66	192	0	B	0	M1
NMTAP	66	288	2
NMSTR	67	0	2
BRSCR	67	0	2	96	192	5
NMTTP	67	144	7	B	0	M1
NMTTP	67	192	0	B	0	M1
NMTAP	67	288	2
NMSTR	68	0	2
NMSCR	68	0	2	96	192	5
NMTTP	68	192	0	C	0	M1
NMSTR	68	288	7
NMSSR	68	288	7	96	96	3
NMTAP	69	272	2
NMTAP	69	288	3
NMSTR	69	320	3
NMSI_	69	320	3	96	16	5
NMTAP	69	336	1
NMTAP	69	368	0
NMTAP	69	368	4
NMHLD	70	32	6	64
CNSI_	70	48	5	0	32	7
CNSI_	70	80	7	0	48	1
NMTAP	70	144	7
NMTAP	70	192	3
NMTAP	70	192	7
NMSTR	70	288	0
NMSI_	70	288	0	96	48	4
NMTAP	70	288	6
NMSTR	70	336	1
NMSI_	70	336	1	96	48	3
NMSTR	71	0	0
NMSI_	71	0	0	96	48	6
NMSTR	71	48	1
NMSI_	71	48	1	96	48	5
NMSTR	71	96	0
NMSI_	71	96	0	96	32	2
NMTAP	71	144	1
NMTAP	71	192	0
CNSI_	71	224	2	0	32	4
CNSI_	71	256	4	0	32	6
NMTAP	71	288	0
NMTAP	71	336	0
BRTAP	72	0	1
NMTAP	72	0	3
NMTAP	72	48	4
BRTAP	72	48	6
NMTAP	72	96	0
NMTAP	72	96	1
NMTAP	72	128	0
NMTAP	72	128	1
NMTAP	72	176	3
NMTAP	72	192	4
NMTAP	72	240	6
NMTAP	72	240	7
NMTAP	72	272	6
NMTAP	72	272	7
NMTAP	72	320	4
NMTAP	72	336	3
NMTAP	72	368	1
NMTAP	72	368	6
NMSTR	73	0	1
NMSLR	73	0	1	96	96	7
NMSTR	73	0	6
NMSLL	73	0	6	96	96	0
NMTAP	73	96	1
NMTAP	73	96	6
NMTAP	73	240	1
NMTAP	73	240	6
NMTAP	73	288	2
NMTAP	73	288	5
NMTAP	73	336	3
NMTAP	73	336	4
NMSTR	74	0	1
NMSI_	74	0	1	96	48	4
NMTAP	74	0	7
NMTAP	74	32	3
NMTAP	74	48	2
NMTAP	74	96	1
NMSTR	74	96	7
NMSXR	74	96	7	96	96	0
NMTAP	74	144	6
NMTAP	74	192	3
NMSTR	74	288	1
NMSI_	74	288	1	96	48	4
NMTAP	74	336	3
NMTAP	75	0	1
NMSTR	75	0	7
NMSXR	75	0	7	96	96	0
NMTAP	75	48	6
NMTAP	75	96	3
NMTAP	75	144	3
NMTAP	75	240	0
NMTAP	75	240	1
NMTAP	75	288	2
NMTAP	75	288	3
NMTAP	75	336	4
NMTAP	75	336	5
NMTAP	76	0	2
NMSTR	76	0	6
NMSI_	76	0	6	96	48	3
NMTAP	76	48	0
NMSTR	76	96	1
NMSI_	76	96	1	96	48	4
NMTAP	76	96	6
NMTAP	76	144	0
NMTAP	76	192	1
NMSTR	76	192	6
NMSI_	76	192	6	96	48	3
NMTAP	76	240	7
NMTAP	76	288	1
NMTAP	76	288	6
NMTAP	76	336	7
NMSTR	77	0	6
NMSI_	77	0	6	96	48	4
NMTAP	77	0	7
NMSTR	77	48	6
NMSUL	77	48	6	96	48	2
NMTAP	77	48	7
NMTAP	77	192	7
BRTAP	77	240	0
NMTAP	77	240	4
NMTAP	77	288	2
BRTAP	77	288	6
NMSTR	78	0	1
NMSI_	78	0	1	96	48	4
NMTAP	78	0	7
NMTAP	78	32	3
NMTAP	78	48	2
NMTAP	78	96	1
NMSTR	78	96	7
NMSXR	78	96	7	96	96	0
NMTAP	78	144	6
NMTAP	78	192	3
NMSTR	78	288	1
NMSI_	78	288	1	96	48	4
NMTAP	78	336	3
NMTAP	79	0	1
NMSTR	79	0	7
NMSXR	79	0	7	96	96	0
NMTAP	79	48	6
NMTAP	79	96	3
NMTAP	79	144	3
NMTAP	79	240	0
NMTAP	79	240	1
NMTAP	79	288	2
NMTAP	79	288	3
NMTAP	79	336	4
NMTAP	79	336	5
NMTAP	80	0	6
NMTAP	80	0	7
NMTAP	80	48	1
NMTAP	80	80	1
NMTAP	80	96	2
NMTAP	80	128	2
NMSTR	80	144	3
NMSCL	80	144	3	96	48	0
NMTAP	80	192	1
NMTAP	80	192	5
NMTAP	80	240	4
NMTAP	80	320	6
NMTAP	80	336	7
NMTAP	80	368	7
NMTAP	81	0	6
NMTAP	81	48	0
NMTAP	81	48	5
NMTAP	81	80	0
NMTAP	81	80	5
NMTAP	81	128	1
NMTAP	81	144	7
NMSTR	81	192	2
NMSV_	81	192	2	96	48	7
NMSTR	81	192	6
NMSI_	81	192	6	96	48	3
NMTAP	81	224	2
NMTAP	81	224	6
BRSTR	81	288	2
NMSCL	81	288	2	96	480	2
NMSCR	81	288	2	96	480	2
BRTAP	81	288	6
NMSTR	83	192	1
NMSUL	83	192	1	96	48	5
NMSTR	83	240	5
NMSCL	83	240	5	96	16	4
CNSV_	83	352	4	0	32	1

T_REC_TAP	516
T_REC_BRK	14
T_REC_XTP	0
T_REC_BXX	0
T_REC_HLD	40
T_REC_XHO	0
T_REC_BHO	0
T_REC_BXH	0
T_REC_STR	100
T_REC_BST	3
T_REC_XST	0
T_REC_XBS	0
T_REC_TTP	44
T_REC_THO	0
T_REC_SLD	107
T_REC_BSL	1
T_REC_ALL	825
T_NUM_TAP	660
T_NUM_BRK	18
T_NUM_HLD	40
T_NUM_SLD	107
T_NUM_ALL	825
T_JUDGE_TAP	677
T_JUDGE_HLD	94
T_JUDGE_SLD	108
T_JUDGE_ALL	879
TTM_EACHPAIRS	166
TTM_SCR_TAP	330000
TTM_SCR_BRK	46800
TTM_SCR_HLD	40000
TTM_SCR_SLD	160500
TTM_SCR_ALL	577300
TTM_SCR_S	558250
TTM_SCR_SS	575500
TTM_RAT_ACV	10031

