VERSION	0.00.00	1.04.00
FES_MODE	0
BPM_DEF	120.000	120.000	120.000	120.000
MET_DEF	4	4
RESOLUTION	384
CLK_DEF	384
COMPATIBLE_CODE	MA2

BPM	0	0	120.000
MET	0	0	4	4

EXTAP	2	288	1
NMHLD	3	0	2	288
NMHLD	3	0	4	288
NMHLD	4	0	3	288
NMHLD	4	0	5	288
NMHLD	5	0	2	96
NMHLD	5	0	6	96
NMHLD	5	192	1	96
NMHLD	5	192	5	96
NMTAP	6	0	2
NMTAP	6	96	1
BRTAP	6	192	0
NMTAP	6	288	7
NMTAP	6	336	7
NMTAP	7	0	0
NMTAP	7	0	6
NMTAP	7	96	3
NMTAP	7	144	3
NMTAP	7	192	2
NMTAP	7	192	4
NMTAP	7	288	5
NMTAP	7	336	5
NMTAP	8	0	3
NMTAP	8	48	3
NMSTR	8	96	7
NMSI_	8	96	7	96	48	3
NMTAP	8	144	7
NMTAP	8	192	2
NMTAP	8	288	1
NMTAP	8	336	1
NMTAP	9	0	3
NMTAP	9	48	3
NMTAP	9	96	4
NMTAP	9	144	4
NMTAP	9	192	6
EXTAP	9	240	1
EXTAP	9	240	7
EXTAP	9	288	1
EXTAP	9	288	7
NMTAP	9	336	6
NMTAP	10	0	4
NMTAP	10	48	4
NMTAP	10	96	3
NMTAP	10	144	3
NMTAP	10	192	2
NMTAP	10	192	5
NMSTR	10	288	0
NMSCL	10	288	0	96	48	4
NMHLD	10	288	6	96
NMHLD	11	96	1	96
NMSTR	11	96	7
NMSCR	11	96	7	96	48	3
NMSTR	11	288	0
NMSLL	11	288	0	96	48	4
NMHLD	11	288	6	96
NMTAP	12	96	1
NMTAP	12	96	7
NMTAP	12	192	2
NMTAP	12	192	6
NMTAP	12	240	2
NMTAP	12	240	6
NMTAP	12	336	1
NMHLD	13	0	1	72
NMHLD	13	72	2	72
NMTAP	13	144	3
NMHLD	13	192	7	72
NMHLD	13	264	6	72
NMTAP	13	336	5
NMTAP	14	0	5
NMTAP	14	48	4
NMTAP	14	96	3
NMTAP	14	144	2
NMTAP	14	144	4
NMTAP	14	192	2
NMTAP	14	192	4
NMSTR	14	288	3
NMSCL	14	288	3	96	480	5
NMHLD	15	0	4	96
NMHLD	15	192	4	96
NMHLD	16	0	3	96
NMTAP	16	192	3
NMSTR	16	288	4
NMSCR	16	288	4	96	480	2
NMHLD	17	0	3	96
NMHLD	17	192	3	96
NMHLD	18	0	4	96
NMTAP	18	192	4
NMSTR	18	288	3
NMSCL	18	288	3	96	576	5
NMHLD	19	0	4	96
NMHLD	19	192	4	96
NMHLD	20	0	3	96
NMTAP	20	192	3
NMTAP	20	288	4
NMTAP	21	0	3
NMHLD	21	0	6	96
NMTAP	21	96	4
NMHLD	21	192	1	96
NMTAP	21	192	4
NMTAP	21	288	3
NMTAP	22	0	2
NMTAP	22	0	5
NMTAP	22	48	2
NMTAP	22	48	5
NMTAP	22	96	1
NMTAP	22	96	6
NMTAP	22	144	1
NMTAP	22	144	6
NMTAP	22	192	0
NMTAP	22	224	0
NMTAP	22	240	7
NMTAP	22	272	7
NMSTR	22	288	0
NMSLR	22	288	0	96	96	4
EXTAP	23	0	6
NMTAP	23	192	6
NMTAP	23	192	7
NMTAP	23	240	4
NMTAP	23	240	5
NMTAP	23	288	2
NMTAP	23	288	3
NMSTR	23	336	0
NMSUR	23	336	0	96	48	5
NMSTR	23	336	1
NMSCR	23	336	1	96	48	4
NMTAP	24	0	0
NMTAP	24	0	1
NMTAP	24	144	3
NMTAP	24	144	6
NMTAP	24	192	3
NMTAP	24	192	6
NMSTR	24	288	7
NMSI_	24	288	7	96	48	3
NMTAP	24	336	7
NMSTR	25	0	1
NMSI_	25	0	1	96	48	5
NMTAP	25	48	1
NMSTR	25	96	6
NMSI_	25	96	6	96	48	2
NMTAP	25	144	6
NMHLD	25	192	0	96
NMTAP	25	288	5
NMSTR	26	0	6
NMSI_	26	0	6	96	48	4
NMSTR	26	0	7
NMSI_	26	0	7	96	48	3
EXTAP	26	96	6
EXTAP	26	96	7
EXTAP	26	192	2
EXTAP	26	240	2
NMTAP	26	336	1
NMTAP	26	336	7
NMTAP	27	0	1
NMTAP	27	0	7
NMTAP	27	48	6
NMTAP	27	96	3
NMTAP	27	96	5
NMHLD	27	144	3	48
NMHLD	27	144	5	48
NMSTR	27	288	0
NMSI_	27	288	0	96	64	4
NMSI_	27	288	0	96	80	4
NMTAP	27	336	0
CNSI_	28	64	4	0	32	6
CNSI_	28	80	4	0	16	2
EXTAP	28	144	1
EXTAP	28	144	7
EXTAP	28	192	1
EXTAP	28	192	7
NMSTR	28	288	0
NMSI_	28	288	0	96	48	4
NMTAP	28	336	0
NMSTR	29	0	6
NMSI_	29	0	6	96	48	2
NMTAP	29	48	6
NMSTR	29	96	1
NMSI_	29	96	1	96	48	5
NMTAP	29	144	1
NMHLD	29	192	7	96
NMTAP	29	288	2
NMTAP	29	336	2
NMTAP	30	0	1
NMTAP	30	0	7
NMTAP	30	48	1
NMTAP	30	48	7
EXSTR	30	96	0
NMSCR	30	96	0	96	48	3
EXSTR	30	96	6
NMSCL	30	96	6	96	48	3
NMTAP	30	336	0
NMTAP	30	336	7
NMTAP	31	0	0
NMTAP	31	0	7
NMSTR	31	96	2
NMSI_	31	96	2	96	48	0
NMSTR	31	96	5
NMSI_	31	96	5	96	48	7
NMTAP	31	144	2
NMTAP	31	144	5
EXTAP	31	288	0
EXTAP	31	288	7
NMHLD	32	0	1	48
NMHLD	32	0	3	48
NMHLD	32	96	4	48
NMSTR	32	96	6
NMSI_	32	96	6	96	48	0
NMTAP	32	192	3
CNSV_	32	240	0	0	48	7
NMTAP	32	288	2
NMHLD	33	0	1	48
NMHLD	33	0	3	48
NMHLD	33	96	4	48
NMSTR	33	96	6
NMSI_	33	96	6	96	48	0
NMTAP	33	192	3
CNSV_	33	240	0	0	48	7
NMTAP	33	288	2
NMTAP	34	0	1
NMTAP	34	0	4
NMTAP	34	48	5
NMTAP	34	96	3
NMTAP	34	96	6
NMTAP	34	144	2
NMTAP	34	192	1
NMTAP	34	192	4
NMTAP	34	240	5
NMTAP	34	288	3
NMTAP	34	288	6
NMTAP	35	0	2
NMTAP	35	0	7
NMTAP	35	48	3
NMTAP	35	96	2
NMTAP	35	96	6
NMTAP	35	144	3
NMTAP	35	192	2
NMTAP	35	192	7
EXTAP	35	240	3
EXTAP	35	240	6
EXTAP	35	288	3
EXTAP	35	288	6
NMHLD	36	0	1	48
NMHLD	36	0	3	48
NMHLD	36	96	4	48
NMSTR	36	96	6
NMSI_	36	96	6	96	48	0
NMTAP	36	192	3
CNSV_	36	240	0	0	48	7
NMTAP	36	288	2
NMHLD	37	0	1	48
NMHLD	37	0	3	48
NMHLD	37	96	4	48
NMSTR	37	96	6
NMSI_	37	96	6	96	48	0
NMTAP	37	192	3
CNSV_	37	240	0	0	48	7
NMTAP	37	288	2
NMSTR	38	0	0
NMSI_	38	0	0	96	48	4
NMSTR	38	0	1
NMSI_	38	0	1	96	48	4
NMTAP	38	96	0
NMTAP	38	96	1
NMTAP	38	192	6
NMTAP	38	192	7
NMTAP	38	240	6
NMTAP	38	240	7
NMTAP	38	288	0
NMTAP	38	288	5
NMTAP	38	336	1
NMTAP	38	336	4
NMTAP	39	0	5
NMTAP	39	48	6
NMSTR	39	96	0
NMSI_	39	96	0	96	48	3
NMSTR	39	96	7
NMSI_	39	96	7	96	48	4
NMTAP	39	192	0
NMTAP	39	192	7
BXTAP	39	288	2
BXTAP	39	288	5
NMHLD	40	0	3	96
NMHLD	40	0	5	96
NMTAP	40	192	1
NMTAP	40	240	1
NMTAP	40	288	3
NMHLD	41	0	2	96
NMHLD	41	0	4	96
NMTAP	41	192	6
NMTAP	41	240	6
NMTAP	41	288	4
NMTAP	41	336	4
BRSTR	42	0	7
NMSCL	42	0	7	96	96	3
NMSTR	42	96	3
NMSCL	42	96	3	96	96	7
NMSTR	42	192	7
NMSCL	42	192	7	96	96	3
NMSTR	42	288	3
NMSCL	42	288	3	96	96	7
NMTAP	43	0	7
NMTAP	43	96	3
NMTAP	43	192	1
NMTAP	43	192	5
NMTAP	43	288	1
NMTAP	43	288	5
NMSTR	44	0	0
NMSCR	44	0	0	96	96	4
NMSTR	44	96	4
NMSCR	44	96	4	96	96	0
NMSTR	44	192	0
NMSCR	44	192	0	96	96	4
NMSTR	44	288	4
NMSCR	44	288	4	96	96	0
NMTAP	45	0	0
NMTAP	45	96	4
NMTAP	45	192	2
NMTAP	45	192	6
NMSTR	45	288	6
NMSCL	45	288	6	96	48	3
NMSTR	45	288	7
NMSUL	45	288	7	96	48	2
NMSTR	46	96	0
NMSUR	46	96	0	96	48	5
NMSTR	46	96	1
NMSCR	46	96	1	96	48	4
NMSTR	46	288	6
NMSCL	46	288	6	96	48	3
NMSTR	46	288	7
NMSUL	46	288	7	96	48	2
NMTAP	47	96	0
NMTAP	47	96	1
NMTAP	47	192	2
NMTAP	47	192	7
NMTAP	47	240	2
NMTAP	47	240	7
NMTAP	47	288	3
NMTAP	47	336	4
NMHLD	48	0	3	48
NMHLD	48	0	5	48
NMHLD	48	96	2	48
NMHLD	48	96	4	48
NMTAP	48	192	1
NMTAP	48	192	5
NMTAP	48	288	0
NMTAP	48	336	0
NMHLD	49	0	1	48
NMHLD	49	0	7	48
NMHLD	49	96	0	48
NMHLD	49	96	6	48
BRTAP	49	192	1
BRTAP	49	192	5
NMTAP	50	0	2
NMTAP	50	32	2
NMTAP	50	48	3
NMTAP	50	80	3
NMTAP	50	96	1
NMTAP	50	192	5
NMTAP	50	224	5
NMTAP	50	240	3
NMTAP	50	288	2
NMTAP	50	288	6
NMTAP	51	0	1
NMTAP	51	0	7
NMTAP	51	48	1
NMTAP	51	48	7
NMTAP	51	96	2
NMTAP	51	128	2
NMTAP	51	144	4
NMTAP	51	176	4
NMTAP	51	192	3
NMTAP	51	224	3
NMTAP	51	240	5
NMTAP	51	288	2
NMTAP	51	288	6
NMTAP	52	0	5
NMTAP	52	32	5
NMTAP	52	48	4
NMTAP	52	80	4
NMTAP	52	96	6
NMTAP	52	192	2
NMTAP	52	224	2
NMTAP	52	240	4
NMTAP	52	288	1
NMTAP	52	288	5
NMTAP	53	0	6
NMTAP	53	0	7
NMTAP	53	48	6
NMTAP	53	48	7
NMTAP	53	96	4
NMTAP	53	96	5
NMTAP	53	144	2
NMTAP	53	144	3
NMTAP	53	192	0
NMTAP	53	192	1
NMTAP	53	240	0
NMTAP	53	240	1
NMTAP	53	288	2
NMTAP	53	288	7
NMTAP	54	0	5
NMTAP	54	32	5
NMTAP	54	48	4
NMTAP	54	80	4
NMTAP	54	96	6
NMTAP	54	192	2
NMTAP	54	224	2
NMTAP	54	240	4
NMTAP	54	288	1
NMTAP	54	288	5
NMTAP	55	0	0
NMTAP	55	0	6
NMTAP	55	48	0
NMTAP	55	48	6
NMTAP	55	96	5
NMTAP	55	128	5
NMTAP	55	144	3
NMTAP	55	176	3
NMTAP	55	192	4
NMTAP	55	224	4
NMTAP	55	240	2
NMTAP	55	288	1
NMTAP	55	288	5
NMTAP	56	0	2
NMTAP	56	32	2
NMTAP	56	48	3
NMTAP	56	80	3
NMTAP	56	96	1
NMTAP	56	192	5
NMTAP	56	224	5
NMTAP	56	240	3
NMHLD	56	288	2	96
NMSTR	56	288	6
BRSI_	56	288	6	96	48	2
EXTAP	57	0	6
BRTAP	57	288	7
NMTAP	58	0	1
NMTAP	58	32	1
NMTAP	58	48	3
NMTAP	58	96	6
NMTAP	58	128	6
NMTAP	58	144	4
NMHLD	58	192	3	80
NMHLD	58	192	7	80
NMTAP	58	336	6
NMTAP	58	368	6
NMTAP	59	0	4
NMTAP	59	32	4
NMTAP	59	48	5
NMTAP	59	80	5
NMTAP	59	96	3
NMTAP	59	144	2
NMTAP	59	144	6
NMTAP	59	240	0
NMTAP	59	240	1
NMTAP	59	288	2
NMTAP	59	288	3
NMTAP	59	336	4
NMTAP	59	336	5
NMSTR	60	0	6
NMSI_	60	0	6	96	48	3
NMSTR	60	0	7
NMSI_	60	0	7	96	48	3
EXTAP	60	96	6
EXTAP	60	96	7
NMSTR	60	192	0
NMSI_	60	192	0	96	48	4
NMSTR	60	192	1
NMSI_	60	192	1	96	48	4
EXTAP	60	288	0
EXTAP	60	288	1
NMSTR	61	0	6
NMSI_	61	0	6	96	48	2
NMSTR	61	96	0
NMSI_	61	96	0	96	48	4
NMSTR	61	192	7
NMSI_	61	192	7	96	48	3
NMTAP	61	288	2
NMTAP	62	0	6
NMTAP	62	32	6
NMTAP	62	48	4
NMTAP	62	96	1
NMTAP	62	128	1
NMTAP	62	144	3
NMHLD	62	192	0	80
NMHLD	62	192	4	80
NMTAP	62	336	1
NMTAP	62	368	1
NMTAP	63	0	3
NMTAP	63	32	3
NMTAP	63	48	2
NMTAP	63	80	2
NMTAP	63	96	4
NMTAP	63	144	1
NMTAP	63	144	5
NMTAP	63	240	6
NMTAP	63	240	7
NMTAP	63	288	4
NMTAP	63	288	5
NMTAP	63	336	2
NMTAP	63	336	3
NMSTR	64	0	0
NMSI_	64	0	0	96	48	4
NMSTR	64	0	1
NMSI_	64	0	1	96	48	4
EXTAP	64	96	0
EXTAP	64	96	1
NMSTR	64	192	6
NMSI_	64	192	6	96	48	3
NMSTR	64	192	7
NMSI_	64	192	7	96	48	3
EXTAP	64	288	6
EXTAP	64	288	7
NMTAP	65	0	0
NMTAP	65	0	1
NMTAP	65	96	1
NMTAP	65	128	1
NMTAP	65	144	3
NMTAP	65	192	6
NMTAP	65	224	6
NMTAP	65	240	4
NMSTR	65	288	3
NMSCL	65	288	3	96	80	0
NMSCR	65	288	3	96	80	6
NMTAP	66	144	1
NMTAP	66	144	5
NMTAP	66	192	1
NMTAP	66	192	5
NMSTR	66	288	4
NMSCL	66	288	4	96	80	1
NMSCR	66	288	4	96	80	7
NMTAP	67	144	2
NMTAP	67	144	6
NMTAP	67	192	2
NMTAP	67	192	6
NMSTR	67	288	1
NMSI_	67	288	1	96	48	6
NMSTR	68	0	5
NMSI_	68	0	5	96	48	2
NMSTR	68	96	0
NMSCR	68	96	0	96	48	3
NMTAP	68	192	6
NMHLD	68	240	6	96
NMTTP	68	336	4	E	0	M1
NMTTP	69	0	0	C	1	M1
NMSTR	69	288	7
NMSI_	69	288	7	96	48	3
NMSI_	69	288	7	96	64	3
NMTAP	69	336	7
CNSI_	70	48	3	0	48	5
CNSI_	70	64	3	0	32	1
EXTAP	70	144	0
EXTAP	70	144	6
EXTAP	70	192	0
EXTAP	70	192	6
NMSTR	70	288	5
NMSI_	70	288	5	96	48	2
NMTAP	70	336	5
NMSTR	71	0	1
NMSI_	71	0	1	96	48	6
NMTAP	71	48	1
NMSTR	71	96	7
NMSI_	71	96	7	96	48	3
NMTAP	71	144	7
NMTAP	71	192	2
NMTAP	71	288	1
NMTAP	71	336	1
NMTAP	72	0	0
NMTAP	72	0	6
NMTAP	72	48	0
NMTAP	72	48	6
EXSTR	72	96	1
NMSXL	72	96	1	96	48	3
EXSTR	72	96	7
NMSCL	72	96	7	96	48	4
NMTAP	72	336	0
NMTAP	72	336	7
NMTAP	73	0	0
NMTAP	73	0	7
NMSTR	73	96	2
NMSI_	73	96	2	96	48	0
NMSTR	73	96	5
NMSI_	73	96	5	96	48	7
NMTAP	73	144	2
NMTAP	73	144	5
EXTAP	73	288	0
EXTAP	73	288	7
NMHLD	74	0	1	48
NMTAP	74	0	3
NMTAP	74	48	3
NMTAP	74	96	4
NMSTR	74	96	6
BRSI_	74	96	6	96	48	0
NMTAP	74	144	4
NMTAP	74	192	3
CNSV_	74	240	0	0	48	7
NMTAP	74	288	2
NMHLD	75	0	1	48
NMTAP	75	0	3
NMTAP	75	48	3
NMTAP	75	96	4
NMSTR	75	96	6
BRSI_	75	96	6	96	48	0
NMTAP	75	144	4
NMTAP	75	192	3
CNSV_	75	240	0	0	48	7
NMTAP	75	288	2
NMTAP	76	0	1
NMTAP	76	0	4
NMTAP	76	48	5
NMTAP	76	96	3
NMTAP	76	96	6
NMTAP	76	144	2
NMTAP	76	192	1
NMTAP	76	192	4
NMTAP	76	240	5
NMTAP	76	288	3
NMTAP	76	288	6
NMTAP	77	0	2
NMTAP	77	0	7
NMTAP	77	48	3
NMTAP	77	96	2
NMTAP	77	96	6
NMTAP	77	144	3
NMTAP	77	192	2
NMTAP	77	192	7
BRTAP	77	240	3
BRTAP	77	240	6
BRTAP	77	288	3
BRTAP	77	288	6
NMHLD	78	0	1	48
NMTAP	78	0	3
NMTAP	78	48	3
NMTAP	78	96	4
NMSTR	78	96	6
NMSI_	78	96	6	96	48	0
NMTAP	78	144	4
NMTAP	78	192	3
CNSV_	78	240	0	0	48	7
NMTAP	78	288	2
NMHLD	79	0	1	48
NMTAP	79	0	3
NMTAP	79	48	3
NMTAP	79	96	4
NMSTR	79	96	6
NMSI_	79	96	6	96	48	0
NMTAP	79	144	4
NMTAP	79	192	3
CNSV_	79	240	0	0	48	7
NMTAP	79	288	2
NMSTR	80	0	0
NMSI_	80	0	0	96	48	4
NMSTR	80	0	1
NMSI_	80	0	1	96	48	4
EXTAP	80	96	0
EXTAP	80	96	1
NMTAP	80	192	6
NMTAP	80	192	7
NMTAP	80	240	6
NMTAP	80	240	7
NMTAP	80	288	0
NMTAP	80	288	5
NMTAP	80	336	1
NMTAP	80	336	4
NMHLD	81	0	2	48
NMHLD	81	0	3	48
NMSTR	81	96	0
NMSI_	81	96	0	96	48	5
NMSTR	81	96	1
NMSI_	81	96	1	96	48	4
EXTAP	81	192	0
EXTAP	81	192	1
NMSTR	81	288	2
NMSCL	81	288	2	96	384	3
BXTAP	81	288	6
NMTTP	82	96	6	E	0	M1
NMTTP	82	288	5	E	0	M1
NMTTP	83	96	4	E	0	M1
NMSTR	83	192	1
NMSI_	83	192	1	96	48	5
NMSTR	83	240	5
NMSI_	83	240	5	96	48	1

T_REC_TAP	381
T_REC_BRK	8
T_REC_XTP	39
T_REC_BXX	3
T_REC_HLD	66
T_REC_XHO	0
T_REC_BHO	0
T_REC_BXH	0
T_REC_STR	76
T_REC_BST	1
T_REC_XST	4
T_REC_XBS	0
T_REC_TTP	5
T_REC_THO	0
T_REC_SLD	82
T_REC_BSL	3
T_REC_ALL	668
T_NUM_TAP	505
T_NUM_BRK	15
T_NUM_HLD	66
T_NUM_SLD	82
T_NUM_ALL	668
T_JUDGE_TAP	517
T_JUDGE_HLD	120
T_JUDGE_SLD	85
T_JUDGE_ALL	722
TTM_EACHPAIRS	166
TTM_SCR_TAP	252500
TTM_SCR_BRK	39000
TTM_SCR_HLD	66000
TTM_SCR_SLD	123000
TTM_SCR_ALL	480500
TTM_SCR_S	464650
TTM_SCR_SS	479000
TTM_RAT_ACV	10031

