VERSION	0.00.00	1.04.00
FES_MODE	0
BPM_DEF	120.000	120.000	120.000	120.000
MET_DEF	4	4
RESOLUTION	384
CLK_DEF	384
COMPATIBLE_CODE	MA2

BPM	0	0	120.000
MET	0	0	4	4

NMTAP	3	0	3
NMHLD	3	96	2	576
NMTAP	3	96	4
NMTAP	3	288	3
NMTAP	4	96	3
NMTAP	4	288	3
NMTAP	5	0	4
NMTAP	5	96	3
NMHLD	5	96	5	192
NMTAP	5	288	4
NMHLD	6	0	2	96
NMHLD	6	96	3	96
EXTAP	6	192	2
NMTAP	6	288	1
NMTAP	6	288	4
BXTAP	7	0	0
BXTAP	7	0	5
NMTAP	7	96	0
NMTAP	7	96	5
NMTAP	7	192	6
NMTAP	7	192	7
NMTAP	7	288	0
NMTAP	7	288	5
NMTAP	8	0	1
NMTAP	8	48	1
NMTAP	8	96	0
NMTAP	8	192	0
NMTAP	8	192	1
NMTAP	8	288	0
NMTAP	8	288	7
NMTAP	9	0	0
NMTAP	9	0	1
NMTAP	9	96	0
NMTAP	9	96	1
NMTAP	9	192	2
NMTAP	9	192	7
NMTAP	9	288	3
NMTAP	9	288	6
NMTAP	10	0	2
NMTAP	10	0	7
NMTAP	10	96	0
NMTAP	10	96	1
EXHLD	10	192	2	96
EXHLD	10	192	7	96
BRTAP	11	0	5
NMTAP	11	96	0
NMTAP	11	96	6
NMTAP	11	192	2
NMTAP	11	288	1
NMTAP	11	288	7
NMHLD	12	0	6	96
NMHLD	12	0	7	96
NMHLD	12	192	0	96
NMHLD	12	192	1	96
BXTAP	13	0	7
NMTAP	13	96	5
NMTAP	13	192	6
NMTAP	13	192	7
NMSTR	13	288	6
NMSI_	13	288	6	96	96	3
NMTAP	13	288	7
EXTAP	14	192	2
EXTAP	14	192	4
BXSTR	15	0	1
NMSCR	15	0	1	96	96	4
NMSTR	15	192	5
NMSCR	15	192	5	96	96	0
NMSTR	16	0	2
NMSCR	16	0	2	96	96	5
NMSTR	16	192	6
NMSCR	16	192	6	96	96	1
NMTAP	17	0	2
NMHLD	17	96	1	192
NMTAP	17	96	3
NMTAP	17	192	2
NMTAP	17	288	3
NMTAP	18	0	4
NMTAP	18	96	3
NMHLD	18	96	5	96
NMTAP	18	192	4
NMTAP	18	288	3
NMTAP	18	288	5
NMSTR	19	0	6
NMSCL	19	0	6	96	96	3
NMSTR	19	192	2
NMSCL	19	192	2	96	96	7
NMSTR	20	0	5
NMSCL	20	0	5	96	96	2
NMSTR	20	192	1
NMSCL	20	192	1	96	96	6
NMHLD	21	0	5	96
NMTAP	21	96	4
NMHLD	21	192	1	96
NMTAP	21	288	3
NMTAP	22	0	0
NMTAP	22	48	0
NMTAP	22	96	7
NMTAP	22	144	7
NMTAP	22	192	1
NMTAP	22	288	0
NMTAP	22	288	6
NMHLD	23	0	1	192
NMHLD	23	0	5	192
NMSTR	23	288	2
NMSCL	23	288	2	96	120	5
NMSTR	23	288	3
NMSUL	23	288	3	96	120	4
EXTAP	24	192	3
EXTAP	24	192	6
NMTAP	24	288	4
NMTAP	24	288	5
NMTAP	25	0	6
NMTAP	25	48	6
NMTAP	25	96	7
EXTAP	25	192	0
EXTAP	25	192	5
NMTAP	25	288	2
NMTAP	25	288	3
NMTAP	26	0	0
NMSTR	26	0	1
NMSI_	26	0	1	96	48	4
NMSTR	26	192	6
NMSI_	26	192	6	96	48	3
NMTAP	26	192	7
BXTAP	27	0	0
BXTAP	27	0	1
NMTAP	27	96	2
NMTAP	27	144	2
NMTAP	27	144	3
EXTAP	27	240	5
EXSTR	27	288	4
NMSUR	27	288	4	96	120	3
EXSTR	27	288	5
NMSCR	27	288	5	96	120	2
EXTAP	28	192	1
EXTAP	28	192	4
NMTAP	28	288	2
NMTAP	28	288	3
NMTAP	29	0	5
NMTAP	29	48	5
NMTAP	29	96	4
BRTAP	29	192	0
BRTAP	29	192	6
NMTAP	29	288	2
NMTAP	29	288	4
NMTAP	30	0	2
NMTAP	30	48	2
NMTAP	30	96	4
NMTAP	30	144	4
NMTAP	30	192	3
NMTAP	30	240	3
NMTAP	30	288	5
NMTAP	30	336	5
NMSTR	31	0	3
NMSI_	31	0	3	96	96	1
NMSTR	31	0	5
NMSI_	31	0	5	96	96	7
EXTAP	31	288	1
EXTAP	31	288	7
BXTAP	32	0	0
BXTAP	32	0	1
NMTAP	32	96	6
NMTAP	32	96	7
NMHLD	32	192	2	96
NMTAP	32	192	7
NMTAP	32	288	7
NMTAP	33	0	0
NMTAP	33	0	1
NMTAP	33	96	6
NMTAP	33	96	7
NMHLD	33	192	2	96
NMTAP	33	192	7
NMTAP	33	288	7
NMHLD	34	0	0	48
NMHLD	34	0	6	48
NMHLD	34	96	2	48
NMHLD	34	96	7	48
NMHLD	34	192	0	48
NMHLD	34	192	5	48
NMTAP	34	288	1
NMTAP	34	288	7
NMTAP	35	0	5
NMTAP	35	48	4
NMTAP	35	96	3
NMTAP	35	96	6
NMTAP	35	192	2
NMTAP	35	240	3
NMTAP	35	288	1
NMTAP	35	288	4
BXTAP	36	0	0
BXTAP	36	0	1
NMTAP	36	96	6
NMTAP	36	96	7
NMHLD	36	192	2	96
NMTAP	36	192	7
NMTAP	36	288	7
NMTAP	37	0	0
NMTAP	37	0	1
NMTAP	37	96	6
NMTAP	37	96	7
NMHLD	37	192	2	96
NMTAP	37	192	7
NMTAP	37	288	7
NMHLD	38	0	0	48
NMHLD	38	0	6	48
NMHLD	38	96	2	48
NMHLD	38	96	7	48
NMHLD	38	192	0	48
NMHLD	38	192	5	48
EXTAP	38	288	1
EXTAP	38	288	7
NMTAP	39	0	5
NMTAP	39	48	5
NMTAP	39	96	4
NMTAP	39	96	6
EXTAP	39	192	0
EXTAP	39	192	7
BRTAP	39	288	1
BRSTR	39	288	3
NMSCL	39	288	3	96	384	4
NMTAP	41	192	3
NMTAP	41	240	3
NMTAP	41	288	4
NMTAP	41	336	4
BXHLD	42	0	2	768
NMTTP	42	192	3	E	0	M1
NMTTP	42	288	2	E	0	M1
NMTTP	43	0	1	E	0	M1
NMTTP	43	96	0	E	0	M1
NMTTP	43	192	0	C	0	M1
NMTTP	43	288	4	E	0	M1
EXHLD	44	0	5	576
NMTTP	44	192	5	E	0	M1
NMTTP	44	288	6	E	0	M1
NMTTP	45	0	7	E	0	M1
NMTTP	45	96	0	E	0	M1
NMTTP	45	192	1	E	0	M1
BXTAP	46	0	0
BXTAP	46	0	7
NMTAP	46	96	1
NMTAP	46	144	2
NMTAP	46	192	3
NMTAP	46	192	5
NMTAP	46	288	4
NMTAP	46	288	6
NMTAP	47	0	0
NMTAP	47	0	7
NMTAP	47	96	6
NMTAP	47	144	5
NMTAP	47	192	2
NMTAP	47	192	4
NMTAP	47	288	1
NMTAP	47	288	3
NMSTR	48	0	2
NMSI_	48	0	2	96	96	7
NMSTR	48	192	6
NMSI_	48	192	6	96	96	3
NMTAP	49	0	0
NMTAP	49	96	0
BRTAP	49	192	1
BRTAP	49	192	7
EXTAP	50	0	2
NMTAP	50	48	2
NMTAP	50	96	3
NMTAP	50	144	3
NMTAP	50	192	1
NMTAP	50	240	1
EXTAP	50	288	0
EXTAP	50	288	1
NMTAP	51	0	6
NMTAP	51	48	6
NMTAP	51	96	7
NMTAP	51	144	7
NMTAP	51	192	5
NMTAP	51	240	5
NMTAP	51	288	4
NMTAP	51	288	5
NMTAP	52	0	2
NMTAP	52	48	2
NMTAP	52	96	3
NMTAP	52	144	3
NMTAP	52	192	1
NMTAP	52	240	1
NMTAP	52	288	0
NMTAP	52	288	1
NMSTR	53	0	2
NMSUR	53	0	2	96	192	4
NMTAP	53	0	7
EXTAP	53	288	5
NMTAP	54	0	6
NMTAP	54	48	6
NMTAP	54	96	5
NMTAP	54	96	7
NMTAP	54	192	1
NMTAP	54	240	1
NMTAP	54	288	0
NMTAP	54	288	2
NMHLD	55	0	1	96
NMHLD	55	96	3	96
NMTAP	55	192	4
NMTAP	55	288	3
NMTAP	55	288	5
NMTAP	56	0	2
NMTAP	56	48	2
NMTAP	56	96	1
NMTAP	56	96	3
NMTAP	56	192	5
NMTAP	56	240	5
NMTAP	56	288	4
NMTAP	56	288	6
NMTAP	57	0	3
NMHLD	57	0	4	288
BRTAP	57	288	0
NMHLD	58	0	1	48
NMHLD	58	0	3	48
NMHLD	58	96	1	48
NMHLD	58	96	3	48
NMHLD	58	192	3	48
NMHLD	58	192	4	48
NMHLD	58	288	3	48
NMHLD	58	288	4	48
NMHLD	59	0	1	48
NMHLD	59	0	3	48
NMHLD	59	96	0	48
NMHLD	59	96	7	48
NMHLD	59	192	4	48
NMHLD	59	192	6	48
NMHLD	59	288	4	48
NMHLD	59	288	6	48
NMTAP	60	0	3
NMSTR	60	0	7
NMSUL	60	0	7	96	96	2
NMSTR	60	192	0
NMSUR	60	192	0	96	96	5
NMSTR	61	0	6
NMSCL	61	0	6	96	96	3
NMTAP	61	192	2
NMTAP	61	240	2
BRTAP	61	288	2
NMHLD	62	0	1	48
NMHLD	62	0	3	48
NMHLD	62	96	1	48
NMHLD	62	96	3	48
NMHLD	62	192	3	48
NMHLD	62	192	4	48
NMHLD	62	288	3	48
NMHLD	62	288	4	48
NMHLD	63	0	1	48
NMHLD	63	0	3	48
NMHLD	63	96	0	48
NMHLD	63	96	7	48
NMHLD	63	192	4	48
NMHLD	63	192	6	48
NMHLD	63	288	4	48
NMHLD	63	288	6	48
NMSTR	64	0	3
NMSUL	64	0	3	96	96	6
NMSTR	64	192	4
NMSUR	64	192	4	96	96	1
NMSTR	65	0	2
NMSCR	65	0	2	96	96	5
NMTAP	65	192	7
NMTAP	65	288	0
NMTAP	65	288	6
BRTAP	66	0	1
BRHLD	66	0	5	192
NMTAP	66	144	4
NMTAP	66	192	4
NMTAP	66	288	2
NMTAP	66	288	4
NMTAP	67	0	1
NMHLD	67	0	5	192
NMTAP	67	144	4
NMTAP	67	192	4
NMTAP	67	288	2
NMTAP	67	288	4
NMTAP	68	0	1
NMHLD	68	0	5	192
NMTAP	68	144	4
NMTAP	68	192	4
NMTAP	68	288	2
NMTAP	68	288	4
NMTHO	69	0	0	96	C	0	M1
NMTTP	69	0	2	B	0	M1
NMTTP	69	0	3	B	0	M1
NMTTP	69	0	4	B	0	M1
NMTTP	69	0	5	B	0	M1
NMSTR	69	288	0
NMSUR	69	288	0	96	120	7
NMSTR	69	288	1
NMSCR	69	288	1	96	120	6
EXTAP	70	192	0
EXTAP	70	192	5
NMTAP	70	288	6
NMTAP	70	288	7
NMTAP	71	0	5
NMTAP	71	48	5
NMTAP	71	96	4
BRTAP	71	192	2
BRTAP	71	192	7
NMTAP	71	288	2
NMTAP	71	288	7
NMTAP	72	0	5
NMTAP	72	48	5
NMTAP	72	96	3
NMTAP	72	144	3
NMTAP	72	192	4
NMTAP	72	240	4
NMTAP	72	288	2
NMTAP	72	336	2
NMSTR	73	0	3
NMSI_	73	0	3	96	96	0
NMSTR	73	0	4
NMSI_	73	0	4	96	96	7
EXTAP	73	288	0
EXTAP	73	288	7
BRTAP	74	0	0
BRTAP	74	0	1
NMTAP	74	96	6
NMTAP	74	96	7
NMHLD	74	192	2	96
NMTAP	74	192	7
NMTAP	74	288	7
NMTAP	75	0	0
NMTAP	75	0	1
NMTAP	75	96	6
NMTAP	75	96	7
NMHLD	75	192	2	96
NMTAP	75	192	7
NMTAP	75	288	7
NMHLD	76	0	0	48
NMHLD	76	0	6	48
NMHLD	76	96	2	48
NMHLD	76	96	7	48
NMHLD	76	192	0	48
NMHLD	76	192	5	48
NMTAP	76	288	1
NMTAP	76	288	7
NMTAP	77	0	5
NMTAP	77	48	4
NMTAP	77	96	3
NMTAP	77	96	6
NMTAP	77	192	2
NMTAP	77	240	3
NMTAP	77	288	1
NMTAP	77	288	4
BXTAP	78	0	0
BXTAP	78	0	1
NMTAP	78	96	6
NMTAP	78	96	7
NMHLD	78	192	2	96
NMTAP	78	192	7
NMTAP	78	288	7
NMTAP	79	0	0
NMTAP	79	0	1
NMTAP	79	96	6
NMTAP	79	96	7
NMHLD	79	192	2	96
NMTAP	79	192	7
NMTAP	79	288	7
NMHLD	80	0	0	48
NMHLD	80	0	6	48
NMHLD	80	96	2	48
NMHLD	80	96	7	48
NMHLD	80	192	0	48
NMHLD	80	192	5	48
NMTAP	80	288	1
NMTAP	80	288	7
NMTAP	81	0	4
NMTAP	81	48	4
NMTAP	81	96	3
NMTAP	81	96	5
EXTAP	81	192	1
EXTAP	81	192	7
BRSTR	81	288	2
NMSI_	81	288	2	96	96	5
BRTAP	81	288	6
CNSI_	82	96	5	0	96	0
CNSI_	82	192	0	0	96	3
NMTAP	83	0	2
NMHLD	83	0	4	288
NMTHO	83	192	0	144	C	0	M1

T_REC_TAP	257
T_REC_BRK	14
T_REC_XTP	26
T_REC_BXX	13
T_REC_HLD	84
T_REC_XHO	3
T_REC_BHO	1
T_REC_BXH	1
T_REC_STR	27
T_REC_BST	2
T_REC_XST	2
T_REC_XBS	1
T_REC_TTP	15
T_REC_THO	2
T_REC_SLD	32
T_REC_BSL	0
T_REC_ALL	480
T_NUM_TAP	327
T_NUM_BRK	32
T_NUM_HLD	89
T_NUM_SLD	32
T_NUM_ALL	480
T_JUDGE_TAP	357
T_JUDGE_HLD	183
T_JUDGE_SLD	32
T_JUDGE_ALL	572
TTM_EACHPAIRS	143
TTM_SCR_TAP	163500
TTM_SCR_BRK	83200
TTM_SCR_HLD	89000
TTM_SCR_SLD	48000
TTM_SCR_ALL	383700
TTM_SCR_S	369100
TTM_SCR_SS	380500
TTM_RAT_ACV	10084

