VERSION	0.00.00	1.04.00
FES_MODE	0
BPM_DEF	147.000	147.000	147.000	147.000
MET_DEF	4	4
RESOLUTION	384
CLK_DEF	384
COMPATIBLE_CODE	MA2

BPM	0	0	147.000
MET	0	0	4	4

NMHLD	4	0	2	72
NMTAP	4	72	3
NMHLD	4	144	5	72
NMTAP	4	216	4
NMHLD	4	288	3	72
NMSTR	4	360	4
NMSXL	4	360	4	96	264	3
NMTAP	6	0	1
NMHLD	6	0	3	144
NMHLD	6	144	4	144
NMHLD	6	288	5	384
NMTTP	7	96	2	D	0	M1
NMTTP	7	192	3	E	0	M1
NMTTP	7	288	4	D	0	M1
NMHLD	8	0	4	144
NMTAP	8	0	6
NMHLD	8	144	3	144
NMHLD	8	288	2	384
NMTTP	9	96	6	D	0	M1
NMTTP	9	192	5	E	0	M1
NMTTP	9	288	4	D	0	M1
NMHLD	10	0	1	96
NMTAP	10	0	3
NMTAP	10	96	3
NMTAP	10	144	2
NMTAP	10	192	3
NMTAP	10	288	1
NMHLD	10	288	3	384
NMTAP	11	0	4
NMTAP	11	96	2
NMTAP	11	192	4
NMTAP	11	288	1
NMTAP	12	0	4
NMHLD	12	0	6	96
NMTAP	12	96	4
NMTAP	12	144	5
NMTAP	12	192	4
NMTAP	12	240	6
NMHLD	12	288	4	96
NMSTR	13	0	3
NMSI_	13	0	3	96	48	7
NMSTR	13	96	1
NMSCR	13	96	1	96	48	4
NMTAP	13	192	0
BRTAP	13	288	2
BRTAP	13	288	6
NMTAP	14	0	2
NMTAP	14	0	3
NMTAP	14	48	5
NMTAP	14	72	4
NMTAP	14	96	5
NMTAP	14	144	2
NMSTR	14	192	1
NMSI_	14	192	1	96	48	5
NMTAP	14	240	0
NMTAP	14	288	1
EXTAP	14	336	7
NMTAP	15	0	4
NMTAP	15	0	6
NMTAP	15	48	3
NMTAP	15	72	4
NMTAP	15	96	3
NMTAP	15	120	4
NMTAP	15	144	2
NMSTR	15	192	1
NMSCR	15	192	1	96	48	4
NMTAP	15	240	0
NMTAP	15	288	1
EXTAP	15	336	5
NMTAP	16	0	6
EXTAP	16	48	6
EXTAP	16	48	7
EXTAP	16	96	0
EXTAP	16	96	7
NMTAP	16	144	0
NMTAP	16	144	1
NMHLD	16	192	2	96
NMTAP	16	240	3
NMHLD	16	288	5	96
NMTAP	16	336	4
NMHLD	17	0	1	96
NMTAP	17	48	2
NMHLD	17	96	6	96
NMTAP	17	144	5
NMSTR	17	192	1
NMSI_	17	192	1	96	48	4
NMTAP	17	240	0
NMSTR	17	288	6
NMSI_	17	288	6	96	48	3
NMTAP	17	336	7
BRSTR	18	0	0
NMSCR	18	0	0	96	48	3
NMTAP	18	96	3
NMTAP	18	144	4
NMSTR	18	192	5
NMSI_	18	192	5	96	48	2
NMSTR	18	192	6
NMSI_	18	192	6	96	48	1
NMTAP	19	0	0
NMTAP	19	0	3
EXTAP	19	48	7
NMTAP	19	96	0
NMTAP	19	96	3
EXTAP	19	144	6
NMTAP	19	192	0
NMTAP	19	192	3
EXTAP	19	240	5
NMTAP	19	288	0
NMTAP	19	288	3
EXTAP	19	336	4
NMTAP	19	336	5
NMHLD	20	48	0	96
NMTAP	20	48	1
NMTAP	20	96	2
NMTAP	20	144	3
NMTAP	20	192	0
NMTAP	20	192	4
NMSTR	20	240	7
NMSCR	20	240	7	96	48	2
NMTAP	20	288	6
NMTAP	20	336	5
NMTAP	21	48	6
NMHLD	21	48	7	96
NMTAP	21	96	5
NMTAP	21	144	4
NMTAP	21	192	3
NMTAP	21	192	7
NMSTR	21	240	0
NMSCL	21	240	0	96	48	5
NMTAP	21	288	1
NMTAP	21	336	2
NMHLD	22	0	3	96
NMTAP	22	144	2
NMTAP	22	144	4
NMTAP	22	240	2
NMTAP	22	336	4
NMHLD	23	0	4	96
NMTAP	23	144	3
NMTAP	23	144	5
NMTAP	23	240	5
NMTAP	23	336	3
NMSTR	24	0	3
NMSI_	24	0	3	96	32	1
NMSTR	24	96	4
NMSI_	24	96	4	96	32	6
NMTAP	24	192	0
NMTAP	24	240	0
NMTAP	24	288	1
NMTAP	24	288	7
NMSTR	25	0	0
NMSUR	25	0	0	96	48	5
NMTAP	25	0	6
NMSTR	25	96	7
NMSUL	25	96	7	96	48	2
NMTAP	25	192	1
NMTAP	25	288	0
NMTAP	25	288	7
NMSTR	26	0	4
NMSI_	26	0	4	96	32	2
EXTAP	26	0	5
NMTAP	26	96	4
EXSTR	26	144	6
NMSI_	26	144	6	96	32	4
NMTAP	26	240	6
EXTAP	26	288	7
EXTAP	27	0	2
NMSTR	27	0	3
NMSI_	27	0	3	96	32	5
NMTAP	27	96	3
EXSTR	27	144	1
NMSI_	27	144	1	96	32	3
NMTAP	27	240	1
EXTAP	27	288	0
NMTAP	28	0	4
NMTAP	28	0	5
NMTAP	28	48	6
NMTAP	28	96	0
NMTAP	28	96	7
NMTAP	28	144	1
NMSTR	28	192	2
NMSCR	28	192	2	96	48	5
NMTAP	28	240	5
EXTAP	28	288	2
NMTTP	29	0	6	A	0	M1
NMTTP	29	48	7	B	0	M1
NMTTP	29	96	1	E	0	M1
NMHLD	29	144	5	48
NMHLD	29	192	1	48
NMHLD	29	240	5	48
NMTTP	29	288	5	E	0	M1
NMTTP	29	336	3	B	0	M1
NMTTP	30	0	2	A	0	M1
BRTAP	30	0	7
EXTAP	30	48	5
EXSTR	30	96	3
NMSF_	30	96	3	96	48	7
EXTAP	30	144	1
EXTAP	30	192	3
EXTAP	30	288	7
EXTAP	30	336	1
EXSTR	31	0	3
NMSF_	31	0	3	96	48	7
EXTAP	31	48	5
EXTAP	31	96	3
NMTAP	31	192	1
NMTAP	31	192	5
NMTAP	31	240	2
NMTAP	31	240	4
BRTAP	31	288	0
BRTAP	31	288	6
EXTAP	32	0	7
EXTAP	32	48	5
EXSTR	32	96	3
NMSF_	32	96	3	96	48	7
EXTAP	32	144	1
EXTAP	32	192	3
NMTAP	32	288	1
NMTAP	32	288	5
NMTAP	32	336	2
NMSTR	32	336	3
NMSI_	32	336	3	96	48	7
EXSTR	33	48	1
NMSI_	33	48	1	96	48	4
NMTAP	33	48	3
EXTAP	33	144	0
NMTAP	33	144	1
BRTAP	33	192	7
BRTAP	33	240	7
BRTAP	33	288	1
BRTAP	33	288	5
EXTAP	34	0	0
EXTAP	34	0	6
NMTAP	34	48	1
NMSTR	34	96	2
NMSI_	34	96	2	96	48	7
NMSTR	34	96	3
NMSI_	34	96	3	96	48	6
NMTAP	34	144	4
EXTAP	34	192	2
EXTAP	34	192	3
NMTAP	34	288	0
NMTAP	34	288	5
NMTAP	34	336	4
NMSTR	35	0	2
NMSI_	35	0	2	96	48	7
NMSTR	35	0	3
NMSI_	35	0	3	96	48	6
NMTAP	35	48	1
EXTAP	35	96	2
EXTAP	35	96	3
NMTAP	35	192	0
NMTAP	35	192	4
NMTAP	35	240	1
NMTAP	35	240	5
BRTAP	35	288	2
BRTAP	35	288	6
EXTAP	36	0	4
EXTAP	36	0	5
NMTAP	36	48	7
NMSTR	36	96	2
NMSI_	36	96	2	96	48	7
NMSTR	36	96	3
NMSI_	36	96	3	96	48	6
NMTAP	36	144	0
EXTAP	36	192	2
EXTAP	36	192	3
NMTAP	36	288	1
NMTAP	36	288	5
NMTAP	36	336	2
NMSTR	36	336	4
NMSI_	36	336	4	96	48	0
NMTAP	37	48	4
EXSTR	37	48	6
NMSI_	37	48	6	96	48	3
NMTAP	37	144	6
EXTAP	37	144	7
BRTAP	37	192	0
BRTAP	37	240	0
BRTAP	37	288	2
BRTAP	37	288	6
NMTAP	38	0	1
NMTAP	38	24	0
NMTAP	38	48	1
NMTAP	38	96	2
NMTAP	38	120	3
NMTAP	38	144	2
NMTAP	38	192	1
NMTAP	38	216	0
NMTAP	38	240	1
NMTAP	38	264	0
NMTAP	38	288	1
NMTAP	38	336	2
NMTAP	38	336	7
NMHLD	39	0	6	48
NMHLD	39	48	4	48
NMTAP	39	96	5
NMTAP	39	144	6
NMTAP	39	168	4
NMTAP	39	192	5
NMTAP	39	216	4
NMTAP	39	240	5
NMTAP	39	264	4
NMTAP	39	288	5
NMTAP	39	336	3
NMTAP	39	336	7
NMTAP	40	0	2
NMTAP	40	24	3
NMTAP	40	48	2
NMTAP	40	96	0
NMTAP	40	120	7
NMTAP	40	144	0
NMTAP	40	168	7
NMTAP	40	192	1
NMTAP	40	216	0
NMTAP	40	240	1
NMTAP	40	264	0
NMTAP	40	288	2
NMTAP	40	336	3
NMTAP	40	336	7
NMSTR	41	0	4
NMSI_	41	0	4	96	48	0
NMSTR	41	0	6
NMSI_	41	0	6	96	48	4
EXTAP	41	192	7
NMTAP	41	216	6
NMTAP	41	240	5
EXTAP	41	288	7
NMTAP	41	312	6
NMTAP	41	336	5
NMTAP	42	0	2
NMTAP	42	0	3
NMTAP	42	48	1
NMTAP	42	72	0
NMTAP	42	96	1
NMTAP	42	144	6
NMTAP	42	168	7
NMTAP	42	192	6
NMTAP	42	240	0
NMTAP	42	240	5
NMTAP	42	288	1
NMTAP	42	288	4
NMTAP	42	336	2
NMTAP	42	336	3
NMSTR	43	0	6
NMSCL	43	0	6	96	96	1
NMSTR	43	96	1
NMSCR	43	96	1	96	96	6
NMTAP	43	192	6
EXTAP	43	288	1
NMTAP	44	0	6
NMTAP	44	24	7
NMTAP	44	48	6
NMTAP	44	96	1
NMTAP	44	120	0
NMTAP	44	144	1
EXTAP	44	192	2
NMTAP	44	192	3
NMTAP	44	240	6
NMTAP	44	264	4
EXTAP	44	288	5
NMTAP	44	312	3
NMTAP	44	336	4
NMTAP	44	360	2
NMTTP	45	0	5	A	0	M1
NMTTP	45	48	4	B	0	M1
NMTTP	45	96	3	E	0	M1
NMHLD	45	144	5	48
NMHLD	45	192	1	48
NMHLD	45	240	5	48
NMTTP	45	288	7	E	0	M1
NMTTP	45	336	0	B	0	M1
NMTTP	46	0	1	A	0	M1
NMTAP	46	96	3
NMTAP	46	96	4
NMHLD	46	192	2	144
NMTAP	46	240	3
NMTAP	46	288	4
NMTAP	46	336	5
NMTAP	47	0	2
NMTAP	47	0	6
NMSTR	47	96	1
NMSCR	47	96	1	96	48	4
NMTAP	47	96	5
EXTAP	47	192	1
NMSTR	47	192	6
NMSI_	47	192	6	96	48	2
NMSTR	47	288	0
NMSF_	47	288	0	96	48	4
EXTAP	47	288	6
BRTAP	48	0	0
NMTAP	48	96	2
NMTAP	48	96	6
NMHLD	48	192	5	192
NMTAP	48	240	4
NMTAP	48	288	3
NMTAP	48	336	2
NMHLD	49	0	1	192
NMTAP	49	48	2
NMTAP	49	96	3
NMTAP	49	144	4
NMTAP	49	192	5
NMTAP	49	240	2
NMTAP	49	240	6
NMTAP	49	288	2
NMTAP	49	288	6
NMTAP	50	0	3
NMTAP	50	0	4
NMTAP	50	48	2
NMTAP	50	72	3
NMTAP	50	96	2
NMHLD	50	144	1	48
NMHLD	50	192	3	48
NMHLD	50	240	4	48
NMHLD	50	288	6	48
NMTAP	50	336	7
NMHLD	51	0	6	48
NMHLD	51	48	4	48
NMHLD	51	96	3	48
NMHLD	51	144	1	48
NMTAP	51	192	0
NMTAP	51	240	1
NMHLD	51	288	2	48
NMHLD	51	288	7	48
BRTAP	52	0	4
BRTAP	52	0	5
NMTAP	52	48	6
NMTAP	52	72	7
NMTAP	52	96	6
NMTAP	52	144	0
NMTAP	52	192	1
NMTAP	52	192	7
NMTAP	52	240	2
NMSTR	52	240	6
NMSI_	52	240	6	96	48	3
NMTAP	52	336	0
NMHLD	53	0	0	288
NMTAP	53	48	2
NMTAP	53	96	2
NMTAP	53	144	2
NMTAP	53	192	2
NMTAP	53	240	2
NMSTR	53	288	2
NMSCL	53	288	2	96	624	4
NMHLD	54	0	3	96
NMHLD	54	192	3	96
NMHLD	55	0	3	96
NMHLD	55	192	3	96
NMSTR	55	288	5
NMSCR	55	288	5	96	624	3
NMHLD	56	0	4	96
NMHLD	56	192	4	96
NMHLD	57	0	4	96
NMTAP	57	192	4
NMTAP	57	288	4
NMHLD	58	0	5	96
NMHLD	58	96	4	96
NMHLD	58	192	3	96
NMHLD	58	288	2	96
NMSTR	59	0	1
NMSI_	59	0	1	96	48	5
NMSTR	59	96	7
NMSI_	59	96	7	96	48	2
NMSI_	59	96	7	96	48	4
NMTAP	59	288	3
NMSTR	60	0	0
NMSCL	60	0	0	96	96	5
NMSTR	60	96	5
NMSCL	60	96	5	96	96	2
NMSTR	60	192	2
NMSCL	60	192	2	96	96	7
NMSTR	60	288	7
NMSCL	60	288	7	96	96	4
NMSTR	61	0	4
NMSCL	61	0	4	96	96	1
NMTAP	61	96	1
NMTAP	61	192	6
NMTAP	61	288	0
NMTAP	61	288	7
NMTAP	62	0	4
NMTAP	62	0	6
NMTAP	62	72	4
NMTAP	62	72	6
NMTAP	62	144	4
NMTAP	62	144	6
NMSTR	62	192	4
NMSI_	62	192	4	96	32	2
NMTAP	62	288	5
NMSTR	63	0	6
NMSI_	63	0	6	96	32	4
NMTAP	63	96	7
NMSTR	63	192	0
NMSI_	63	192	0	96	32	6
NMTAP	63	288	1
NMTAP	64	0	1
NMTAP	64	0	3
NMTAP	64	72	1
NMTAP	64	72	3
NMTAP	64	144	1
NMTAP	64	144	3
NMSTR	64	192	3
NMSI_	64	192	3	96	48	7
NMTAP	64	288	2
NMSTR	65	0	0
NMSUR	65	0	0	96	48	5
NMSTR	65	96	7
NMSUL	65	96	7	96	48	2
NMTAP	65	192	0
NMTAP	65	288	7
NMTAP	66	0	0
NMTAP	66	0	6
NMTAP	66	72	0
NMTAP	66	72	6
NMTAP	66	144	1
NMSTR	66	144	5
NMSCL	66	144	5	96	72	2
NMTAP	66	192	1
NMHLD	66	192	5	96
NMTAP	67	0	1
NMTAP	67	0	7
NMTAP	67	72	1
NMTAP	67	72	7
NMSTR	67	144	2
NMSCR	67	144	2	96	72	5
NMTAP	67	144	6
NMHLD	67	192	2	96
NMTAP	67	192	6
NMSTR	68	0	0
NMSI_	68	0	0	96	48	3
NMTAP	68	0	6
NMSTR	68	96	7
NMSI_	68	96	7	96	48	4
NMSTR	68	192	2
BRSI_	68	192	2	96	48	5
NMSTR	68	288	6
NMSI_	68	288	6	96	48	1
NMSTR	69	0	0
NMSCR	69	0	0	96	48	3
NMTAP	69	48	0
NMSTR	69	96	5
NMSCR	69	96	5	96	48	0
NMTAP	69	144	5
NMSTR	69	192	2
NMSCR	69	192	2	96	48	5
NMTAP	69	240	2
NMTAP	69	288	7
NMTAP	69	336	7
NMHLD	70	0	0	48
NMHLD	70	0	6	48
NMHLD	70	96	1	48
NMHLD	70	96	3	48
NMHLD	70	192	4	48
NMHLD	70	192	5	48
NMHLD	70	288	2	48
NMHLD	70	288	6	48
NMTAP	71	0	1
NMTAP	71	24	7
NMTAP	71	48	2
NMTAP	71	72	6
NMTAP	71	96	3
NMTAP	71	120	5
NMTAP	71	144	4
NMHLD	71	168	6	48
NMTAP	71	216	4
NMTAP	71	240	4
NMTAP	71	264	5
NMTAP	71	288	2
NMTAP	71	312	3
EXTAP	71	336	0
NMTTP	72	0	6	A	1	M1
NMTTP	72	48	7	B	1	M1
NMTTP	72	96	1	E	1	M1
BRHLD	72	144	5	48
BRHLD	72	192	1	48
BRHLD	72	240	5	48
NMTTP	72	288	5	E	1	M1
NMTTP	72	336	3	B	1	M1
NMTTP	73	0	2	A	1	M1
EXSTR	73	0	7
NMSI_	73	0	7	96	48	3
NMSTR	73	48	1
NMSV_	73	48	1	96	48	4
NMSTR	73	96	7
NMSCR	73	96	7	96	48	2
NMTAP	73	144	1
BRTAP	73	192	7
NMSTR	73	288	0
NMSI_	73	288	0	96	48	4
NMSTR	73	336	6
NMSV_	73	336	6	96	48	3
NMSTR	74	0	0
NMSCL	74	0	0	96	48	5
NMTAP	74	48	6
BRTAP	74	96	0
NMSTR	74	192	3
NMSI_	74	192	3	96	48	7
NMSTR	74	192	6
NMSI_	74	192	6	96	48	4
NMTAP	74	240	7
EXTAP	74	288	3
EXTAP	74	288	6
NMSTR	75	0	1
NMSI_	75	0	1	96	32	3
NMSTR	75	48	5
NMSI_	75	48	5	96	32	7
NMSTR	75	96	1
NMSI_	75	96	1	96	48	5
NMTAP	75	144	5
BRTAP	75	192	1
NMTAP	75	288	6
NMTAP	75	288	7
NMSTR	75	336	0
NMSCR	75	336	0	96	48	3
NMSTR	75	336	4
NMSCR	75	336	4	96	48	7
NMTAP	76	48	0
NMTAP	76	48	4
NMTAP	76	144	0
NMTAP	76	144	4
NMTAP	76	192	3
NMTAP	76	192	7
EXTAP	76	240	0
EXTAP	76	240	4
BRTAP	76	288	2
BRTAP	76	288	6
NMTAP	77	0	1
NMSTR	77	0	5
NMSI_	77	0	5	96	32	3
NMTAP	77	48	3
NMTAP	77	48	7
NMTAP	77	96	1
NMTAP	77	96	5
NMTAP	77	144	7
BRTAP	77	192	1
BRTAP	77	192	5
NMSTR	77	288	1
NMSI_	77	288	1	96	32	7
NMTAP	77	288	5
NMTAP	77	336	3
NMTAP	77	336	7
NMTAP	78	0	1
NMTAP	78	0	5
NMTAP	78	48	3
BRTAP	78	96	1
BRTAP	78	96	5
NMSTR	78	192	1
NMSI_	78	192	1	96	32	3
NMSTR	78	192	4
NMSI_	78	192	4	96	32	0
NMTAP	78	240	0
EXTAP	78	288	1
EXTAP	78	288	4
NMSTR	79	0	2
NMSCR	79	0	2	96	48	5
NMTAP	79	0	6
NMTAP	79	48	0
NMTAP	79	48	4
NMTAP	79	96	2
NMTAP	79	96	6
NMTAP	79	144	0
BXTAP	79	192	2
BXTAP	79	192	6
NMTAP	79	288	0
NMTAP	79	288	1
NMSTR	79	336	3
NMSCL	79	336	3	96	48	0
NMSTR	79	336	7
NMSCL	79	336	7	96	48	4
NMTAP	80	48	3
NMTAP	80	48	7
NMTAP	80	144	3
NMTAP	80	144	7
NMTAP	80	192	0
NMTAP	80	192	4
EXTAP	80	240	3
EXTAP	80	240	7
BRTAP	80	288	1
BRTAP	80	288	5
NMTAP	81	0	2
NMTAP	81	24	3
NMTAP	81	48	1
NMTAP	81	96	6
NMTAP	81	120	7
NMTAP	81	144	6
NMTAP	81	192	1
NMTAP	81	216	5
NMTAP	81	240	1
NMTAP	81	264	5
NMTAP	81	288	3
NMTAP	81	336	2
NMTAP	81	336	4
NMTAP	82	0	6
NMTAP	82	0	7
NMTAP	82	48	4
NMTAP	82	48	5
NMTAP	82	96	2
NMTAP	82	96	3
NMTAP	82	144	1
NMTAP	82	168	3
NMTAP	82	192	2
NMTAP	82	216	4
NMTAP	82	240	3
NMTAP	82	264	5
NMTAP	82	288	4
EXTAP	82	336	0
EXTAP	82	336	6
NMTAP	83	0	2
NMTAP	83	24	3
NMTAP	83	48	1
NMTAP	83	96	7
NMTAP	83	120	0
NMTAP	83	144	7
NMTAP	83	168	0
NMTAP	83	192	6
NMTAP	83	216	7
NMTAP	83	240	6
NMTAP	83	264	7
NMTAP	83	288	5
NMTAP	83	336	0
NMTAP	83	336	4
NMSTR	84	0	1
NMSI_	84	0	1	96	48	3
NMSTR	84	0	3
NMSI_	84	0	3	96	48	7
NMTAP	84	96	1
NMTAP	84	96	3
EXTAP	84	192	0
NMTAP	84	216	1
NMTAP	84	240	2
EXTAP	84	288	0
NMTAP	84	312	1
NMTAP	84	336	2
NMTAP	85	0	4
NMTAP	85	0	5
NMTAP	85	48	6
NMTAP	85	72	7
NMTAP	85	96	6
NMTAP	85	144	1
NMTAP	85	168	0
NMTAP	85	192	1
NMTAP	85	240	2
NMTAP	85	240	7
NMTAP	85	288	3
NMTAP	85	288	6
NMTAP	85	336	4
NMTAP	85	336	5
NMSTR	86	0	1
NMSLR	86	0	1	96	72	6
NMSTR	86	96	6
NMSLL	86	96	6	96	72	1
NMTAP	86	192	1
EXTAP	86	288	0
EXTAP	86	288	7
NMTAP	87	0	1
NMTAP	87	24	0
NMTAP	87	48	1
NMTAP	87	96	6
NMTAP	87	120	7
NMTAP	87	144	6
BRTAP	87	192	2
NMTAP	87	192	3
NMTAP	87	240	6
NMTAP	87	264	4
BRTAP	87	288	5
NMTAP	87	312	3
NMTAP	87	336	4
NMTAP	87	360	2
NMTTP	88	0	5	A	0	M1
NMTTP	88	48	4	B	0	M1
NMTTP	88	96	3	E	0	M1
NMHLD	88	144	5	48
NMHLD	88	192	1	48
NMHLD	88	240	5	48
NMTTP	88	288	7	E	0	M1
NMTTP	88	336	0	B	0	M1
NMTTP	89	0	1	A	0	M1
NMTAP	89	96	4
NMTAP	89	96	5
NMTAP	89	144	3
NMSTR	89	192	2
NMSCR	89	192	2	96	48	5
NMHLD	90	0	6	48
EXTAP	90	48	4
NMHLD	90	96	5	48
EXTAP	90	144	3
NMHLD	90	192	4	48
EXTAP	90	240	2
NMHLD	90	288	3	48
EXTAP	90	336	1
NMTAP	91	48	1
NMTAP	91	96	2
NMTAP	91	144	3
NMTAP	91	192	4
NMSTR	91	240	2
NMSI_	91	240	2	96	48	7
NMTAP	91	288	3
NMTAP	91	336	3
NMTAP	92	48	6
NMTAP	92	96	5
NMTAP	92	144	4
NMTAP	92	192	3
NMSTR	92	240	5
NMSI_	92	240	5	96	48	0
NMTAP	92	288	4
NMTAP	92	336	4
NMTAP	93	0	3
NMTAP	93	96	2
NMTAP	93	96	3
NMTAP	93	144	4
NMSTR	93	192	5
NMSCL	93	192	5	96	48	2
NMHLD	94	0	1	48
EXTAP	94	48	3
NMHLD	94	96	2	48
EXTAP	94	144	4
NMHLD	94	192	3	48
EXTAP	94	240	5
BRHLD	94	288	4	48
EXTAP	94	336	6
NMTAP	95	0	2
NMTAP	95	24	3
NMTAP	95	48	1
NMTAP	95	96	5
NMTAP	95	120	4
NMTAP	95	144	6
NMSTR	95	192	2
BRSI_	95	192	2	96	48	5
NMSTR	95	240	5
NMSI_	95	240	5	96	48	2
NMTTP	96	0	6	A	0	M1
NMTTP	96	48	7	B	0	M1
NMTTP	96	96	1	E	0	M1
NMHLD	96	144	5	48
NMHLD	96	192	1	48
NMHLD	96	240	5	48
NMTTP	96	288	5	E	0	M1
NMTTP	96	348	3	B	0	M1
NMTTP	97	24	2	A	0	M1
NMTTP	97	144	0	C	0	M1

T_REC_TAP	425
T_REC_BRK	31
T_REC_XTP	68
T_REC_BXX	2
T_REC_HLD	78
T_REC_XHO	0
T_REC_BHO	4
T_REC_BXH	0
T_REC_STR	87
T_REC_BST	1
T_REC_XST	8
T_REC_XBS	0
T_REC_TTP	37
T_REC_THO	0
T_REC_SLD	95
T_REC_BSL	2
T_REC_ALL	838
T_NUM_TAP	625
T_NUM_BRK	40
T_NUM_HLD	78
T_NUM_SLD	95
T_NUM_ALL	838
T_JUDGE_TAP	659
T_JUDGE_HLD	151
T_JUDGE_SLD	97
T_JUDGE_ALL	907
TTM_EACHPAIRS	143
TTM_SCR_TAP	312500
TTM_SCR_BRK	104000
TTM_SCR_HLD	78000
TTM_SCR_SLD	142500
TTM_SCR_ALL	637000
TTM_SCR_S	614050
TTM_SCR_SS	633000
TTM_RAT_ACV	10063

