VERSION	0.00.00	1.04.00
FES_MODE	0
BPM_DEF	147.000	147.000	147.000	147.000
MET_DEF	4	4
RESOLUTION	384
CLK_DEF	384
COMPATIBLE_CODE	MA2

BPM	0	0	147.000
MET	0	0	4	4

NMHLD	4	0	1	72
NMHLD	4	0	7	72
NMHLD	4	144	0	72
NMHLD	4	144	6	72
NMHLD	4	288	2	72
NMHLD	4	288	7	72
NMTAP	5	48	0
NMTAP	5	48	5
NMSTR	5	96	0
NMSI_	5	96	0	96	48	4
NMTAP	5	96	5
EXSTR	5	192	7
NMSI_	5	192	7	96	48	3
EXTAP	5	288	2
NMHLD	6	0	1	480
NMTAP	6	192	3
NMTAP	6	288	3
NMTTP	7	96	3	E	0	M1
NMTTP	7	192	4	E	0	M1
NMTTP	7	288	5	E	0	M1
NMHLD	8	0	6	480
NMTAP	8	192	4
NMTAP	8	288	4
NMTTP	9	96	5	E	0	M1
NMTTP	9	192	4	E	0	M1
NMTTP	9	288	3	E	0	M1
NMTAP	10	0	1
NMHLD	10	96	1	288
NMTAP	10	192	3
NMTAP	10	288	3
NMTTP	11	0	2	E	0	M1
NMTTP	11	96	3	E	0	M1
NMTTP	11	192	4	E	0	M1
NMTTP	11	288	5	E	0	M1
NMTAP	12	0	6
NMHLD	12	96	6	288
NMTAP	12	192	4
NMTAP	12	288	4
NMTAP	13	0	5
NMSTR	13	96	5
NMSI_	13	96	5	96	96	2
NMSTR	13	96	6
NMSI_	13	96	6	96	96	1
NMTAP	14	0	1
NMTAP	14	48	1
NMTAP	14	96	0
NMSTR	14	192	2
NMSI_	14	192	2	96	48	5
NMHLD	14	192	7	96
NMTAP	15	0	6
NMTAP	15	48	6
NMTAP	15	96	7
NMSTR	15	192	0
NMSI_	15	192	0	96	48	4
NMHLD	15	192	5	96
NMTAP	16	0	6
NMTAP	16	48	6
NMTAP	16	96	0
NMTAP	16	144	0
NMTAP	16	192	3
NMTAP	16	240	3
NMTAP	16	288	1
NMTAP	16	336	1
NMTAP	17	0	7
NMTAP	17	48	7
NMTAP	17	96	4
NMTAP	17	144	4
NMTAP	17	192	6
NMTAP	17	240	6
NMTAP	17	288	3
NMTAP	17	288	5
NMTAP	18	0	2
NMTAP	18	0	4
NMSTR	18	96	0
NMSCR	18	96	0	96	48	3
NMSTR	18	96	7
NMSUR	18	96	7	96	48	3
NMTAP	18	288	1
NMTAP	18	336	1
NMTAP	19	0	3
NMTAP	19	48	3
NMTAP	19	96	2
NMTAP	19	144	2
NMTAP	19	192	1
NMTAP	19	192	4
NMTAP	19	288	3
NMSTR	19	288	6
NMSI_	19	288	6	96	48	3
NMSTR	20	0	2
NMSI_	20	0	2	96	48	7
NMSTR	20	96	5
NMSI_	20	96	5	96	48	2
NMSTR	20	192	1
NMSI_	20	192	1	96	48	4
NMTAP	20	288	6
NMTAP	21	0	7
NMSTR	21	96	7
NMSCL	21	96	7	96	48	4
NMSCR	21	96	7	96	48	2
EXTAP	21	288	1
EXTAP	21	288	5
NMTAP	22	0	0
NMTAP	22	0	7
NMSTR	22	96	0
NMSCL	22	96	0	96	96	5
NMSTR	22	96	1
NMSV_	22	96	1	96	96	4
BXHLD	23	0	3	288
BXHLD	23	0	5	288
NMHLD	24	0	2	48
NMHLD	24	0	4	48
NMHLD	24	96	3	48
NMHLD	24	96	5	48
NMHLD	24	192	2	48
NMHLD	24	192	4	48
NMHLD	24	288	3	48
NMHLD	24	288	5	48
BRTAP	25	0	2
BRTAP	25	0	6
BRSTR	25	96	1
BRSI_	25	96	1	96	96	6
BRSTR	25	96	5
BRSI_	25	96	5	96	96	2
NMTAP	26	0	0
NMTAP	26	0	7
NMSTR	26	96	0
NMSCL	26	96	0	96	96	5
NMSTR	26	96	1
NMSV_	26	96	1	96	96	4
BXHLD	27	0	3	96
BXHLD	27	0	5	96
BXTAP	27	192	2
BXTAP	27	192	6
BXTAP	27	240	2
BXTAP	27	240	6
NMTAP	27	336	1
NMTAP	28	0	1
NMTAP	28	48	4
NMTAP	28	96	4
NMTAP	28	144	2
EXTAP	28	192	2
NMTAP	28	240	3
NMTAP	28	240	5
NMTAP	28	288	3
EXTAP	28	288	5
NMTAP	29	0	4
NMTAP	29	48	4
NMTAP	29	96	4
NMHLD	29	144	3	24
NMHLD	29	192	3	24
NMHLD	29	240	3	24
NMTAP	29	288	4
NMTAP	29	336	4
BRTAP	30	0	4
NMSTR	30	96	2
NMSI_	30	96	2	96	48	7
NMSTR	30	96	3
NMSI_	30	96	3	96	48	7
NMTAP	30	288	4
NMTAP	30	288	5
NMSTR	31	0	2
NMSI_	31	0	2	96	48	7
NMSTR	31	0	3
NMSI_	31	0	3	96	48	7
NMSTR	31	192	6
NMSI_	31	192	6	96	48	4
NMSTR	31	192	7
NMSI_	31	192	7	96	48	3
EXTAP	31	288	6
EXTAP	31	288	7
EXTAP	32	0	3
EXTAP	32	0	4
NMSTR	32	96	2
NMSI_	32	96	2	96	48	7
NMSTR	32	96	3
NMSI_	32	96	3	96	48	7
NMTAP	32	288	4
NMTAP	32	288	5
NMSTR	33	0	2
NMSI_	33	0	2	96	48	7
NMSTR	33	0	3
NMSI_	33	0	3	96	48	7
NMTAP	33	192	0
NMTAP	33	240	0
BRTAP	33	288	1
BRTAP	33	288	7
NMTAP	34	0	3
NMTAP	34	0	5
NMSTR	34	96	2
NMSI_	34	96	2	96	48	7
NMSTR	34	96	3
NMSI_	34	96	3	96	48	7
NMTAP	34	288	4
NMTAP	34	288	5
NMSTR	35	0	2
NMSI_	35	0	2	96	48	7
NMSTR	35	0	3
NMSI_	35	0	3	96	48	7
NMSTR	35	192	6
NMSI_	35	192	6	96	48	4
NMSTR	35	192	7
NMSI_	35	192	7	96	48	3
EXTAP	35	288	6
EXTAP	35	288	7
EXTAP	36	0	3
EXTAP	36	0	4
NMSTR	36	96	2
NMSI_	36	96	2	96	48	7
NMSTR	36	96	3
NMSI_	36	96	3	96	48	7
NMTAP	36	288	4
NMTAP	36	288	5
NMTAP	37	0	2
NMTAP	37	0	3
NMTAP	37	48	2
NMTAP	37	48	3
NMTAP	37	144	4
NMTAP	37	144	5
NMTAP	37	192	4
NMTAP	37	192	5
NMTTP	37	288	0	C	1	M1
NMTTP	37	288	3	B	0	M1
NMTTP	37	288	6	B	0	M1
EXTAP	38	0	1
EXTAP	38	48	1
NMTAP	38	96	7
NMTAP	38	144	0
NMTAP	38	192	6
NMTAP	38	240	6
NMTAP	38	288	0
NMHLD	39	0	2	48
NMHLD	39	0	4	48
NMHLD	39	96	0	48
NMHLD	39	96	6	48
NMHLD	39	192	2	48
NMHLD	39	192	4	48
NMHLD	39	288	0	48
NMHLD	39	288	6	48
NMTAP	40	0	1
NMTAP	40	48	1
NMTAP	40	96	7
NMTAP	40	144	0
NMTAP	40	192	6
NMTAP	40	240	6
NMTAP	40	288	0
NMSTR	41	0	0
NMSI_	41	0	0	96	48	3
NMSTR	41	0	6
NMSI_	41	0	6	96	48	3
NMSTR	41	192	0
NMSV_	41	192	0	96	48	3
NMSTR	41	192	6
NMSV_	41	192	6	96	48	3
NMTAP	42	0	5
NMTAP	42	48	5
NMTAP	42	96	3
NMTAP	42	144	4
NMTAP	42	192	2
NMTAP	42	240	2
NMTAP	42	288	4
NMHLD	43	0	0	48
NMHLD	43	0	6	48
NMHLD	43	96	2	48
NMHLD	43	96	4	48
NMHLD	43	192	0	48
NMHLD	43	192	6	48
BRTAP	43	288	2
BRSTR	43	288	7
NMSI_	43	288	7	96	48	3
NMTAP	44	0	1
NMTAP	44	48	1
NMTAP	44	96	4
NMTAP	44	144	4
EXTAP	44	192	2
NMTAP	44	240	2
EXTAP	44	288	5
NMTAP	44	336	5
NMTAP	45	0	0
NMTAP	45	48	0
NMTAP	45	96	0
NMHLD	45	144	7	24
NMHLD	45	192	7	24
NMHLD	45	240	7	24
NMTAP	45	288	0
NMTAP	45	336	0
BRTAP	46	0	0
NMSTR	46	96	6
NMSCL	46	96	6	96	48	3
NMSTR	46	192	2
NMSCL	46	192	2	96	48	7
NMTAP	46	288	5
NMTAP	47	0	1
NMTAP	47	48	1
NMTAP	47	96	3
NMTAP	47	144	2
NMTAP	47	192	6
NMTAP	47	240	6
NMSTR	47	288	0
NMSI_	47	288	0	96	48	3
NMSTR	47	288	7
NMSI_	47	288	7	96	48	4
EXTAP	48	0	0
EXTAP	48	0	7
NMSTR	48	96	2
NMSCL	48	96	2	96	48	7
NMSTR	48	192	6
NMSCL	48	192	6	96	48	3
NMTAP	48	288	1
NMTAP	49	0	5
NMTAP	49	48	5
NMTAP	49	96	0
NMTAP	49	144	7
NMTAP	49	192	2
NMTAP	49	240	2
NMTAP	49	288	3
NMSTR	50	0	4
NMSI_	50	0	4	96	48	7
NMSTR	50	96	1
NMSCR	50	96	1	96	48	4
NMSTR	50	192	5
NMSCR	50	192	5	96	48	0
NMTAP	50	288	2
NMTAP	51	0	6
NMTAP	51	48	6
NMTAP	51	96	4
NMTAP	51	144	5
NMTAP	51	192	1
NMTAP	51	240	1
NMSTR	51	288	0
NMSI_	51	288	0	96	48	3
NMSTR	51	288	7
NMSI_	51	288	7	96	48	4
EXTAP	52	0	0
EXTAP	52	0	7
NMSTR	52	96	5
NMSCR	52	96	5	96	48	0
NMSTR	52	192	1
NMSCR	52	192	1	96	48	4
NMTAP	52	288	6
NMTAP	53	0	2
NMTAP	53	48	2
NMTAP	53	96	4
NMTAP	53	144	3
NMTAP	53	192	5
NMTAP	53	288	2
NMTAP	53	288	6
NMSTR	54	0	0
NMSCR	54	0	0	96	480	6
NMHLD	54	0	7	96
NMHLD	54	192	7	96
NMHLD	55	0	7	96
NMHLD	55	192	7	96
NMHLD	56	0	0	96
NMSTR	56	0	7
NMSCL	56	0	7	96	480	1
NMHLD	56	192	0	96
NMHLD	57	0	0	96
NMHLD	57	192	0	96
NMTAP	58	0	0
NMTAP	58	0	7
NMTAP	58	96	6
NMSTR	58	192	3
NMSI_	58	192	3	96	48	0
NMSTR	58	192	5
NMSI_	58	192	5	96	48	0
NMSTR	59	0	2
NMSI_	59	0	2	96	48	6
NMTAP	59	96	7
NMHLD	59	144	7	96
NMTAP	59	240	0
NMSTR	59	288	0
NMSCR	59	288	0	96	96	4
NMSTR	60	0	4
NMSCR	60	0	4	96	96	0
NMSTR	60	96	0
NMSLR	60	96	0	96	96	4
NMSTR	60	192	4
NMSLR	60	192	4	96	96	0
NMSTR	60	288	0
NMSCR	60	288	0	96	96	4
NMSTR	61	0	4
NMSCR	61	0	4	96	96	0
NMTAP	61	96	0
NMTAP	61	192	4
NMTAP	61	288	2
NMTAP	61	288	6
NMTAP	62	0	0
NMTAP	62	0	7
NMSTR	62	96	0
NMSCL	62	96	0	96	96	5
NMSTR	62	96	1
NMSUL	62	96	1	96	96	4
BXHLD	63	0	3	288
BXHLD	63	0	5	288
NMHLD	64	0	1	48
NMHLD	64	0	4	48
NMHLD	64	96	3	48
NMHLD	64	96	6	48
NMHLD	64	192	2	48
NMHLD	64	192	4	48
NMHLD	64	288	3	48
NMHLD	64	288	5	48
BRTAP	65	0	2
BRTAP	65	0	6
BRSTR	65	96	1
BRSCR	65	96	1	96	96	4
BRSTR	65	96	5
BRSCR	65	96	5	96	96	0
NMTAP	66	0	0
NMTAP	66	0	7
NMSTR	66	96	0
NMSCL	66	96	0	96	96	5
NMSTR	66	96	1
NMSUL	66	96	1	96	96	4
BXHLD	67	0	3	96
BXHLD	67	0	5	96
BXTAP	67	192	2
BXTAP	67	192	6
BXTAP	67	240	2
BXTAP	67	240	6
NMTAP	67	336	1
NMTAP	68	0	1
NMTAP	68	48	4
NMTAP	68	96	4
NMTAP	68	144	2
EXTAP	68	192	2
NMTAP	68	240	3
NMTAP	68	240	5
NMTAP	68	288	3
EXTAP	68	288	5
NMSTR	69	0	6
NMSI_	69	0	6	96	48	2
NMSTR	69	96	0
NMSI_	69	96	0	96	48	4
NMSTR	69	192	7
NMSI_	69	192	7	96	48	3
NMSTR	69	288	1
NMSI_	69	288	1	96	48	5
NMSTR	70	0	6
NMSI_	70	0	6	96	48	2
NMSTR	70	96	0
NMSI_	70	96	0	96	48	4
NMSTR	70	192	7
NMSI_	70	192	7	96	48	3
NMSTR	70	288	1
NMSI_	70	288	1	96	96	6
CNSI_	71	96	6	0	96	2
CNSI_	71	192	2	0	96	5
EXTAP	72	0	7
EXTAP	72	48	7
EXTAP	72	96	7
BRHLD	72	144	0	24
BRHLD	72	192	0	24
BRHLD	72	240	0	24
BRTAP	72	288	7
BRTAP	72	336	7
BRTAP	73	0	7
NMSTR	73	96	6
NMSI_	73	96	6	96	48	3
NMSTR	73	96	7
NMSI_	73	96	7	96	48	3
EXTAP	73	192	6
EXTAP	73	192	7
NMTAP	73	288	5
NMSTR	74	0	6
NMSI_	74	0	6	96	48	3
NMSTR	74	0	7
NMSI_	74	0	7	96	48	3
EXTAP	74	96	6
EXTAP	74	96	7
NMTAP	74	192	2
NMTAP	74	240	1
NMTAP	74	288	0
NMTAP	74	288	6
NMTAP	75	0	1
NMTAP	75	0	7
NMSTR	75	96	6
NMSI_	75	96	6	96	48	3
NMSTR	75	96	7
NMSI_	75	96	7	96	48	3
EXTAP	75	192	6
EXTAP	75	192	7
NMTAP	75	288	5
NMSTR	76	0	6
NMSI_	76	0	6	96	48	3
NMSTR	76	0	7
NMSI_	76	0	7	96	48	3
EXTAP	76	96	6
EXTAP	76	96	7
NMTAP	76	192	0
NMTAP	76	240	0
BRTAP	76	288	1
BRTAP	76	288	7
NMTAP	77	0	0
NMTAP	77	0	6
NMSTR	77	96	6
NMSI_	77	96	6	96	48	3
NMSTR	77	96	7
NMSI_	77	96	7	96	48	3
EXTAP	77	192	6
EXTAP	77	192	7
NMTAP	77	288	5
NMSTR	78	0	6
NMSI_	78	0	6	96	48	3
NMSTR	78	0	7
NMSI_	78	0	7	96	48	3
EXTAP	78	96	6
EXTAP	78	96	7
NMTAP	78	192	2
NMTAP	78	240	1
NMTAP	78	288	0
NMTAP	78	288	6
NMTAP	79	0	1
NMTAP	79	0	7
NMSTR	79	96	6
NMSI_	79	96	6	96	48	3
NMSTR	79	96	7
NMSI_	79	96	7	96	48	3
EXTAP	79	192	6
EXTAP	79	192	7
NMHLD	79	288	1	96
NMTAP	80	0	3
NMTAP	80	48	3
NMTAP	80	144	4
NMTAP	80	144	6
NMTAP	80	192	4
NMTAP	80	192	6
NMTTP	80	288	0	C	1	M1
NMTTP	80	288	3	B	0	M1
NMTTP	80	288	5	B	0	M1
EXTAP	81	0	1
EXTAP	81	48	1
NMTAP	81	96	7
NMTAP	81	144	0
NMTAP	81	192	5
NMTAP	81	240	5
NMTAP	81	288	3
NMTAP	81	336	3
NMHLD	82	0	2	48
NMHLD	82	0	4	48
NMHLD	82	96	0	48
NMHLD	82	96	6	48
NMHLD	82	192	2	48
NMHLD	82	192	4	48
NMHLD	82	288	0	48
NMHLD	82	288	6	48
NMTAP	83	0	2
NMTAP	83	48	2
NMTAP	83	96	3
NMTAP	83	144	0
NMTAP	83	192	5
NMTAP	83	240	5
NMTAP	83	288	4
NMTAP	83	336	7
NMSTR	84	0	0
NMSI_	84	0	0	96	48	3
NMSTR	84	0	6
NMSI_	84	0	6	96	48	3
NMSTR	84	192	0
NMSV_	84	192	0	96	48	3
NMSTR	84	192	6
NMSV_	84	192	6	96	48	3
NMTAP	85	0	5
NMTAP	85	48	5
NMTAP	85	96	3
NMTAP	85	144	6
NMTAP	85	192	2
NMTAP	85	240	2
NMTAP	85	288	4
NMTAP	85	336	1
NMHLD	86	0	0	48
NMHLD	86	0	6	48
NMHLD	86	96	2	48
NMHLD	86	96	4	48
NMHLD	86	192	0	48
NMHLD	86	192	6	48
BRTAP	86	288	2
BRSTR	86	288	7
NMSI_	86	288	7	96	48	3
NMTAP	87	0	1
NMTAP	87	48	1
NMTAP	87	96	4
NMTAP	87	144	4
EXTAP	87	192	2
NMTAP	87	240	2
EXTAP	87	288	5
NMTAP	87	336	5
NMTAP	88	0	0
NMTAP	88	48	0
NMTAP	88	96	0
NMHLD	88	144	7	24
NMHLD	88	192	7	24
NMHLD	88	240	7	24
NMTAP	88	288	0
NMTAP	88	336	0
BRTAP	89	0	0
NMTAP	89	96	1
NMTAP	89	96	3
NMTAP	89	192	3
NMTAP	89	192	4
NMSTR	89	288	6
NMSI_	89	288	6	96	48	3
NMSTR	90	0	2
NMSI_	90	0	2	96	48	7
NMSTR	90	96	5
NMSI_	90	96	5	96	48	0
NMSTR	90	192	1
NMSI_	90	192	1	96	48	4
NMTAP	90	288	7
NMHLD	91	0	7	384
NMTAP	91	96	4
NMTAP	91	192	4
NMTAP	91	288	2
NMHLD	92	0	0	288
NMTAP	92	96	3
NMTAP	92	192	3
NMTAP	92	288	5
NMTAP	93	0	6
NMTAP	93	0	7
NMTAP	93	96	4
NMTAP	93	96	6
NMTAP	93	192	3
NMTAP	93	192	4
NMSTR	93	288	1
NMSI_	93	288	1	96	48	4
NMSTR	94	0	5
NMSI_	94	0	5	96	48	0
NMSTR	94	96	2
NMSI_	94	96	2	96	48	7
NMSTR	94	192	6
NMSI_	94	192	6	96	48	3
BRTAP	94	288	0
NMTAP	95	0	1
NMTAP	95	48	1
NMTAP	95	96	5
NMTAP	95	144	5
NMTAP	95	192	3
NMTAP	95	240	3
NMTAP	95	288	6
NMTAP	95	336	6
EXTAP	96	0	4
EXTAP	96	48	3
EXTAP	96	96	2
EXHLD	96	144	1	24
EXHLD	96	192	0	24
EXHLD	96	240	7	24
EXTAP	96	288	6
EXTAP	96	348	5
EXHLD	97	24	2	120
EXSTR	97	24	4
NMSCR	97	24	4	96	96	0

T_REC_TAP	250
T_REC_BRK	17
T_REC_XTP	49
T_REC_BXX	8
T_REC_HLD	77
T_REC_XHO	4
T_REC_BHO	3
T_REC_BXH	8
T_REC_STR	100
T_REC_BST	6
T_REC_XST	2
T_REC_XBS	0
T_REC_TTP	16
T_REC_THO	0
T_REC_SLD	105
T_REC_BSL	4
T_REC_ALL	649
T_NUM_TAP	417
T_NUM_BRK	46
T_NUM_HLD	81
T_NUM_SLD	105
T_NUM_ALL	649
T_JUDGE_TAP	448
T_JUDGE_HLD	176
T_JUDGE_SLD	109
T_JUDGE_ALL	733
TTM_EACHPAIRS	127
TTM_SCR_TAP	208500
TTM_SCR_BRK	119600
TTM_SCR_HLD	81000
TTM_SCR_SLD	157500
TTM_SCR_ALL	566600
TTM_SCR_S	545150
TTM_SCR_SS	562000
TTM_RAT_ACV	10081

