VERSION	0.00.00	1.04.00
FES_MODE	0
BPM_DEF	147.000	147.000	147.000	147.000
MET_DEF	4	4
RESOLUTION	384
CLK_DEF	384
COMPATIBLE_CODE	MA2

BPM	0	0	147.000
MET	0	0	4	4

NMHLD	4	0	5	144
NMHLD	4	144	4	144
NMHLD	4	288	3	144
NMHLD	5	48	2	144
NMTAP	5	192	3
NMTAP	5	288	3
NMSTR	6	0	2
NMSCR	6	0	2	96	192	5
NMTAP	7	192	4
NMTAP	7	192	5
NMSTR	8	0	5
NMSCL	8	0	5	96	192	2
NMTAP	9	192	2
NMTAP	9	192	3
NMSTR	10	0	1
NMSCR	10	0	1	96	192	4
NMTAP	11	96	5
NMTAP	11	192	4
NMTAP	11	192	5
NMSTR	12	0	6
NMSCL	12	0	6	96	192	3
NMTAP	13	96	3
NMTAP	13	96	4
NMTAP	13	192	2
NMTAP	13	192	5
NMTAP	14	0	2
NMTAP	14	96	1
NMTAP	14	192	7
NMTAP	14	240	7
NMTAP	14	288	0
NMTAP	14	288	6
NMTAP	15	0	5
NMTAP	15	96	6
NMTAP	15	192	0
NMTAP	15	240	0
NMTAP	15	288	1
NMTAP	15	288	7
NMTAP	16	0	1
NMTAP	16	48	1
NMTAP	16	96	0
NMTAP	16	96	1
NMTAP	16	192	6
NMTAP	16	240	6
NMTAP	16	288	6
NMTAP	16	288	7
NMTAP	17	0	0
NMTAP	17	0	6
NMSTR	17	96	1
NMSV_	17	96	1	96	96	3
NMSTR	17	96	5
NMSV_	17	96	5	96	96	7
BRTAP	18	0	2
BRTAP	18	0	6
NMTAP	18	96	1
NMTAP	18	144	1
NMTAP	18	192	0
NMTAP	18	288	1
NMTAP	18	288	7
NMTAP	19	0	6
NMTAP	19	48	6
NMTAP	19	96	7
NMTAP	19	192	0
NMTAP	19	192	6
NMTAP	19	288	1
NMTAP	19	288	5
NMTAP	20	0	2
NMTAP	20	48	2
NMTAP	20	96	0
NMTAP	20	192	5
NMTAP	20	240	5
NMTAP	20	288	7
NMTAP	21	0	1
NMTAP	21	48	1
NMTAP	21	96	0
NMSTR	21	192	0
NMSI_	21	192	0	96	48	3
NMSTR	21	192	7
NMSI_	21	192	7	96	48	4
NMHLD	22	0	5	384
NMTTP	22	192	5	E	0	M1
NMHLD	23	0	2	384
NMTTP	23	192	3	E	0	M1
NMTTP	24	0	6	E	0	M1
NMTTP	24	96	5	E	0	M1
NMTTP	24	192	2	E	0	M1
NMTTP	24	288	3	E	0	M1
NMTTP	25	0	5	B	0	M1
NMTTP	25	0	5	A	0	M1
NMTTP	25	96	2	B	0	M1
NMTTP	25	96	2	A	0	M1
NMTTP	25	192	0	C	0	M1
NMHLD	26	0	1	384
NMTTP	26	192	3	E	0	M1
NMHLD	27	0	6	384
NMTTP	27	192	5	E	0	M1
NMTAP	28	0	3
NMTAP	28	96	4
NMTAP	28	96	5
EXTAP	28	192	2
NMTAP	28	192	3
NMTAP	28	288	1
EXHLD	28	288	5	480
NMTAP	29	0	0
NMTAP	29	48	0
NMTAP	29	96	0
EXTAP	29	144	7
EXTAP	29	192	7
EXTAP	29	240	7
NMTAP	29	288	0
NMTAP	29	336	0
BRTAP	30	0	0
NMSTR	30	96	6
NMSI_	30	96	6	96	48	4
NMSTR	30	96	7
NMSI_	30	96	7	96	48	3
NMTAP	30	288	2
NMSTR	31	0	0
NMSI_	31	0	0	96	48	4
NMSTR	31	0	1
NMSI_	31	0	1	96	48	3
NMTAP	31	192	7
NMTAP	31	240	7
NMTAP	31	288	0
NMTAP	31	288	6
NMTAP	32	0	1
NMSTR	32	96	0
NMSI_	32	96	0	96	48	4
NMSTR	32	96	1
NMSI_	32	96	1	96	48	3
NMTAP	32	288	5
NMTAP	33	0	6
NMTAP	33	0	7
NMTAP	33	48	6
NMTAP	33	48	7
NMTAP	33	144	0
NMTAP	33	144	1
NMTAP	33	192	0
NMTAP	33	192	1
BRTAP	33	288	2
BRTAP	33	288	7
NMTAP	34	0	0
NMTAP	34	0	1
NMSTR	34	96	0
NMSI_	34	96	0	96	48	4
NMSTR	34	96	1
NMSI_	34	96	1	96	48	3
NMTAP	34	288	5
NMSTR	35	0	6
NMSI_	35	0	6	96	48	4
NMSTR	35	0	7
NMSI_	35	0	7	96	48	3
NMTAP	35	192	0
NMTAP	35	240	0
NMTAP	35	288	1
NMTAP	35	288	7
NMTAP	36	0	6
NMSTR	36	96	6
NMSI_	36	96	6	96	48	4
NMSTR	36	96	7
NMSI_	36	96	7	96	48	3
NMTAP	36	288	2
NMTAP	37	0	1
NMTAP	37	0	7
NMTAP	37	48	1
NMTAP	37	48	7
NMTAP	37	144	0
NMTAP	37	144	6
NMTAP	37	192	0
NMTAP	37	192	6
BRTAP	37	288	1
BRTAP	37	288	5
NMTAP	38	0	6
NMTAP	38	48	7
NMTAP	38	96	0
NMTAP	38	96	5
NMTAP	38	192	1
NMTAP	38	240	0
NMHLD	38	288	2	384
NMTAP	38	288	7
NMSTR	39	0	6
NMSI_	39	0	6	96	48	4
NMSTR	39	192	1
NMSI_	39	192	1	96	48	3
NMTAP	40	0	5
NMTAP	40	48	4
NMTAP	40	96	3
NMTAP	40	96	6
NMTAP	40	192	2
NMTAP	40	240	3
NMTAP	40	288	1
NMHLD	40	288	4	288
NMSTR	41	0	1
NMSI_	41	0	1	96	48	3
CNSI_	41	144	3	0	48	7
NMTAP	41	288	0
NMTAP	41	288	6
NMTAP	42	0	5
NMTAP	42	48	7
NMTAP	42	96	0
NMTAP	42	96	6
NMTAP	42	192	2
NMTAP	42	240	0
NMTAP	42	288	1
NMTAP	42	288	7
NMSTR	43	0	0
NMSV_	43	0	0	96	48	3
NMSTR	43	0	6
NMSCL	43	0	6	96	48	3
NMSTR	43	192	1
NMSCR	43	192	1	96	48	4
NMSTR	43	192	7
NMSV_	43	192	7	96	48	4
NMTAP	44	0	3
NMTAP	44	0	5
NMTAP	44	96	0
NMTAP	44	96	1
EXTAP	44	192	2
NMTAP	44	192	4
NMTAP	44	288	0
EXHLD	44	288	5	480
NMTAP	45	0	7
NMTAP	45	48	7
NMTAP	45	96	7
EXTAP	45	144	6
EXTAP	45	192	6
EXTAP	45	240	6
NMTAP	45	288	7
NMTAP	45	336	7
BRTAP	46	0	7
NMTAP	46	96	6
NMTAP	46	96	7
NMTAP	46	192	5
NMTAP	46	288	4
NMTAP	46	288	6
NMTAP	47	0	3
NMTAP	47	96	2
NMTAP	47	96	3
NMTAP	47	192	1
NMTAP	47	240	1
NMTAP	47	288	0
BRTAP	48	0	1
BRTAP	48	0	7
NMTAP	48	96	2
NMTAP	48	192	2
NMTAP	48	192	3
NMTAP	48	288	4
NMTAP	49	0	3
NMTAP	49	0	5
NMSTR	49	96	6
NMSV_	49	96	6	96	128	5
CNSI_	49	320	5	0	64	3
NMTAP	50	0	2
NMTAP	50	96	2
NMTAP	50	96	3
NMTAP	50	192	1
NMTAP	50	288	0
NMTAP	50	288	2
NMTAP	51	0	7
NMTAP	51	96	6
NMTAP	51	96	7
NMTAP	51	192	5
NMTAP	51	240	5
NMTAP	51	288	4
BRTAP	52	0	3
BRTAP	52	0	5
NMTAP	52	96	6
NMTAP	52	192	0
NMTAP	52	192	7
NMHLD	52	288	1	96
NMHLD	53	0	3	96
NMHLD	53	96	4	96
NMTAP	53	192	5
BRSTR	53	288	1
NMSCR	53	288	1	96	288	0
BRTAP	53	288	7
CNSXR	54	288	0	0	288	4
EXSTR	55	288	6
NMSUL	55	288	6	96	264	3
CNSCL	56	264	3	0	312	4
NMTAP	57	288	2
NMTAP	57	288	3
NMSTR	58	0	1
NMSCR	58	0	1	96	96	3
NMSTR	58	192	6
NMSCL	58	192	6	96	96	4
NMSTR	59	0	2
NMSV_	59	0	2	96	192	4
NMSLL	59	0	2	96	192	4
NMHLD	60	0	5	192
NMHLD	60	192	6	192
NMSTR	61	0	7
NMSI_	61	0	7	96	96	3
NMTAP	61	288	2
NMTAP	61	288	4
NMTAP	62	0	4
NMHLD	62	96	5	288
NMTTP	62	192	5	E	0	M1
NMTAP	63	0	3
NMHLD	63	96	2	288
NMTTP	63	192	3	E	0	M1
NMTTP	64	0	6	E	0	M1
NMTTP	64	96	5	E	0	M1
NMTTP	64	192	2	E	0	M1
NMTTP	64	288	3	E	0	M1
NMTTP	65	0	5	B	0	M1
NMTTP	65	0	5	A	0	M1
NMTTP	65	96	2	B	0	M1
NMTTP	65	96	2	A	0	M1
NMTTP	65	192	4	E	0	M1
NMTAP	66	0	2
NMHLD	66	96	1	288
NMTTP	66	192	3	E	0	M1
NMTAP	67	0	5
NMHLD	67	96	6	288
NMTTP	67	192	5	E	0	M1
NMHLD	68	0	1	96
NMHLD	68	96	3	96
EXHLD	68	192	2	96
EXHLD	68	288	5	96
NMHLD	69	0	4	96
NMHLD	69	96	6	96
NMHLD	69	192	0	96
NMHLD	69	288	7	96
NMTAP	70	0	0
NMTAP	70	48	0
NMTAP	70	96	6
NMTAP	70	144	6
NMTAP	70	192	1
NMTAP	70	240	1
NMTAP	70	288	7
NMHLD	71	0	0	384
NMTAP	71	0	7
NMTAP	72	0	7
NMTAP	72	48	6
NMTAP	72	96	5
EXTAP	72	144	4
EXTAP	72	192	3
EXTAP	72	240	2
NMTAP	72	288	1
NMTAP	72	336	0
BRTAP	73	0	7
NMSTR	73	96	0
NMSI_	73	96	0	96	48	3
NMSTR	73	96	6
NMSI_	73	96	6	96	48	3
NMTAP	73	288	2
NMSTR	74	0	1
NMSI_	74	0	1	96	48	4
NMSTR	74	0	7
NMSI_	74	0	7	96	48	4
NMTAP	74	192	6
NMTAP	74	240	6
NMTAP	74	288	5
NMTAP	74	288	7
NMTAP	75	0	0
NMSTR	75	96	1
NMSI_	75	96	1	96	48	4
NMSTR	75	96	7
NMSI_	75	96	7	96	48	4
NMTAP	75	288	5
NMTAP	76	0	0
NMTAP	76	0	6
NMTAP	76	48	0
NMTAP	76	48	6
NMTAP	76	144	1
NMTAP	76	144	7
NMTAP	76	192	1
NMTAP	76	192	7
BRTAP	76	288	2
BRTAP	76	288	6
NMTAP	77	0	1
NMTAP	77	0	7
NMSTR	77	96	1
NMSI_	77	96	1	96	48	4
NMSTR	77	96	7
NMSI_	77	96	7	96	48	4
NMTAP	77	288	5
NMSTR	78	0	0
NMSI_	78	0	0	96	48	3
NMSTR	78	0	6
NMSI_	78	0	6	96	48	3
NMTAP	78	192	1
NMTAP	78	240	1
NMTAP	78	288	0
NMTAP	78	288	2
NMTAP	79	0	7
NMSTR	79	96	0
NMSI_	79	96	0	96	48	3
NMSTR	79	96	6
NMSI_	79	96	6	96	48	3
NMTAP	79	288	1
NMTAP	80	0	0
NMTAP	80	0	2
NMTAP	80	48	0
NMTAP	80	48	2
NMTAP	80	144	5
NMTAP	80	144	7
NMTAP	80	192	5
NMTAP	80	192	7
BRTAP	80	288	0
BRTAP	80	288	4
NMTAP	81	0	6
NMTAP	81	48	7
NMTAP	81	96	0
NMTAP	81	96	5
NMTAP	81	192	1
NMTAP	81	240	0
NMHLD	81	288	2	384
NMTAP	81	288	7
NMSTR	82	0	6
NMSI_	82	0	6	96	48	3
NMSTR	82	192	1
NMSI_	82	192	1	96	48	4
NMTAP	83	0	5
NMTAP	83	48	4
NMTAP	83	96	3
NMTAP	83	96	6
NMTAP	83	192	2
NMTAP	83	240	3
NMTAP	83	288	1
NMHLD	83	288	4	288
NMSTR	84	0	0
NMSI_	84	0	0	96	48	3
CNSI_	84	144	3	0	48	6
NMTAP	84	288	5
NMTAP	84	288	7
NMTAP	85	0	5
NMTAP	85	48	7
NMTAP	85	96	0
NMTAP	85	96	6
NMTAP	85	192	2
NMTAP	85	240	0
NMTAP	85	288	1
NMTAP	85	288	7
NMSTR	86	0	0
NMSCR	86	0	0	96	48	3
NMSTR	86	0	6
NMSV_	86	0	6	96	48	3
NMSTR	86	192	1
NMSV_	86	192	1	96	48	4
NMSTR	86	192	7
NMSCL	86	192	7	96	48	4
NMTAP	87	0	3
NMTAP	87	0	5
NMTAP	87	96	0
NMTAP	87	96	1
EXTAP	87	192	2
NMTAP	87	192	3
EXTAP	87	288	5
NMTAP	87	288	7
NMTAP	88	0	0
NMTAP	88	48	1
NMTAP	88	96	2
EXTAP	88	144	3
EXTAP	88	192	4
EXTAP	88	240	5
NMTAP	88	288	6
NMTAP	88	336	7
BRTAP	89	0	0
NMTAP	89	96	2
NMTAP	89	144	3
NMTAP	89	192	1
NMTAP	89	288	0
NMTAP	89	288	7
NMTAP	90	0	6
NMTAP	90	48	4
NMTAP	90	96	5
NMTAP	90	192	3
NMTAP	90	192	6
NMTAP	90	288	1
NMTAP	90	288	4
NMTAP	91	0	2
NMSTR	91	0	3
NMSI_	91	0	3	96	48	7
NMSTR	91	192	4
NMSI_	91	192	4	96	48	0
NMTAP	91	192	6
NMHLD	92	0	1	96
NMHLD	92	96	3	96
NMHLD	92	192	5	96
NMHLD	92	288	7	96
NMTAP	93	0	0
NMTAP	93	96	6
NMTAP	93	144	7
NMTAP	93	192	5
NMTAP	93	288	0
NMTAP	93	288	4
NMTAP	94	0	1
NMTAP	94	48	3
NMTAP	94	96	2
NMTAP	94	192	3
NMTAP	94	192	4
BRTAP	94	288	2
BRTAP	94	288	6
NMTAP	95	0	0
NMTAP	95	0	1
NMTAP	95	96	5
NMTAP	95	96	6
EXTAP	95	192	2
NMTAP	95	192	3
NMTAP	95	288	0
EXTAP	95	288	5
NMTTP	96	0	7	A	0	M1
NMTTP	96	48	6	A	0	M1
NMTTP	96	96	5	A	0	M1
NMTTP	96	144	4	A	1	M1
NMTTP	96	192	3	A	1	M1
NMTTP	96	240	2	A	1	M1
NMTTP	96	288	1	A	0	M1
NMTTP	96	348	0	A	0	M1
NMTHO	97	24	0	132	C	0	M1

T_REC_TAP	285
T_REC_BRK	21
T_REC_XTP	18
T_REC_BXX	0
T_REC_HLD	32
T_REC_XHO	4
T_REC_BHO	0
T_REC_BXH	0
T_REC_STR	53
T_REC_BST	1
T_REC_XST	1
T_REC_XBS	0
T_REC_TTP	34
T_REC_THO	1
T_REC_SLD	56
T_REC_BSL	0
T_REC_ALL	506
T_NUM_TAP	391
T_NUM_BRK	22
T_NUM_HLD	37
T_NUM_SLD	56
T_NUM_ALL	506
T_JUDGE_TAP	413
T_JUDGE_HLD	165
T_JUDGE_SLD	56
T_JUDGE_ALL	634
TTM_EACHPAIRS	110
TTM_SCR_TAP	195500
TTM_SCR_BRK	57200
TTM_SCR_HLD	37000
TTM_SCR_SLD	84000
TTM_SCR_ALL	373700
TTM_SCR_S	360400
TTM_SCR_SS	371500
TTM_RAT_ACV	10059

