VERSION	0.00.00	1.04.00
FES_MODE	0
BPM_DEF	195.000	195.000	195.000	195.000
MET_DEF	4	4
RESOLUTION	384
CLK_DEF	384
COMPATIBLE_CODE	MA2

BPM	0	0	195.000
MET	0	0	4	4
MET	34	0	4	3
MET	42	96	4	4
MET	64	96	4	3
MET	72	192	4	4

NMSTR	2	0	2
NMSUL	2	0	2	96	576	0
NMSTR	2	0	6
NMSUL	2	0	6	96	576	4
NMHLD	4	0	1	288
NMSTR	4	0	3
NMSI_	4	0	3	96	96	5
CNSI_	4	192	5	0	96	0
NMTAP	5	0	2
NMHLD	5	0	7	192
NMTTP	5	192	0	C	0	M1
EXTAP	6	0	0
EXTAP	6	0	1
NMTAP	6	96	6
NMHLD	6	144	5	96
NMTAP	6	144	7
NMSTR	6	240	4
NMSI_	6	240	4	96	48	7
NMTAP	6	336	2
NMTAP	7	48	1
NMTAP	7	72	0
NMTAP	7	96	1
NMTAP	7	144	2
NMTAP	7	192	3
NMTAP	7	240	4
NMTAP	7	288	5
NMTAP	8	0	4
NMTAP	8	0	6
NMTAP	8	48	4
NMTAP	8	48	6
NMTAP	8	96	4
NMTAP	8	96	6
NMTAP	8	192	1
NMTAP	8	192	3
NMTAP	8	240	1
NMTAP	8	240	3
NMTAP	8	336	0
NMTAP	8	336	7
NMTAP	9	48	3
NMTAP	9	48	5
NMTAP	9	96	3
NMTAP	9	96	5
NMTAP	9	144	3
NMTAP	9	144	5
NMTAP	9	192	3
NMTAP	9	192	5
EXTAP	9	336	0
EXSTR	9	336	6
NMSI_	9	336	6	96	48	3
NMTAP	10	48	7
NMTAP	10	96	0
NMTAP	10	144	1
NMTAP	10	192	2
NMTAP	10	192	3
NMTAP	10	240	2
NMTAP	10	240	3
NMSTR	10	336	1
NMSI_	10	336	1	96	48	4
NMTAP	10	336	7
NMTAP	11	48	0
NMTAP	11	96	7
NMTAP	11	144	6
NMTAP	11	192	4
NMTAP	11	192	5
NMTAP	11	240	3
NMTAP	11	240	6
NMTAP	11	336	0
NMSTR	11	336	6
NMSI_	11	336	6	96	48	3
NMTAP	12	48	7
NMTAP	12	96	0
NMTAP	12	144	1
NMTAP	12	192	2
NMTAP	12	192	4
NMTAP	12	240	2
NMTAP	12	240	4
NMTAP	12	336	6
NMSTR	12	336	7
NMSI_	12	336	7	96	48	3
NMSTR	13	48	5
NMSI_	13	48	5	96	48	1
NMTAP	13	144	1
BXTAP	13	192	0
BXTAP	13	240	0
EXSTR	13	336	1
NMSI_	13	336	1	96	48	4
EXTAP	13	336	6
NMTAP	14	48	0
NMTAP	14	96	7
NMTAP	14	144	6
NMTAP	14	192	4
NMTAP	14	192	5
NMTAP	14	240	4
NMTAP	14	240	5
NMTAP	14	336	0
NMSTR	14	336	6
NMSI_	14	336	6	96	48	3
NMTAP	15	48	7
NMTAP	15	96	0
NMTAP	15	144	1
NMTAP	15	192	2
NMTAP	15	192	3
NMTAP	15	240	1
NMTAP	15	240	4
NMSTR	15	336	1
NMSI_	15	336	1	96	48	4
NMTAP	15	336	7
NMTAP	16	48	0
NMTAP	16	96	7
NMTAP	16	144	6
NMTAP	16	192	3
NMTAP	16	192	5
NMTAP	16	240	3
NMTAP	16	240	5
NMSTR	16	336	0
NMSI_	16	336	0	96	48	4
NMTAP	16	336	1
NMSTR	17	48	2
NMSI_	17	48	2	96	48	6
NMTAP	17	144	6
BXTAP	17	192	7
EXTAP	17	288	0
EXHLD	17	288	1	480
NMSTR	18	0	2
NMSI_	18	0	2	96	48	4
NMTAP	18	192	5
NMTAP	18	288	5
NMHLD	19	0	6	96
NMHLD	19	192	4	96
NMHLD	19	192	7	96
NMSTR	20	0	5
NMSI_	20	0	5	96	48	3
NMHLD	20	0	6	384
NMTAP	20	192	2
NMTAP	20	288	2
NMHLD	21	0	1	96
NMHLD	21	192	0	96
NMHLD	21	192	3	96
NMHLD	22	0	1	192
NMSTR	22	0	2
NMSI_	22	0	2	96	48	4
NMTAP	22	192	5
NMTAP	22	288	5
NMHLD	23	0	0	192
NMSTR	23	0	6
NMSI_	23	0	6	96	48	4
NMTAP	23	192	3
NMTAP	23	288	3
NMHLD	24	0	1	96
NMSTR	24	0	2
NMSI_	24	0	2	96	48	4
NMHLD	24	192	0	96
NMSTR	24	192	5
NMSI_	24	192	5	96	48	7
NMTAP	25	0	0
NMTAP	25	48	0
NMTAP	25	96	7
NMTAP	25	144	7
NMSTR	25	192	1
NMSCR	25	192	1	96	48	3
NMSTR	25	192	6
NMSCL	25	192	6	96	48	4
EXTAP	26	0	1
NMTAP	26	96	0
NMSTR	26	144	0
NMSI_	26	144	0	96	48	2
NMSTR	26	240	0
NMSI_	26	240	0	96	48	6
NMSTR	26	336	0
NMSI_	26	336	0	96	48	4
NMTAP	27	48	0
NMTAP	27	144	6
NMTAP	27	192	4
NMTAP	27	192	6
NMTAP	27	288	1
NMTAP	27	288	3
NMTAP	28	0	1
NMTAP	28	0	7
NMTAP	28	96	6
NMSTR	28	144	6
NMSI_	28	144	6	96	48	4
NMSTR	28	240	6
NMSI_	28	240	6	96	48	0
NMTAP	28	336	6
NMTAP	29	48	5
NMTAP	29	96	4
NMTAP	29	144	3
NMTAP	29	192	0
NMTAP	29	192	2
NMTAP	29	288	6
NMTAP	29	288	7
NMSTR	30	0	1
NMSI_	30	0	1	96	48	7
NMTAP	30	0	5
NMTAP	30	96	3
NMTAP	30	144	3
NMSTR	30	192	1
NMSI_	30	192	1	96	48	7
NMTAP	30	192	3
NMTAP	30	288	5
NMHLD	30	336	5	240
NMTAP	31	48	4
NMTAP	31	144	2
NMSTR	31	192	2
NMSI_	31	192	2	96	48	4
NMTAP	31	288	5
NMTAP	31	336	5
NMSTR	32	0	5
NMSI_	32	0	5	96	48	1
NMTAP	32	96	0
NMSTR	32	144	0
NMSI_	32	144	0	96	48	4
NMSTR	32	240	5
NMSCR	32	240	5	96	192	2
NMTTP	32	336	0	B	0	M1
NMTTP	32	336	0	E	1	M1
NMTTP	32	336	7	B	0	M1
NMSTR	34	0	3
NMSCR	34	0	3	96	96	6
NMHLD	34	0	4	192
NMSTR	34	288	4
NMSI_	34	288	4	96	48	6
NMHLD	34	288	7	192
NMSTR	35	192	0
NMSI_	35	192	0	96	48	6
NMHLD	35	192	5	192
NMHLD	36	96	6	192
NMSTR	36	96	7
NMSI_	36	96	7	96	48	5
NMHLD	37	0	3	192
NMSTR	37	0	4
NMSCL	37	0	4	96	96	1
NMHLD	37	288	0	192
NMSTR	37	288	3
NMSI_	37	288	3	96	48	1
NMHLD	38	192	2	192
NMSTR	38	192	7
NMSI_	38	192	7	96	48	1
NMSTR	39	96	0
NMSI_	39	96	0	96	48	2
NMHLD	39	96	1	192
NMHLD	40	0	0	192
NMSTR	40	0	3
NMSV_	40	0	3	96	96	5
NMHLD	40	288	3	192
NMSTR	40	288	6
NMSV_	40	288	6	96	96	0
NMSTR	41	192	2
NMSLL	41	192	2	96	96	5
NMHLD	41	192	7	288
CNSSL	42	0	5	0	288	1
NMTAP	43	0	0
NMTAP	43	0	7
NMTAP	43	96	7
NMTAP	43	144	7
NMTAP	43	192	4
NMTAP	43	240	4
NMTAP	43	288	6
NMTAP	43	336	6
NMTAP	44	0	3
NMTAP	44	48	3
NMTAP	44	96	5
NMTAP	44	144	5
NMTAP	44	192	4
NMTAP	44	192	6
NMTAP	44	288	2
NMTAP	44	336	2
NMTAP	45	0	1
NMTAP	45	0	3
NMTAP	45	96	0
NMSTR	45	144	0
NMSI_	45	144	0	96	48	5
NMSI_	45	144	0	96	48	6
NMSTR	45	240	0
NMSI_	45	240	0	96	48	2
NMSI_	45	240	0	96	48	3
NMSTR	45	336	0
NMSF_	45	336	0	96	48	4
BRTAP	46	48	0
NMTAP	46	288	3
NMTAP	46	312	4
NMTAP	46	336	3
NMTAP	47	0	2
NMTAP	47	0	5
BRSTR	47	96	1
NMSI_	47	96	1	96	48	5
BRSTR	47	96	6
NMSI_	47	96	6	96	48	0
NMTAP	47	288	4
NMTAP	47	288	7
NMTAP	47	336	3
NMTAP	47	336	6
NMHLD	48	48	0	144
NMTAP	48	48	5
NMTAP	48	144	2
NMSTR	48	192	2
NMSI_	48	192	2	96	48	5
NMTAP	48	288	1
NMTAP	48	336	1
CNSI_	48	336	5	0	48	0
NMTAP	49	48	2
NMTAP	49	96	0
NMTAP	49	96	3
NMTAP	49	144	7
NMTAP	49	192	4
NMSTR	49	192	6
NMSI_	49	192	6	96	48	2
NMTAP	49	288	0
NMTAP	49	288	6
NMTAP	50	0	1
NMHLD	50	48	1	96
NMTAP	50	144	0
NMTAP	50	192	0
NMTAP	50	288	3
NMTAP	50	288	6
NMTAP	50	336	5
NMTAP	50	360	4
NMTAP	51	0	5
NMTAP	51	48	3
NMTAP	51	48	4
BRSTR	51	96	1
NMSI_	51	96	1	96	48	7
BRSTR	51	96	6
NMSI_	51	96	6	96	48	2
NMTAP	51	288	0
NMTAP	51	288	3
NMTAP	51	336	1
NMTAP	51	336	4
NMTAP	52	0	2
NMTAP	52	0	5
NMTAP	52	48	3
NMHLD	52	48	6	96
NMTAP	52	144	7
NMSTR	52	192	0
NMSI_	52	192	0	96	48	4
NMSTR	52	240	7
NMSI_	52	240	7	96	48	5
NMTAP	52	288	0
NMTAP	52	336	7
NMTAP	53	48	1
NMTAP	53	96	1
NMTAP	53	96	7
NMTAP	53	144	2
NMTAP	53	192	3
NMTAP	53	240	4
NMTAP	53	288	5
NMTAP	53	288	7
NMSTR	53	336	0
NMSXR	53	336	0	96	144	5
NMTAP	54	0	1
NMSTR	54	48	2
NMSCR	54	48	2	96	48	4
NMTAP	54	288	6
NMTAP	54	312	4
NMTAP	54	336	6
NMTAP	54	360	4
EXTAP	55	0	7
BRSTR	55	96	1
NMSI_	55	96	1	96	48	3
NMSI_	55	96	1	96	48	5
NMTAP	55	288	3
NMTAP	55	288	4
NMTAP	55	336	5
NMTAP	56	0	6
NMTAP	56	0	7
NMSTR	56	48	0
NMSI_	56	48	0	96	48	4
NMSTR	56	144	5
NMSI_	56	144	5	96	48	7
NMTAP	56	192	5
NMTAP	56	240	3
NMTAP	56	288	2
NMTAP	56	336	0
NMHLD	56	336	1	336
NMTAP	57	48	2
NMTAP	57	96	3
NMTAP	57	144	4
NMTAP	57	192	5
NMTAP	57	240	6
NMSTR	57	288	7
NMSCL	57	288	7	96	96	3
NMTAP	57	336	2
NMTAP	58	0	1
NMTAP	58	48	0
NMTAP	58	144	1
NMTAP	58	144	2
NMTAP	58	240	1
NMSTR	58	288	1
NMSI_	58	288	1	96	48	3
NMSTR	58	288	7
NMSI_	58	288	7	96	48	3
BXTAP	59	96	2
BXTAP	59	96	4
NMTAP	59	144	5
NMTAP	59	192	5
BXTAP	59	240	0
BXTAP	59	240	6
NMTAP	59	288	1
NMTAP	59	336	1
BXTAP	60	0	2
BXTAP	60	0	4
NMHLD	60	48	3	240
NMTAP	60	48	5
NMTAP	60	144	1
NMTAP	60	192	1
BRSTR	60	288	0
NMSI_	60	288	0	96	48	4
EXTAP	60	304	7
EXTAP	60	320	6
EXTAP	60	336	5
EXTAP	60	352	4
EXTAP	61	0	0
NMSTR	61	96	6
NMSI_	61	96	6	96	48	2
NMTAP	61	144	7
NMSTR	61	192	0
NMSCR	61	192	0	96	48	3
NMTAP	61	288	4
NMTAP	61	336	5
NMTAP	62	0	6
BRTAP	62	48	4
NMHLD	62	48	7	240
NMTAP	62	144	5
NMTAP	62	192	5
NMTAP	62	240	5
NMSTR	62	288	5
BRSI_	62	288	5	96	48	1
BRSTR	63	0	3
NMSCL	63	0	3	96	96	0
CNSSL	63	192	0	0	192	4
NMSTR	64	96	4
NMSCR	64	96	4	96	96	7
NMHLD	64	96	5	192
NMHLD	65	0	0	192
NMSTR	65	0	5
NMSI_	65	0	5	96	48	7
NMSTR	65	288	1
NMSI_	65	288	1	96	48	7
NMHLD	65	288	6	192
NMSTR	66	192	0
NMSUL	66	192	0	96	96	2
NMSTR	66	192	5
NMSI_	66	192	5	96	96	2
NMHLD	67	96	2	192
NMSTR	67	96	3
NMSCL	67	96	3	96	96	0
NMSTR	68	0	2
NMSI_	68	0	2	96	48	0
NMHLD	68	0	7	192
NMHLD	68	288	1	192
NMSTR	68	288	6
NMSI_	68	288	6	96	48	0
NMSTR	69	192	2
NMSI_	69	192	2	96	96	5
NMSTR	69	192	7
NMSUR	69	192	7	96	96	5
NMSTR	70	96	4
NMSV_	70	96	4	96	96	2
NMHLD	70	96	6	192
NMHLD	71	0	3	192
NMSTR	71	0	7
NMSV_	71	0	7	96	96	1
NMHLD	71	288	0	288
NMSTR	71	288	3
NMSLL	71	288	3	96	96	6
CNSSL	72	96	6	0	288	2
NMTAP	73	96	0
NMTAP	73	96	1
NMTAP	73	192	2
NMTAP	73	192	7
NMTAP	73	240	7
NMTAP	73	288	4
NMTAP	73	336	4
NMTAP	74	0	6
NMTAP	74	48	6
NMTAP	74	96	0
NMTAP	74	144	0
NMSTR	74	192	5
NMSI_	74	192	5	96	48	3
NMTAP	74	240	5
NMSTR	74	288	7
NMSI_	74	288	7	96	48	1
NMTAP	74	336	7
NMSTR	75	0	6
NMSI_	75	0	6	96	48	2
NMTAP	75	48	6
NMTAP	75	96	4
NMTAP	75	192	0
NMSTR	75	240	0
NMSI_	75	240	0	96	48	5
NMSI_	75	240	0	96	48	6
NMSTR	75	336	0
NMSI_	75	336	0	96	48	2
NMSI_	75	336	0	96	48	3
NMSTR	76	48	0
NMSF_	76	48	0	96	48	4
BRTAP	76	144	0
NMHLD	77	192	3	1152
NMTTP	77	192	6	B	0	M1
NMTTP	78	192	4	B	0	M1
NMTTP	79	192	0	C	0	M1
NMTTP	80	192	2	B	0	M1
NMTTP	81	192	1	B	0	M1
NMHLD	81	192	4	768
NMTTP	82	192	4	E	0	M1
NMSTR	83	192	5
NMSCR	83	192	5	96	288	0
NMTAP	85	0	6
NMTAP	85	24	7
NMTAP	85	48	6
NMTAP	85	72	7
NMTAP	85	96	0
NMTAP	85	96	5
BRSTR	85	192	1
NMSI_	85	192	1	96	48	5
BRSTR	85	192	6
NMSI_	85	192	6	96	48	0
NMTAP	86	0	4
NMTAP	86	0	7
NMTAP	86	48	3
NMHLD	86	48	6	96
NMTAP	86	144	7
NMSTR	86	192	7
NMSI_	86	192	7	96	48	3
NMTAP	86	240	6
NMSTR	86	288	5
NMSI_	86	288	5	96	48	2
NMTAP	87	0	0
NMTAP	87	48	0
CNSI_	87	48	2	0	48	7
NMTAP	87	144	0
NMTAP	87	144	6
NMTAP	87	192	1
NMTAP	87	192	5
NMTAP	87	240	2
NMTAP	87	240	4
NMSTR	87	288	3
NMSI_	87	288	3	96	48	7
NMTAP	88	0	2
NMTAP	88	96	6
NMTAP	88	144	4
NMHLD	88	144	6	96
NMTAP	88	240	7
NMTAP	88	288	7
NMTAP	89	0	0
NMTAP	89	0	5
NMTAP	89	48	2
NMTAP	89	72	3
NMTAP	89	96	2
NMTAP	89	144	3
NMTAP	89	144	4
BRSTR	89	192	1
NMSI_	89	192	1	96	48	7
BRSTR	89	192	6
NMSI_	89	192	6	96	48	2
NMTAP	90	0	0
NMTAP	90	0	3
NMHLD	90	48	1	96
NMTAP	90	48	4
NMTAP	90	144	0
NMSTR	90	192	0
NMSI_	90	192	0	96	48	4
NMTAP	90	240	1
NMSTR	90	288	2
NMSI_	90	288	2	96	48	5
NMTAP	91	0	7
CNSI_	91	48	5	0	48	0
NMTAP	91	48	7
NMTAP	91	144	6
NMTAP	91	192	4
NMTAP	91	192	5
NMTAP	91	240	3
NMTAP	91	288	1
NMTAP	91	288	2
NMTAP	91	336	0
NMTAP	92	0	6
NMTAP	92	0	7
NMSTR	92	48	5
NMSXL	92	48	5	96	144	0
NMTAP	92	96	4
NMHLD	92	144	3	144
NMTAP	93	0	3
NMTAP	93	24	7
NMTAP	93	48	2
NMTAP	93	72	6
NMTAP	93	96	1
NMTAP	93	120	5
NMTAP	93	144	0
NMTAP	93	168	4
BRSTR	93	192	7
NMSI_	93	192	7	96	48	1
NMSI_	93	192	7	96	48	3
NMTAP	94	0	2
NMTAP	94	0	4
NMTAP	94	48	3
NMSTR	94	48	5
NMSCL	94	48	5	96	48	2
NMSTR	94	144	1
NMSI_	94	144	1	96	48	5
NMTAP	94	192	1
NMSTR	94	240	0
NMSI_	94	240	0	96	48	6
NMTAP	94	288	0
NMSTR	94	336	4
NMSI_	94	336	4	96	48	0
NMTAP	95	0	3
NMHLD	95	48	2	144
NMTAP	95	144	1
NMTAP	95	192	1
NMTAP	95	240	2
NMTAP	95	288	3
NMTAP	95	288	4
NMTAP	95	336	5
NMSTR	96	0	6
NMSCL	96	0	6	96	48	3
NMTAP	96	0	7
NMTAP	96	48	0
NMTAP	96	96	1
NMHLD	96	144	2	96
NMTAP	96	240	0
NMTAP	96	336	1
NMSTR	97	0	1
NMSI_	97	0	1	96	48	5
NMSTR	97	0	7
NMSI_	97	0	7	96	48	5
BXTAP	97	192	4
BXTAP	97	192	6
NMTAP	97	240	3
NMTAP	97	288	3
BXTAP	97	336	0
BXTAP	97	336	2
NMTAP	98	0	7
NMTAP	98	48	7
BXTAP	98	96	4
BXTAP	98	96	6
NMTAP	98	144	3
NMHLD	98	144	5	240
NMTAP	98	240	6
NMTAP	98	288	6
BRSTR	99	0	7
NMSI_	99	0	7	96	48	3
EXTAP	99	16	0
EXTAP	99	32	1
EXTAP	99	48	2
EXTAP	99	64	3
EXTAP	99	96	7
NMSTR	99	192	1
NMSI_	99	192	1	96	48	5
NMTAP	99	240	0
NMSTR	99	288	7
NMSCL	99	288	7	96	48	4
NMTAP	100	0	3
NMTAP	100	48	2
NMTAP	100	96	1
NMHLD	100	144	0	240
BRSTR	100	144	3
NMSI_	100	144	3	96	48	7
BRTAP	101	0	7
NMTAP	101	12	6
NMTAP	101	24	5
NMTAP	101	36	4
NMTAP	101	48	3
NMTAP	101	60	2
NMTAP	101	72	1
NMTAP	101	84	0
NMSTR	101	96	7
BRSI_	101	96	7	96	48	3
BRSI_	101	96	7	96	48	5
BRTAP	101	192	7
NMTAP	101	288	2
NMTAP	101	288	4
NMSTR	101	336	2
NMSCR	101	336	2	96	48	5
NMTAP	101	336	4
NMSTR	102	48	3
NMSI_	102	48	3	96	48	1
NMSI_	102	48	3	96	48	7
EXTAP	102	144	3
NMTAP	102	240	0
NMSTR	102	288	0
NMSI_	102	288	0	96	48	2
NMSTR	103	0	0
NMSI_	103	0	0	96	48	6
NMTAP	103	0	4
NMSTR	103	96	0
BRSI_	103	96	0	96	48	4
NMTAP	103	96	4
EXTAP	103	192	0
EXTAP	103	192	7
NMTAP	103	288	3
NMTAP	103	288	5
NMTAP	103	336	3
NMSTR	103	336	5
NMSCL	103	336	5	96	48	2
NMSTR	104	48	4
NMSI_	104	48	4	96	48	0
NMSI_	104	48	4	96	48	6
EXTAP	104	144	4
NMTAP	104	240	7
NMSTR	104	288	7
NMSI_	104	288	7	96	48	5
NMTAP	105	0	3
NMSTR	105	0	7
NMSI_	105	0	7	96	48	1
NMTAP	105	96	3
EXSTR	105	96	7
BRSI_	105	96	7	96	48	3
EXTAP	105	192	0
EXTAP	105	192	7
NMTAP	105	288	2
NMTAP	105	288	4
NMSTR	105	336	2
NMSCR	105	336	2	96	48	5
NMTAP	105	336	4
NMSTR	106	48	3
NMSI_	106	48	3	96	48	1
NMSI_	106	48	3	96	48	7
EXTAP	106	144	3
NMTAP	106	240	0
NMSTR	106	288	0
NMSCR	106	288	0	96	96	4
NMSTR	107	0	4
NMSCR	107	0	4	96	96	0
NMSTR	107	96	0
BRSI_	107	96	0	96	48	4
BRTAP	107	192	4
NMTAP	107	288	6
NMHLD	107	336	6	96
NMHLD	108	48	0	96
NMTAP	108	144	3
NMTAP	108	192	3
NMTAP	108	240	1
NMSTR	108	288	1
NMSI_	108	288	1	96	48	5
NMSTR	108	336	5
BRSI_	108	336	5	96	48	1
NMTAP	109	0	5
BRTAP	109	192	0
NMTAP	109	240	0
NMTAP	109	288	1
NMTAP	109	288	7
NMTAP	109	336	2
NMTAP	110	0	3
NMTAP	110	0	4
NMTAP	110	48	5
NMTAP	110	96	6
NMTAP	110	96	7
NMTAP	110	144	0
NMSTR	110	192	1
NMSI_	110	192	1	96	48	5
NMTAP	110	240	1
NMSTR	110	288	7
NMSI_	110	288	7	96	48	3
NMTAP	110	336	7
NMSTR	111	0	4
NMSI_	111	0	4	96	48	0
NMTAP	111	48	4
NMTAP	111	96	6
NMTAP	111	144	7
NMTAP	111	192	0
NMTAP	111	192	1
NMTAP	111	240	7
NMTAP	111	288	0
NMTAP	111	288	6
NMTAP	111	336	5
NMTAP	112	0	3
NMTAP	112	0	4
NMTAP	112	48	2
NMTAP	112	96	0
NMTAP	112	96	1
NMTAP	112	144	7
NMSTR	112	192	6
NMSI_	112	192	6	96	48	2
NMTAP	112	240	6
NMSTR	112	288	0
NMSI_	112	288	0	96	48	4
NMTAP	112	336	0
BXTAP	113	0	4
BXTAP	113	48	5
BXTAP	113	96	6
BXTAP	113	144	7
BRTAP	113	192	0
BRTAP	113	192	1
NMTAP	113	240	2
NMTAP	113	288	2
BRTAP	113	336	3
BRTAP	113	336	4
NMTAP	114	0	5
NMTAP	114	48	5
BRTAP	114	96	6
BRTAP	114	96	7
NMTAP	114	144	0
NMTAP	114	192	0
BRTAP	114	240	1
BRTAP	114	240	7
BRTAP	114	288	2
BRTAP	114	288	6
NMTAP	114	336	5
NMTAP	114	360	4
EXTAP	115	0	6
NMTAP	115	48	2
NMTAP	115	72	3
EXTAP	115	96	1
NMTAP	115	144	5
NMTAP	115	168	4
BRTAP	115	192	7
NMTAP	115	240	7
BRTAP	115	288	5
NMTAP	115	288	7
NMTAP	115	336	7
BRTAP	116	0	1
NMTAP	116	0	7
NMTAP	116	48	7
BRSTR	116	96	4
NMSI_	116	96	4	96	48	1
NMTAP	116	96	7
NMTAP	116	144	7
BXSTR	116	192	4
BRSI_	116	192	4	96	48	7
EXTAP	116	192	7
BXTAP	116	288	4
EXTAP	116	288	5
BRTAP	117	0	0
BRTAP	117	48	0
BRTAP	117	96	0
BXTAP	117	144	2
BXTAP	117	144	6

T_REC_TAP	403
T_REC_BRK	23
T_REC_XTP	28
T_REC_BXX	22
T_REC_HLD	53
T_REC_XHO	1
T_REC_BHO	0
T_REC_BXH	0
T_REC_STR	116
T_REC_BST	15
T_REC_XST	3
T_REC_XBS	1
T_REC_TTP	10
T_REC_THO	0
T_REC_SLD	137
T_REC_BSL	8
T_REC_ALL	820
T_NUM_TAP	560
T_NUM_BRK	69
T_NUM_HLD	54
T_NUM_SLD	137
T_NUM_ALL	820
T_JUDGE_TAP	621
T_JUDGE_HLD	235
T_JUDGE_SLD	145
T_JUDGE_ALL	1001
TTM_EACHPAIRS	161
TTM_SCR_TAP	280000
TTM_SCR_BRK	179400
TTM_SCR_HLD	54000
TTM_SCR_SLD	205500
TTM_SCR_ALL	718900
TTM_SCR_S	690650
TTM_SCR_SS	712000
TTM_RAT_ACV	10096

