VERSION	0.00.00	1.04.00
FES_MODE	0
BPM_DEF	195.000	195.000	195.000	195.000
MET_DEF	4	4
RESOLUTION	384
CLK_DEF	384
COMPATIBLE_CODE	MA2

BPM	0	0	195.000
MET	0	0	4	4
MET	34	0	4	3
MET	42	96	4	4
MET	64	96	4	3
MET	72	192	4	4

NMHLD	2	0	1	384
NMTAP	2	96	7
NMTAP	2	288	0
NMTAP	3	0	0
NMTAP	3	192	1
NMTAP	3	192	7
NMTAP	3	288	1
NMTAP	3	288	7
NMHLD	4	0	6	384
NMTAP	4	96	0
NMTAP	4	288	7
NMTAP	5	0	7
NMTAP	5	192	6
NMTAP	5	192	7
NMTAP	5	288	5
EXTAP	6	0	4
EXTAP	6	0	5
EXTAP	6	144	2
EXTAP	6	144	3
EXTAP	6	240	0
EXTAP	6	240	1
NMTAP	6	336	2
NMTAP	6	336	3
NMTAP	7	48	1
NMTAP	7	48	4
NMTAP	7	144	0
NMTAP	7	144	5
EXTAP	7	240	6
EXTAP	7	240	7
EXTAP	7	288	6
EXTAP	7	288	7
NMSTR	8	0	5
NMSI_	8	0	5	96	96	2
EXTAP	8	336	3
EXTAP	8	336	4
NMTAP	9	48	2
NMTAP	9	48	5
NMTAP	9	96	2
NMTAP	9	96	5
BRTAP	9	192	0
BRTAP	9	192	7
EXHLD	9	336	6	144
NMHLD	10	96	7	96
NMTAP	10	192	5
NMTAP	10	240	5
EXHLD	10	336	1	144
NMHLD	11	96	0	96
NMTAP	11	192	2
NMTAP	11	240	2
EXHLD	11	336	6	144
NMHLD	12	96	7	96
NMTAP	12	192	5
NMTAP	12	240	5
NMTAP	12	336	4
NMTAP	12	336	7
NMTAP	13	48	4
NMTAP	13	48	7
NMTAP	13	144	0
NMTAP	13	144	5
NMTAP	13	240	1
NMTAP	13	240	6
EXHLD	13	336	2	144
NMHLD	14	96	0	96
NMTAP	14	192	3
NMTAP	14	240	3
EXHLD	14	336	5	144
NMHLD	15	96	7	96
NMTAP	15	192	4
NMTAP	15	240	4
EXHLD	15	336	2	144
NMHLD	16	96	0	96
NMTAP	16	192	3
NMTAP	16	240	3
NMTAP	16	336	0
NMTAP	16	336	2
NMTAP	17	48	0
NMTAP	17	48	7
EXTAP	17	144	2
EXTAP	17	144	5
BXTAP	17	192	2
BXTAP	17	192	5
NMTAP	18	0	1
NMTAP	18	0	5
NMTAP	18	96	4
NMTAP	18	192	1
NMTAP	18	192	3
NMTAP	19	0	2
NMTAP	19	0	3
NMTAP	19	96	4
NMTAP	19	192	3
NMTAP	19	192	5
NMTAP	20	0	2
NMTAP	20	0	6
NMTAP	20	96	3
NMTAP	20	192	4
NMTAP	20	192	6
NMTAP	21	0	4
NMTAP	21	0	5
NMTAP	21	96	3
NMTAP	21	192	2
NMTAP	21	192	4
NMSTR	22	0	1
NMSI_	22	0	1	96	96	5
NMTAP	22	192	6
NMTAP	22	288	6
NMSTR	23	0	7
NMSI_	23	0	7	96	96	3
NMTAP	23	192	2
NMTAP	23	288	2
NMSTR	24	0	1
NMSCL	24	0	1	96	96	6
NMTAP	24	192	5
NMTAP	24	288	5
NMTAP	25	0	2
NMTAP	25	0	5
NMTAP	25	192	3
NMTAP	25	192	4
NMTAP	26	0	6
NMTAP	26	96	5
NMTAP	26	144	5
NMTAP	26	192	4
NMTAP	26	288	3
NMTAP	27	0	2
NMTAP	27	96	0
NMTAP	27	96	1
NMTAP	27	192	1
NMTAP	27	240	1
NMTAP	27	288	0
NMTAP	28	0	1
NMTAP	28	96	2
NMTAP	28	144	2
NMTAP	28	192	3
NMTAP	28	288	4
NMTAP	29	0	5
NMTAP	29	96	6
NMTAP	29	96	7
NMTAP	29	192	6
NMTAP	29	240	6
NMTAP	29	288	7
NMTAP	30	0	4
NMTAP	30	0	5
NMTAP	30	96	2
NMTAP	30	96	3
NMTAP	30	192	1
NMTAP	30	288	0
NMTAP	30	288	1
NMTAP	31	0	2
NMTAP	31	0	3
NMTAP	31	96	4
NMTAP	31	96	5
NMTAP	31	192	6
NMTAP	31	288	5
NMTAP	31	288	7
NMSTR	32	0	4
NMSUL	32	0	4	96	192	3
EXSTR	33	0	1
NMSI_	33	0	1	96	96	5
BXTAP	33	192	7
NMHLD	34	0	6	192
NMTAP	34	192	4
NMHLD	34	288	4	192
NMTAP	35	96	3
NMHLD	35	192	3	192
NMSTR	36	0	1
NMSCR	36	0	1	96	96	4
NMTAP	36	288	5
NMHLD	37	0	5	192
NMTAP	37	192	7
NMHLD	37	288	7	192
NMTAP	38	96	0
NMHLD	38	192	0	192
NMTAP	39	0	2
NMSTR	39	96	2
NMSI_	39	96	2	96	96	5
NMTAP	40	0	6
NMTAP	40	96	5
NMTAP	40	144	5
NMHLD	40	192	4	96
NMTAP	40	288	6
NMTAP	41	0	2
NMTAP	41	48	2
NMHLD	41	96	3	96
NMTAP	41	192	1
NMTAP	41	288	1
NMTAP	41	288	3
NMTAP	42	0	2
NMTAP	42	0	4
NMTAP	42	96	3
NMTAP	42	96	5
NMHLD	42	192	4	192
NMTAP	42	192	6
NMTAP	42	288	7
NMSTR	43	0	0
NMSCR	43	0	0	96	192	5
NMTAP	44	0	2
NMTAP	44	96	1
NMTAP	44	144	1
NMTAP	44	192	3
NMTAP	44	288	6
NMTAP	44	336	6
NMTAP	45	0	4
NMTAP	45	96	1
NMTAP	45	96	5
NMTAP	45	144	1
NMTAP	45	144	5
NMTAP	45	240	2
NMTAP	45	240	4
NMTAP	45	336	3
NMTAP	45	336	5
BRTAP	46	48	0
BRTAP	46	48	7
NMTAP	46	288	5
NMTAP	46	336	5
NMTAP	47	0	4
NMSTR	47	96	6
NMSI_	47	96	6	96	48	4
NMSTR	47	96	7
NMSI_	47	96	7	96	48	3
NMTAP	47	288	2
NMTAP	47	336	2
NMTAP	48	48	0
NMTAP	48	48	1
NMTAP	48	144	4
NMTAP	48	144	5
NMTAP	48	192	4
NMTAP	48	192	5
NMTAP	48	288	3
NMTAP	48	288	6
NMTAP	48	336	3
NMTAP	48	336	6
NMTAP	49	48	2
NMTAP	49	48	3
NMTAP	49	96	2
NMTAP	49	96	3
NMTAP	49	192	0
NMTAP	49	192	1
NMTAP	49	288	6
NMTAP	49	288	7
NMTAP	50	0	0
NMTAP	50	0	5
NMTAP	50	48	0
NMTAP	50	48	5
NMTAP	50	144	2
NMTAP	50	144	7
NMTAP	50	288	2
NMTAP	50	336	2
NMTAP	51	0	3
NMSTR	51	96	0
NMSI_	51	96	0	96	48	4
NMSTR	51	96	1
NMSI_	51	96	1	96	48	3
NMTAP	51	288	5
NMTAP	51	336	5
NMTAP	52	48	6
NMTAP	52	48	7
NMTAP	52	144	2
NMTAP	52	144	3
NMTAP	52	192	2
NMTAP	52	192	3
NMTAP	52	288	1
NMTAP	52	288	4
NMTAP	52	336	1
NMTAP	52	336	4
NMTAP	53	48	6
NMHLD	53	96	6	96
NMHLD	53	192	4	96
NMHLD	53	288	3	96
NMTAP	54	0	1
NMSTR	54	48	1
NMSI_	54	48	1	96	48	4
NMTAP	54	288	5
NMTAP	54	336	5
NMTAP	55	0	4
NMSTR	55	96	6
NMSI_	55	96	6	96	48	4
NMSTR	55	96	7
NMSI_	55	96	7	96	48	3
NMTAP	55	288	2
NMTAP	55	336	2
NMTAP	56	48	0
NMTAP	56	48	1
NMTAP	56	144	4
NMTAP	56	144	5
NMTAP	56	192	4
NMTAP	56	192	5
NMTAP	56	288	3
NMTAP	56	288	6
NMTAP	56	336	3
NMTAP	56	336	6
NMTAP	57	48	2
NMTAP	57	48	3
NMTAP	57	96	2
NMTAP	57	96	3
NMTAP	57	192	0
NMTAP	57	192	1
NMTAP	57	288	6
NMSTR	57	288	7
NMSCR	57	288	7	96	144	4
NMSUR	57	288	7	96	144	4
NMHLD	58	288	5	96
NMTAP	59	0	4
NMTAP	59	96	2
NMTAP	59	96	3
NMTAP	59	192	0
NMTAP	59	192	1
NMTAP	59	240	0
NMTAP	59	240	1
NMTAP	59	336	6
NMTAP	59	336	7
NMTAP	60	48	4
NMTAP	60	48	5
NMTAP	60	144	2
NMTAP	60	144	3
NMTAP	60	192	2
NMTAP	60	192	3
NMTAP	60	288	1
NMTAP	60	288	4
NMTAP	61	0	2
NMTAP	61	0	3
NMTAP	61	96	4
NMTAP	61	96	5
NMTAP	61	192	6
NMTAP	61	192	7
NMTAP	61	288	0
NMTAP	61	288	1
NMTAP	62	0	2
NMTAP	62	0	3
NMSTR	62	48	2
NMSXR	62	48	2	96	240	7
NMSTR	62	48	3
NMSXL	62	48	3	96	240	6
NMHLD	64	96	1	288
NMTAP	64	192	3
NMTAP	64	288	3
NMHLD	65	0	0	288
NMTAP	65	96	3
NMTAP	65	192	3
NMHLD	65	288	1	192
NMTAP	66	0	3
NMTAP	66	96	4
NMSTR	66	192	2
NMSI_	66	192	2	96	96	4
NMTAP	66	192	5
NMHLD	67	96	6	288
NMTAP	67	192	4
NMTAP	67	288	4
NMHLD	68	0	7	288
NMTAP	68	96	4
NMTAP	68	192	4
NMHLD	68	288	6	192
NMTAP	69	0	4
NMTAP	69	96	3
NMTAP	69	192	2
NMSTR	69	192	5
NMSI_	69	192	5	96	96	2
NMTAP	70	96	1
NMTAP	70	96	3
NMTAP	70	192	4
NMTAP	70	240	4
NMTAP	70	288	2
NMTAP	71	0	3
NMTAP	71	0	4
NMTAP	71	96	5
NMTAP	71	192	5
NMTAP	71	288	4
NMTAP	71	288	6
NMTAP	72	0	3
NMTAP	72	48	3
NMTAP	72	96	5
NMTAP	72	192	3
NMTAP	72	192	4
NMTAP	72	288	2
NMTAP	73	0	1
NMTAP	73	0	3
NMSTR	73	96	0
NMSSL	73	96	0	96	192	4
NMTAP	74	96	5
NMTAP	74	192	6
NMTAP	74	240	6
NMTAP	74	288	7
NMTAP	75	0	1
NMTAP	75	48	1
NMTAP	75	96	0
NMTAP	75	192	0
NMTAP	75	192	6
NMTAP	75	240	0
NMTAP	75	240	6
BRTAP	75	336	2
BRTAP	75	336	3
BRTAP	76	48	4
BRTAP	76	48	5
BRSTR	76	144	1
NMSI_	76	144	1	96	96	5
BRSTR	76	144	6
NMSI_	76	144	6	96	96	2
EXSTR	77	192	3
NMSI_	77	192	3	96	480	0
EXTAP	77	192	4
NMSTR	79	192	4
NMSI_	79	192	4	96	480	7
NMSTR	81	192	3
NMSI_	81	192	3	96	480	0
NMSTR	83	192	4
NMSUL	83	192	4	96	288	3
EXTAP	85	0	0
EXTAP	85	0	7
EXTAP	85	48	0
EXTAP	85	48	7
BXTAP	85	96	1
BXTAP	85	96	6
NMSTR	85	192	2
NMSI_	85	192	2	96	48	0
NMSTR	85	192	3
NMSI_	85	192	3	96	48	7
NMTAP	86	0	6
NMTAP	86	48	6
NMTAP	86	144	4
NMTAP	86	144	5
NMTAP	86	240	0
NMTAP	86	240	1
NMTAP	86	288	0
NMTAP	86	288	1
NMTAP	87	0	2
NMTAP	87	0	7
NMTAP	87	48	2
NMTAP	87	48	7
NMTAP	87	144	6
NMTAP	87	144	7
NMTAP	87	192	6
NMTAP	87	192	7
NMTAP	87	288	4
NMTAP	87	288	5
NMTAP	88	0	2
NMTAP	88	0	3
NMTAP	88	96	0
NMTAP	88	96	1
NMTAP	88	144	0
NMTAP	88	144	1
NMTAP	88	240	3
NMTAP	88	240	6
NMTAP	89	0	2
NMTAP	89	48	2
NMTAP	89	96	4
NMSTR	89	192	4
NMSI_	89	192	4	96	48	0
NMSTR	89	192	5
NMSI_	89	192	5	96	48	7
NMTAP	90	0	1
NMTAP	90	48	1
NMTAP	90	144	2
NMTAP	90	144	3
NMTAP	90	240	6
NMTAP	90	240	7
NMTAP	90	288	6
NMTAP	90	288	7
NMTAP	91	0	0
NMTAP	91	0	5
NMTAP	91	48	0
NMTAP	91	48	5
NMTAP	91	144	2
NMHLD	91	192	2	96
NMHLD	91	288	0	96
NMHLD	92	0	7	96
NMTAP	92	96	5
NMSTR	92	144	5
NMSCR	92	144	5	96	48	0
NMTAP	93	0	1
NMTAP	93	48	1
NMTAP	93	96	0
NMSTR	93	192	2
NMSI_	93	192	2	96	48	0
NMSTR	93	192	3
NMSI_	93	192	3	96	48	7
NMTAP	94	0	6
NMTAP	94	48	6
NMTAP	94	144	4
NMTAP	94	144	5
NMTAP	94	240	0
NMTAP	94	240	1
NMTAP	94	288	0
NMTAP	94	288	1
NMTAP	95	0	2
NMTAP	95	0	7
NMTAP	95	48	2
NMTAP	95	48	7
NMTAP	95	144	6
NMTAP	95	144	7
NMTAP	95	192	6
NMTAP	95	192	7
NMTAP	95	288	5
NMTAP	96	0	3
NMSTR	96	0	4
NMSCL	96	0	4	96	144	7
NMSUL	96	0	4	96	144	7
NMHLD	97	0	6	96
NMTAP	97	96	4
NMTAP	97	192	4
NMTAP	97	192	5
NMTAP	97	288	6
NMTAP	97	288	7
NMTAP	97	336	6
NMTAP	97	336	7
NMTAP	98	48	0
NMTAP	98	48	1
NMTAP	98	144	2
NMTAP	98	144	3
NMTAP	98	240	4
NMTAP	98	240	5
NMTAP	98	288	4
NMTAP	98	288	5
NMTAP	99	0	2
NMTAP	99	0	7
NMTAP	99	96	0
NMTAP	99	96	1
NMTAP	99	192	6
NMTAP	99	192	7
NMTAP	99	288	4
NMTAP	99	288	5
NMTAP	100	0	2
NMTAP	100	0	3
NMTAP	100	96	0
NMTAP	100	96	7
NMSTR	100	144	0
NMSCR	100	144	0	96	144	3
NMSTR	100	144	7
NMSCL	100	144	7	96	144	4
NMTAP	101	192	3
NMTAP	101	192	5
NMTAP	101	288	6
NMHLD	101	336	6	192
NMTTP	102	48	4	B	0	M1
NMTTP	102	48	5	E	0	M1
NMTTP	102	144	6	E	0	M1
NMTTP	102	144	6	D	0	M1
NMTAP	102	288	4
NMTAP	102	288	5
NMTAP	103	0	3
NMTAP	103	0	4
NMTAP	103	96	2
NMTAP	103	96	3
NMTAP	103	192	0
NMTAP	103	192	3
NMTAP	103	288	1
NMHLD	103	336	1	192
NMTTP	104	48	3	B	0	M1
NMTTP	104	48	3	E	0	M1
NMTTP	104	144	2	E	0	M1
NMTTP	104	144	2	D	0	M1
NMTAP	104	288	2
NMTAP	104	288	3
NMTAP	105	0	3
NMTAP	105	0	4
NMTAP	105	96	4
NMTAP	105	96	5
NMTAP	105	192	6
NMTAP	105	192	7
NMTAP	105	288	5
NMHLD	105	336	5	192
NMTTP	106	48	7	B	0	M1
NMTTP	106	48	7	E	0	M1
NMTTP	106	144	6	E	0	M1
NMTTP	106	144	6	D	0	M1
NMTAP	106	288	3
NMTAP	106	288	4
NMTAP	107	0	2
NMTAP	107	96	0
NMTAP	107	96	1
NMHLD	107	192	6	96
NMTAP	107	192	7
NMTAP	107	288	4
NMTAP	107	336	4
NMTAP	108	48	3
NMTAP	108	48	5
NMTAP	108	144	2
NMTAP	108	144	6
NMSTR	108	240	1
NMSLR	108	240	1	96	144	5
NMTAP	108	240	7
NMTAP	109	96	6
NMTAP	109	192	7
NMTAP	109	288	0
NMHLD	109	288	2	96
NMTAP	110	0	3
NMTAP	110	48	3
NMTAP	110	96	2
NMTAP	110	192	6
NMHLD	110	288	5	96
NMTAP	110	288	7
NMTAP	111	0	4
NMTAP	111	48	4
NMTAP	111	96	5
NMTAP	111	192	6
NMTAP	111	192	7
NMTAP	111	288	0
NMHLD	111	288	1	96
NMTAP	112	0	3
NMTAP	112	48	3
NMTAP	112	96	2
NMTAP	112	192	5
NMTAP	112	240	5
NMSTR	112	288	4
NMSI_	112	288	4	96	48	0
NMTAP	113	0	7
NMTAP	113	192	0
NMTAP	113	192	1
NMTAP	113	288	4
NMTAP	113	288	5
NMTAP	113	336	4
NMTAP	113	336	5
NMTAP	114	48	6
NMTAP	114	48	7
NMTAP	114	144	1
NMTAP	114	144	4
NMTAP	114	240	2
NMTAP	114	240	3
NMTAP	114	288	2
NMTAP	114	288	3
NMSTR	115	0	0
NMSI_	115	0	0	96	48	4
NMSTR	115	0	1
NMSI_	115	0	1	96	48	5
NMTAP	115	192	6
NMTAP	115	192	7
NMTAP	115	288	2
NMTAP	115	288	3
NMTAP	116	0	0
NMTAP	116	0	1
NMTAP	116	96	4
NMTAP	116	96	5
BRTAP	116	192	0
BRTAP	116	192	6
BRTAP	116	288	2
BRTAP	116	288	3
BRTAP	117	0	1
BRTAP	117	0	7
BRTAP	117	96	4
BRTAP	117	96	5
BRSTR	117	144	4
BRSI_	117	144	4	96	48	0
BRSTR	117	144	5
BRSI_	117	144	5	96	48	1

T_REC_TAP	455
T_REC_BRK	16
T_REC_XTP	19
T_REC_BXX	5
T_REC_HLD	38
T_REC_XHO	6
T_REC_BHO	0
T_REC_BXH	0
T_REC_STR	38
T_REC_BST	4
T_REC_XST	2
T_REC_XBS	0
T_REC_TTP	12
T_REC_THO	0
T_REC_SLD	44
T_REC_BSL	2
T_REC_ALL	641
T_NUM_TAP	526
T_NUM_BRK	27
T_NUM_HLD	44
T_NUM_SLD	44
T_NUM_ALL	641
T_JUDGE_TAP	551
T_JUDGE_HLD	146
T_JUDGE_SLD	46
T_JUDGE_ALL	743
TTM_EACHPAIRS	187
TTM_SCR_TAP	263000
TTM_SCR_BRK	70200
TTM_SCR_HLD	44000
TTM_SCR_SLD	66000
TTM_SCR_ALL	443200
TTM_SCR_S	427300
TTM_SCR_SS	440500
TTM_RAT_ACV	10061

