VERSION	0.00.00	1.04.00
FES_MODE	0
BPM_DEF	195.000	195.000	195.000	195.000
MET_DEF	4	4
RESOLUTION	384
CLK_DEF	384
COMPATIBLE_CODE	MA2

BPM	0	0	195.000
MET	0	0	4	4
MET	34	0	4	3
MET	42	96	4	4
MET	64	96	4	3
MET	72	192	4	4

NMTAP	2	0	3
NMTAP	2	96	3
NMTAP	2	192	3
NMTAP	3	0	2
NMTAP	3	96	2
NMTAP	3	192	2
NMTAP	4	0	1
NMTAP	4	96	1
NMTAP	4	192	1
NMTAP	5	0	0
NMTAP	5	0	7
NMTAP	5	192	0
NMTAP	5	192	7
NMTAP	6	0	7
NMTAP	6	96	7
NMTAP	6	192	7
NMTAP	7	0	6
NMTAP	7	96	6
NMTAP	7	192	6
NMTAP	8	0	5
NMTAP	8	96	5
NMTAP	8	192	5
NMTAP	9	0	3
NMTAP	9	0	4
NMTAP	10	0	5
NMTAP	10	96	5
NMTAP	10	192	4
NMTAP	10	192	5
NMTAP	11	0	6
NMTAP	11	96	6
NMTAP	11	192	6
NMTAP	11	192	7
NMTAP	12	0	0
NMTAP	12	96	0
NMTAP	12	192	0
NMTAP	12	192	1
NMTAP	13	0	2
NMTAP	13	0	3
NMTAP	13	96	2
NMTAP	13	96	3
NMTAP	13	192	2
NMTAP	13	192	3
NMTAP	14	0	2
NMTAP	14	96	2
NMTAP	14	192	2
NMTAP	14	192	3
NMTAP	15	0	1
NMTAP	15	96	1
NMTAP	15	192	0
NMTAP	15	192	1
NMTAP	16	0	7
NMTAP	16	96	7
NMTAP	16	192	6
NMTAP	16	192	7
NMTAP	17	0	4
NMTAP	17	0	5
NMTAP	17	96	4
NMTAP	17	96	5
NMTAP	17	192	4
NMTAP	17	192	5
NMHLD	18	0	5	192
NMTAP	18	192	4
NMTAP	19	0	4
NMTAP	19	0	5
NMTAP	19	192	4
NMTAP	19	192	5
NMHLD	20	0	6	192
NMTAP	20	192	7
NMTAP	21	0	6
NMTAP	21	0	7
NMTAP	21	192	6
NMTAP	21	192	7
NMHLD	22	0	1	192
NMTAP	22	192	0
NMTAP	23	0	0
NMTAP	23	0	1
NMTAP	23	192	0
NMTAP	23	192	1
NMHLD	24	0	2	192
NMTAP	24	192	3
NMTAP	25	0	2
NMTAP	25	0	3
NMTAP	25	192	2
NMTAP	25	192	3
NMTTP	26	0	1	B	0	L1
NMTTP	26	96	2	B	0	L1
NMTTP	26	192	3	B	0	L1
NMTTP	27	0	6	B	0	L1
NMTTP	27	96	5	B	0	L1
NMTTP	27	192	4	B	0	L1
NMTTP	28	0	1	B	0	L1
NMTTP	28	96	2	B	0	L1
NMTTP	28	192	3	B	0	L1
NMTTP	28	288	4	B	0	L1
NMTTP	29	0	0	C	0	L1
NMTTP	30	0	7	B	0	L1
NMTTP	30	96	6	B	0	L1
NMTTP	30	192	4	B	0	L1
NMTTP	30	192	5	B	0	L1
NMTTP	31	0	0	B	0	L1
NMTTP	31	96	1	B	0	L1
NMTTP	31	192	2	B	0	L1
NMTTP	31	192	3	B	0	L1
NMTTP	32	0	6	B	0	L1
NMTTP	32	96	5	B	0	L1
NMTTP	32	192	4	B	0	L1
NMTTP	32	288	3	B	0	L1
NMTTP	33	0	0	C	1	L1
NMTAP	34	0	6
NMTAP	34	96	6
NMTAP	34	288	5
NMTAP	35	0	5
NMTAP	35	192	4
NMTAP	35	288	4
NMTAP	36	96	2
NMTAP	36	96	3
NMTAP	37	0	1
NMTAP	37	96	1
NMTAP	37	288	2
NMTAP	38	0	2
NMTAP	38	192	3
NMTAP	38	288	3
NMTAP	39	96	4
NMTAP	39	96	5
NMTAP	40	0	3
NMTAP	40	0	4
NMTAP	40	96	3
NMTAP	40	96	4
NMTAP	40	288	2
NMTAP	40	288	5
NMTAP	41	0	2
NMTAP	41	0	5
NMTAP	41	192	1
NMTAP	41	192	6
NMTAP	41	288	1
NMTAP	41	288	6
NMTAP	42	96	0
NMTAP	42	96	7
NMTAP	43	96	0
NMTAP	43	192	0
NMTAP	43	288	0
NMTAP	44	96	7
NMTAP	44	192	7
NMTAP	44	288	7
NMSTR	45	96	0
NMSI_	45	96	0	96	288	3
NMSTR	45	96	7
NMSI_	45	96	7	96	288	4
BXTAP	47	96	2
NMTAP	47	192	2
NMTAP	47	288	1
NMTAP	48	0	1
NMTAP	48	96	0
NMTAP	48	192	0
NMTAP	48	288	6
NMTAP	48	288	7
NMTAP	49	96	5
NMTAP	49	192	5
NMTAP	49	288	6
NMTAP	50	0	6
NMTAP	50	96	7
NMTAP	50	192	7
NMTAP	50	288	0
NMTAP	50	288	1
NMTAP	51	96	1
NMTAP	51	192	1
NMTAP	51	288	2
NMTAP	52	0	2
NMTAP	52	96	3
NMTAP	52	192	3
NMTAP	52	288	4
NMTAP	52	288	5
NMTAP	53	96	6
NMTAP	53	192	6
NMTAP	53	288	5
NMTAP	54	0	5
NMTAP	54	96	4
NMTAP	54	192	4
NMTAP	54	288	2
NMTAP	54	288	3
BRTAP	55	96	2
NMTAP	55	192	2
NMTAP	55	288	1
NMTAP	56	0	1
NMTAP	56	96	0
NMTAP	56	192	0
NMTAP	56	288	6
NMTAP	56	288	7
NMTAP	57	96	5
NMTAP	57	192	5
NMTAP	57	288	6
NMTAP	58	0	6
NMTAP	58	96	7
NMTAP	58	192	7
NMTAP	58	288	0
NMTAP	58	288	1
NMTAP	59	96	1
NMTAP	59	192	1
NMTAP	59	288	2
NMTAP	60	0	2
NMTAP	60	96	3
NMTAP	60	192	3
NMTAP	60	288	4
NMTAP	60	288	5
NMTAP	61	96	6
NMTAP	61	192	6
NMTAP	61	288	5
NMTAP	62	0	5
NMTAP	62	96	4
NMTAP	62	192	4
NMTAP	62	288	2
NMTAP	62	288	3
NMHLD	63	96	3	192
NMHLD	63	96	4	192
NMSTR	64	96	5
NMSUL	64	96	5	96	768	2
NMSTR	67	96	1
NMSUR	67	96	1	96	768	4
NMSTR	70	96	6
NMSUL	70	96	6	96	768	4
NMTAP	73	192	5
NMTAP	73	288	5
NMTAP	74	0	4
NMTAP	74	0	5
NMTAP	74	192	2
NMTAP	74	288	2
NMTAP	75	0	2
NMTAP	75	0	3
NMHLD	75	192	3	384
NMHLD	75	192	4	384
NMHLD	77	192	5	384
NMHLD	78	192	4	384
NMHLD	79	192	3	384
NMTAP	80	192	2
NMHLD	81	192	2	384
NMHLD	82	192	3	384
NMHLD	83	192	4	384
NMTAP	84	192	5
BXTAP	85	192	5
NMTAP	85	288	5
NMTAP	86	0	6
NMTAP	86	0	7
NMTAP	86	96	6
NMTAP	86	96	7
NMTAP	86	192	0
NMTAP	86	288	0
NMTAP	87	0	0
NMTAP	87	0	1
NMTAP	87	192	2
NMTAP	87	288	2
NMTAP	88	0	0
NMTAP	88	0	1
NMTAP	88	96	0
NMTAP	88	96	1
NMTAP	88	192	7
NMTAP	88	288	7
NMTAP	89	0	6
NMTAP	89	0	7
NMTAP	89	192	6
NMTAP	89	288	6
NMTAP	90	0	4
NMTAP	90	0	5
NMTAP	90	96	4
NMTAP	90	96	5
NMTAP	90	192	3
NMTAP	90	288	3
NMTAP	91	0	2
NMTAP	91	0	3
NMTAP	91	192	1
NMTAP	91	288	1
NMTAP	92	0	2
NMTAP	92	0	3
NMTAP	92	96	2
NMTAP	92	96	3
NMTAP	92	192	4
NMTAP	92	288	4
NMTAP	93	0	4
NMTAP	93	0	5
NMTAP	93	192	6
NMTAP	93	288	6
NMTAP	94	0	6
NMTAP	94	96	6
NMTAP	94	96	7
NMTAP	94	192	5
NMTAP	94	288	5
NMTAP	95	0	5
NMTAP	95	96	4
NMTAP	95	96	5
NMTAP	95	192	3
NMTAP	95	288	3
NMTAP	96	0	3
NMTAP	96	96	2
NMTAP	96	96	3
NMTAP	96	192	1
NMTAP	96	288	1
NMTAP	97	0	0
NMTAP	97	0	1
NMTAP	97	192	1
NMTAP	97	288	1
NMTAP	98	0	1
NMTAP	98	96	0
NMTAP	98	96	1
NMTAP	98	192	2
NMTAP	98	288	2
NMTAP	99	0	2
NMTAP	99	96	2
NMTAP	99	96	3
NMTAP	99	192	4
NMTAP	99	288	4
NMTAP	100	0	4
NMTAP	100	96	4
NMTAP	100	96	5
NMTAP	100	192	6
NMTAP	100	288	6
NMTAP	101	0	6
NMTAP	101	0	7
NMTAP	101	192	6
NMTAP	101	192	7
NMTAP	101	288	6
NMTAP	101	288	7
NMTAP	102	0	0
NMTAP	102	0	5
NMTAP	102	192	4
NMTAP	102	192	5
NMTAP	102	288	4
NMTAP	102	288	5
NMTAP	103	0	3
NMTAP	103	0	6
NMTAP	103	192	2
NMTAP	103	192	3
NMTAP	103	288	2
NMTAP	103	288	3
NMTAP	104	0	1
NMTAP	104	0	4
NMTAP	104	192	0
NMTAP	104	192	1
NMTAP	104	288	0
NMTAP	104	288	1
NMTAP	105	0	2
NMTAP	105	0	7
NMTAP	105	192	0
NMTAP	105	192	1
NMTAP	105	288	0
NMTAP	105	288	1
NMTAP	106	0	2
NMTAP	106	0	7
NMTAP	106	192	2
NMTAP	106	192	3
NMTAP	106	288	2
NMTAP	106	288	3
NMTAP	107	0	1
NMTAP	107	0	4
NMTAP	107	192	4
NMTAP	107	192	5
NMTAP	107	288	4
NMTAP	107	288	5
NMTAP	108	0	3
NMTAP	108	0	6
NMTAP	108	192	6
NMTAP	108	192	7
NMTAP	108	288	6
NMTAP	108	288	7
NMTAP	109	0	0
NMTAP	109	0	5
NMTAP	109	192	7
NMTAP	109	288	6
NMTAP	110	0	5
NMTAP	110	96	4
NMTAP	110	192	3
NMTAP	110	288	2
NMTAP	111	0	0
NMTAP	111	0	1
NMTAP	111	192	0
NMTAP	111	288	1
NMTAP	112	0	2
NMTAP	112	96	3
NMTAP	112	192	4
NMTAP	112	288	5
NMTAP	113	0	6
NMTAP	113	0	7
NMTAP	113	192	7
NMTAP	113	288	6
NMTAP	114	0	5
NMTAP	114	96	4
NMTAP	114	192	3
NMTAP	114	288	2
NMTAP	115	0	1
NMTAP	115	96	0
NMTAP	115	192	7
NMTAP	115	288	6
NMTAP	116	0	5
NMTAP	116	96	4
NMTAP	116	192	3
NMTAP	116	192	4
NMTAP	116	288	3
NMTAP	116	288	4
NMHLD	117	0	2	144
NMHLD	117	0	5	144

T_REC_TAP	345
T_REC_BRK	1
T_REC_XTP	0
T_REC_BXX	2
T_REC_HLD	16
T_REC_XHO	0
T_REC_BHO	0
T_REC_BXH	0
T_REC_STR	5
T_REC_BST	0
T_REC_XST	0
T_REC_XBS	0
T_REC_TTP	24
T_REC_THO	0
T_REC_SLD	5
T_REC_BSL	0
T_REC_ALL	398
T_NUM_TAP	374
T_NUM_BRK	3
T_NUM_HLD	16
T_NUM_SLD	5
T_NUM_ALL	398
T_JUDGE_TAP	377
T_JUDGE_HLD	94
T_JUDGE_SLD	5
T_JUDGE_ALL	476
TTM_EACHPAIRS	94
TTM_SCR_TAP	187000
TTM_SCR_BRK	7800
TTM_SCR_HLD	16000
TTM_SCR_SLD	7500
TTM_SCR_ALL	218300
TTM_SCR_S	211500
TTM_SCR_SS	218000
TTM_RAT_ACV	10013

