VERSION	0.00.00	1.04.00
FES_MODE	0
BPM_DEF	120.000	120.000	120.000	120.000
MET_DEF	4	4
RESOLUTION	384
CLK_DEF	384
COMPATIBLE_CODE	MA2

BPM	0	0	120.000
MET	0	0	4	4

NMTTP	1	0	5	A	0	M1
NMTTP	1	24	4	A	0	M1
NMTTP	1	48	3	A	0	M1
NMTTP	1	72	2	A	0	M1
NMTTP	1	192	5	A	0	M1
NMTTP	1	216	4	A	0	M1
NMTTP	1	240	3	A	0	M1
NMTTP	1	264	2	A	0	M1
NMTTP	2	0	6	D	0	M1
NMTTP	2	24	5	D	0	M1
NMTTP	2	48	4	D	0	M1
NMTTP	2	72	3	D	0	M1
NMTTP	2	192	6	D	0	M1
NMTTP	2	216	5	D	0	M1
NMTTP	2	240	4	D	0	M1
NMTTP	2	264	3	D	0	M1
NMTTP	3	0	5	A	0	M1
NMTTP	3	24	4	A	0	M1
NMTTP	3	48	3	A	0	M1
NMTTP	3	72	2	A	0	M1
NMTTP	3	192	5	A	0	M1
NMTTP	3	216	4	A	0	M1
NMTTP	3	240	3	A	0	M1
NMTTP	3	264	2	A	0	M1
NMTTP	4	0	5	D	0	M1
NMTTP	4	24	4	D	0	M1
NMTTP	4	48	3	D	0	M1
NMTTP	4	72	2	D	0	M1
NMTTP	4	192	1	A	0	M1
NMTTP	4	216	2	A	0	M1
NMTTP	4	240	3	A	0	M1
NMTTP	4	264	4	A	0	M1
NMTTP	4	288	5	A	0	M1
NMTAP	5	0	5
NMTAP	5	24	4
NMTAP	5	48	3
NMTAP	5	72	2
NMTAP	5	192	5
NMTAP	5	216	4
NMTAP	5	240	3
NMTAP	5	264	2
NMTAP	6	0	6
NMTAP	6	24	5
NMTAP	6	48	4
NMTAP	6	72	3
NMTAP	6	192	6
NMTAP	6	216	5
NMTAP	6	240	4
NMTAP	6	264	3
NMTAP	7	0	5
NMTAP	7	24	4
NMTAP	7	48	3
NMTAP	7	72	2
NMTAP	7	192	5
NMTAP	7	216	4
NMTAP	7	240	3
NMTAP	7	264	2
NMTAP	8	0	4
NMTAP	8	24	3
NMTAP	8	48	2
NMTAP	8	72	1
NMTAP	8	192	1
NMTAP	8	216	2
NMTAP	8	240	3
NMTAP	8	264	4
NMTAP	8	288	2
NMTAP	8	312	3
NMTAP	8	336	4
NMTAP	9	0	5
NMTAP	9	24	4
NMTAP	9	48	3
NMHLD	9	72	2	120
NMTAP	9	192	5
NMTAP	9	216	4
NMTAP	9	240	3
NMHLD	9	264	2	120
NMTAP	10	0	6
NMTAP	10	24	5
NMTAP	10	48	4
NMHLD	10	72	3	120
NMTAP	10	192	6
NMTAP	10	216	5
NMTAP	10	240	4
NMHLD	10	264	3	120
NMTAP	11	0	5
NMTAP	11	24	4
NMTAP	11	48	3
NMHLD	11	72	2	120
NMTAP	11	192	5
NMTAP	11	216	4
NMTAP	11	240	3
NMHLD	11	264	2	120
NMTAP	12	0	4
NMTAP	12	48	3
NMTAP	12	48	5
NMTAP	12	96	2
NMTAP	12	96	6
NMTAP	12	144	5
NMTAP	12	168	3
NMTAP	12	192	5
NMTAP	12	216	3
NMTAP	12	240	5
NMTAP	12	288	3
NMTAP	12	288	4
NMTAP	12	336	2
NMTAP	12	360	3
BRSTR	13	0	0
NMSI_	13	0	0	96	48	2
NMTAP	13	48	0
NMSTR	13	96	3
NMSI_	13	96	3	96	48	7
NMTAP	13	144	3
NMHLD	13	192	1	96
NMTAP	13	288	0
NMSTR	14	0	7
NMSI_	14	0	7	96	48	5
NMTAP	14	48	7
NMSTR	14	96	4
NMSI_	14	96	4	96	48	0
NMTAP	14	144	4
NMHLD	14	192	6	96
NMSTR	14	288	7
NMSLR	14	288	7	96	96	4
NMTAP	14	336	7
NMSTR	15	0	4
NMSCL	15	0	4	96	96	7
NMSTR	15	96	7
NMSLL	15	96	7	96	96	3
NMSTR	15	192	3
NMSCR	15	192	3	96	96	7
NMSTR	15	288	7
NMSI_	15	288	7	96	64	2
NMHLD	16	0	4	192
CNSI_	16	64	2	0	64	5
CNSI_	16	128	5	0	64	0
NMTAP	16	288	0
NMHLD	16	288	1	96
NMSTR	17	0	7
NMSI_	17	0	7	96	48	5
NMTAP	17	48	7
NMSTR	17	96	4
NMSI_	17	96	4	96	48	0
NMTAP	17	144	4
NMHLD	17	192	6	96
NMTAP	17	288	7
NMSTR	18	0	0
NMSI_	18	0	0	96	48	2
NMTAP	18	48	0
NMSTR	18	96	3
NMSI_	18	96	3	96	48	7
NMTAP	18	144	3
NMTAP	18	192	1
NMTAP	18	288	0
NMTAP	18	288	6
NMSTR	19	0	2
NMSXR	19	0	2	96	48	0
NMSTR	19	0	4
NMSXL	19	0	4	96	48	6
NMTAP	19	48	3
NMTAP	19	96	2
NMTAP	19	96	4
NMSTR	19	192	3
NMSXR	19	192	3	96	48	1
NMSTR	19	192	5
NMSXL	19	192	5	96	48	7
NMTAP	19	240	4
NMTAP	19	288	3
NMTAP	19	288	5
NMSTR	20	0	2
NMSI_	20	0	2	96	48	7
NMSTR	20	0	6
NMSI_	20	0	6	96	48	3
NMTAP	20	48	3
NMTAP	20	48	7
NMTAP	20	96	2
NMTAP	20	96	6
BRTAP	20	192	0
BRTAP	20	192	4
NMTAP	20	288	0
NMTAP	20	288	4
NMSTR	21	0	1
NMSI_	21	0	1	96	48	5
NMTAP	21	48	1
NMSTR	21	96	4
NMSI_	21	96	4	96	48	2
NMTAP	21	144	4
NMHLD	21	192	1	96
NMTAP	21	288	0
NMTAP	21	336	7
NMSTR	22	0	6
NMSI_	22	0	6	96	48	2
NMTAP	22	48	6
NMSTR	22	96	3
NMSI_	22	96	3	96	48	5
NMTAP	22	144	3
NMHLD	22	192	6	96
NMSTR	22	288	7
NMSI_	22	288	7	96	48	3
NMTAP	22	336	0
NMSTR	23	0	1
NMSI_	23	0	1	96	48	5
NMTAP	23	0	7
NMTAP	23	96	1
NMSTR	23	96	4
NMSI_	23	96	4	96	48	7
NMSTR	23	192	3
NMSI_	23	192	3	96	48	0
NMTAP	23	192	4
NMTAP	23	288	3
NMSTR	23	288	6
NMSCL	23	288	6	96	96	1
NMSTR	24	0	1
BRSCR	24	0	1	96	96	6
NMTAP	24	96	6
NMTAP	24	192	0
NMHLD	24	288	1	96
NMTAP	24	288	7
NMSTR	25	0	6
NMSI_	25	0	6	96	48	2
NMTAP	25	48	6
NMSTR	25	96	3
NMSI_	25	96	3	96	48	5
NMTAP	25	144	3
NMHLD	25	192	6	96
NMTAP	25	288	7
NMTAP	25	336	0
NMSTR	26	0	1
NMSI_	26	0	1	96	48	5
NMTAP	26	48	1
NMSTR	26	96	4
NMSI_	26	96	4	96	48	2
NMTAP	26	144	4
NMTAP	26	192	1
NMTAP	26	288	0
NMTAP	26	288	1
NMTAP	27	0	2
NMSTR	27	0	3
NMSUR	27	0	3	96	48	7
NMTAP	27	48	4
NMTAP	27	96	2
NMTAP	27	96	3
NMSTR	27	192	4
NMSUL	27	192	4	96	48	0
NMTAP	27	192	5
NMTAP	27	240	3
NMTAP	27	288	4
NMTAP	27	288	5
NMSTR	28	0	0
NMSI_	28	0	0	96	48	4
NMSTR	28	0	7
NMSI_	28	0	7	96	48	3
NMTAP	28	48	1
NMTAP	28	48	6
NMTAP	28	96	0
NMTAP	28	96	7
BRTAP	28	192	1
BRTAP	28	192	6
NMTTP	29	0	7	E	0	M1
NMTTP	29	24	0	E	0	M1
NMTTP	29	48	1	E	0	M1
NMTTP	29	72	2	E	0	M1
NMTTP	29	96	3	E	0	M1
NMTTP	29	120	4	E	0	M1
NMTTP	29	144	5	E	0	M1
NMTTP	29	168	6	E	0	M1
NMTTP	29	192	1	E	0	M1
NMTTP	29	192	7	E	0	M1
EXTAP	29	288	0
EXTAP	29	288	7
BRSTR	30	0	1
NMSUR	30	0	1	96	48	5
NMTAP	30	48	0
NMTAP	30	72	0
NMTAP	30	96	1
NMTAP	30	144	7
NMSTR	30	192	6
NMSUL	30	192	6	96	48	2
NMTAP	30	240	0
NMTAP	30	264	0
NMTAP	30	288	6
NMTAP	30	336	1
NMSTR	31	0	3
NMSUR	31	0	3	96	96	6
NMTAP	31	48	2
NMTAP	31	72	2
NMTAP	31	96	3
NMTAP	31	144	1
NMTAP	31	192	0
NMTAP	31	240	0
NMTAP	31	240	7
NMTAP	31	264	0
NMTAP	31	264	7
NMSTR	32	0	6
NMSUL	32	0	6	96	48	2
NMTAP	32	48	7
NMTAP	32	72	7
NMTAP	32	96	6
NMTAP	32	144	0
NMSTR	32	192	1
NMSUR	32	192	1	96	48	5
NMTAP	32	240	7
NMTAP	32	264	7
NMTAP	32	288	1
NMTAP	32	336	0
NMSTR	33	0	7
NMSI_	33	0	7	96	48	3
NMTAP	33	48	4
NMTAP	33	72	4
NMTAP	33	96	7
NMTAP	33	144	2
NMTAP	33	192	2
NMTAP	33	192	4
NMTAP	33	240	1
NMTAP	33	240	5
NMTAP	33	264	1
NMTAP	33	264	5
NMTAP	34	0	2
NMTAP	34	24	3
NMTAP	34	48	1
NMTAP	34	72	4
NMSTR	34	96	0
NMSI_	34	96	0	96	48	4
NMTAP	34	120	5
NMSTR	34	144	7
NMSI_	34	144	7	96	48	3
NMTAP	34	168	6
NMSTR	34	192	0
NMSCR	34	192	0	96	48	4
NMTAP	34	240	7
NMTAP	34	288	0
NMTAP	35	0	5
NMTAP	35	24	4
NMTAP	35	48	6
NMTAP	35	72	3
NMSTR	35	96	7
NMSI_	35	96	7	96	48	3
NMTAP	35	120	2
NMSTR	35	144	0
NMSI_	35	144	0	96	48	4
NMTAP	35	168	1
NMSTR	35	192	7
NMSCL	35	192	7	96	48	3
NMTAP	35	240	0
NMTAP	35	288	7
NMSTR	36	0	2
NMSCL	36	0	2	96	48	7
NMTAP	36	0	3
NMTAP	36	48	1
NMTAP	36	72	3
NMTAP	36	96	2
NMTAP	36	144	4
NMTAP	36	192	4
NMSTR	36	192	5
NMSCR	36	192	5	96	48	0
NMTAP	36	240	6
NMTAP	36	264	4
NMTAP	36	288	5
NMTAP	36	336	2
NMTAP	37	0	0
NMTAP	37	0	1
NMTAP	37	48	2
NMTAP	37	96	6
NMTAP	37	96	7
NMTAP	37	144	5
NMSTR	37	192	3
NMSI_	37	192	3	96	48	7
NMSTR	37	192	4
NMSI_	37	192	4	96	48	0
NMTAP	37	288	3
NMTAP	37	288	4
NMTTP	38	0	0	C	1	M1
NMTTP	38	0	1	B	0	M1
NMTTP	38	0	2	B	0	M1
NMTTP	38	0	5	B	0	M1
NMTTP	38	0	6	B	0	M1
NMTAP	40	0	5
NMTAP	40	24	4
NMTAP	40	48	3
NMTAP	40	72	2
NMTAP	40	192	5
NMTAP	40	216	4
NMTAP	40	240	3
NMTAP	40	264	2
NMTAP	41	0	4
NMTAP	41	24	3
NMTAP	41	48	2
NMTAP	41	72	1
NMTAP	41	192	1
NMTAP	41	216	2
NMTAP	41	240	3
NMTAP	41	264	4
NMTAP	41	288	2
NMTAP	41	312	3
NMTAP	41	336	4
NMTAP	42	0	5
NMTAP	42	24	4
NMTAP	42	48	3
NMHLD	42	72	2	120
NMTAP	42	192	5
NMTAP	42	216	4
NMTAP	42	240	3
NMHLD	42	264	2	120
NMTAP	43	0	6
NMTAP	43	24	5
NMTAP	43	48	4
NMHLD	43	72	3	120
NMTAP	43	192	6
NMTAP	43	216	5
NMTAP	43	240	4
NMHLD	43	264	3	120
NMTAP	44	0	5
NMTAP	44	24	4
NMTAP	44	48	3
NMHLD	44	72	2	120
NMTAP	44	192	5
NMTAP	44	216	4
NMTAP	44	240	3
NMHLD	44	264	2	120
NMTAP	45	0	4
NMTAP	45	24	3
NMTAP	45	48	2
NMHLD	45	72	1	120
NMTAP	45	192	0
NMTAP	45	216	0
NMTAP	45	240	1
NMSTR	45	288	0
NMSCR	45	288	0	96	96	6
NMTAP	45	288	7
BRTAP	46	0	6
NMSTR	46	96	7
NMSI_	46	96	7	96	48	3
NMTAP	46	144	7
NMTAP	46	192	3
NMTAP	46	240	2
NMSTR	46	288	1
NMSI_	46	288	1	96	48	4
NMTAP	46	336	1
NMTAP	47	0	4
NMTAP	47	48	5
NMSTR	47	96	6
NMSI_	47	96	6	96	48	2
NMTAP	47	144	6
NMTAP	47	192	2
NMTAP	47	240	1
NMSTR	47	288	0
NMSI_	47	288	0	96	48	3
NMSI_	47	288	0	96	48	5
NMTAP	47	336	0
NMHLD	48	96	4	96
NMTAP	48	96	5
NMTAP	48	144	6
NMHLD	48	192	5	96
NMTAP	48	240	2
NMHLD	48	288	4	96
NMTAP	48	336	6
NMSTR	49	0	5
NMSCL	49	0	5	96	48	1
NMSUL	49	0	5	96	48	0
NMTAP	49	192	0
NMTAP	49	192	1
NMTAP	49	288	7
NMTAP	49	336	7
NMSTR	50	0	6
NMSI_	50	0	6	96	48	0
NMTAP	50	96	0
NMTAP	50	144	1
NMSTR	50	192	2
NMSI_	50	192	2	96	48	6
NMTAP	50	240	2
NMTAP	50	288	6
NMTAP	50	336	5
NMSTR	51	0	4
NMSI_	51	0	4	96	48	0
NMTAP	51	48	4
NMTAP	51	96	0
NMTAP	51	144	1
NMTAP	51	192	1
NMTAP	51	192	7
NMTAP	51	288	2
NMTAP	51	336	3
NMTAP	52	0	4
NMSTR	52	0	5
NMSV_	52	0	5	96	48	0
NMTAP	52	48	6
NMTAP	52	96	5
NMTAP	52	96	7
NMSTR	52	192	2
NMSV_	52	192	2	96	48	7
NMTAP	52	192	3
NMTAP	52	240	1
NMTAP	52	288	0
NMTAP	52	288	2
NMSTR	53	0	1
NMSV_	53	0	1	96	48	3
NMSTR	53	0	7
NMSV_	53	0	7	96	48	5
NMTAP	53	48	0
NMTAP	53	96	1
NMTAP	53	96	7
BRTAP	53	192	2
BRTAP	53	192	6
NMTTP	54	0	1	D	0	M1
NMTTP	54	24	0	D	0	M1
NMTTP	54	48	7	D	0	M1
NMTTP	54	72	6	D	0	M1
NMTTP	54	96	5	D	0	M1
NMTTP	54	120	4	D	0	M1
NMTTP	54	144	3	D	0	M1
NMTTP	54	168	2	D	0	M1
NMTTP	54	192	1	D	0	M1
NMTTP	54	192	7	D	0	M1
EXTAP	54	288	0
EXTAP	54	288	7
BRSTR	55	0	6
NMSCL	55	0	6	96	48	3
NMTAP	55	48	7
NMTAP	55	72	7
NMTAP	55	96	6
NMHLD	55	144	2	48
NMSTR	55	192	1
NMSCR	55	192	1	96	48	4
NMTAP	55	240	0
NMTAP	55	264	0
NMTAP	55	288	1
NMHLD	55	336	6	48
NMSTR	56	0	5
NMSXL	56	0	5	96	96	0
NMTAP	56	48	4
NMTAP	56	72	4
NMTAP	56	96	5
NMTAP	56	144	3
NMTAP	56	192	2
NMTAP	56	240	1
NMTAP	56	240	7
NMTAP	56	264	1
NMTAP	56	264	7
NMSTR	57	0	1
NMSCR	57	0	1	96	48	4
NMTAP	57	48	0
NMTAP	57	72	0
NMTAP	57	96	1
NMHLD	57	144	5	48
NMSTR	57	192	6
NMSCL	57	192	6	96	48	3
NMTAP	57	240	7
NMTAP	57	264	7
NMTAP	57	288	6
NMHLD	57	336	1	48
NMSTR	58	0	2
NMSCL	58	0	2	96	48	7
NMTAP	58	48	1
NMTAP	58	72	3
NMTAP	58	96	2
NMTAP	58	144	5
NMTAP	58	192	5
NMTAP	58	192	7
NMTAP	58	240	0
NMTAP	58	240	4
NMTAP	58	264	0
NMTAP	58	264	4
NMTAP	59	0	6
NMTAP	59	24	7
NMTAP	59	48	5
NMTAP	59	72	0
NMSTR	59	96	4
NMSI_	59	96	4	96	48	0
NMTAP	59	120	1
NMSTR	59	144	3
NMSI_	59	144	3	96	48	7
NMTAP	59	168	2
NMSTR	59	192	4
NMSCR	59	192	4	96	48	0
NMTAP	59	240	3
NMTAP	59	288	4
NMTAP	60	0	1
NMTAP	60	24	0
NMTAP	60	48	2
NMTAP	60	72	7
NMSTR	60	96	3
NMSI_	60	96	3	96	48	7
NMTAP	60	120	6
NMSTR	60	144	4
NMSI_	60	144	4	96	48	0
NMTAP	60	168	5
NMSTR	60	192	3
NMSCL	60	192	3	96	48	7
NMTAP	60	240	4
NMTAP	60	288	3
NMSTR	61	0	6
NMSI_	61	0	6	96	48	3
NMTAP	61	0	7
NMTAP	61	48	5
NMTAP	61	72	4
NMTAP	61	96	6
NMTAP	61	144	2
NMTAP	61	192	0
NMSTR	61	192	1
NMSI_	61	192	1	96	48	4
NMTAP	61	240	2
NMTAP	61	264	3
NMTAP	61	288	1
NMTAP	61	336	6
NMTAP	62	0	4
NMTAP	62	0	5
NMTAP	62	48	7
NMSTR	62	96	3
NMSUR	62	96	3	96	48	7
NMSTR	62	96	4
NMSCR	62	96	4	96	48	6
NMTAP	62	144	1
NMSTR	62	192	3
NMSCL	62	192	3	96	48	1
NMSTR	62	192	4
NMSUL	62	192	4	96	48	0
NMTAP	62	288	3
NMTAP	62	288	4
BRHLD	63	0	2	384
BRHLD	63	0	6	384
NMSTR	64	288	1
NMSXR	64	288	1	96	192	3
NMHLD	65	0	5	192
NMSTR	65	288	6
NMSXL	65	288	6	96	192	4
NMHLD	66	0	2	192
NMTAP	66	288	3
NMTAP	66	288	4
NMTAP	67	0	5
NMTAP	67	24	4
NMTAP	67	48	3
NMHLD	67	72	2	120
NMTAP	67	192	5
NMTAP	67	216	4
NMTAP	67	240	3
NMHLD	67	264	2	120
NMTAP	68	0	6
NMTAP	68	24	5
NMTAP	68	48	4
NMHLD	68	72	3	120
NMTAP	68	192	6
NMTAP	68	216	5
NMTAP	68	240	4
NMHLD	68	264	3	120
NMTAP	69	0	5
NMTAP	69	24	4
NMTAP	69	48	3
NMHLD	69	72	2	120
NMTAP	69	192	5
NMTAP	69	216	4
NMTAP	69	240	3
NMHLD	69	264	2	120
NMTAP	70	0	4
NMTAP	70	24	3
NMTAP	70	48	2
NMHLD	70	72	1	120
NMSTR	70	192	3
NMSUR	70	192	3	96	72	4

T_REC_TAP	369
T_REC_BRK	7
T_REC_XTP	4
T_REC_BXX	0
T_REC_HLD	38
T_REC_XHO	0
T_REC_BHO	2
T_REC_BXH	0
T_REC_STR	84
T_REC_BST	3
T_REC_XST	0
T_REC_XBS	0
T_REC_TTP	58
T_REC_THO	0
T_REC_SLD	88
T_REC_BSL	1
T_REC_ALL	654
T_NUM_TAP	515
T_NUM_BRK	13
T_NUM_HLD	38
T_NUM_SLD	88
T_NUM_ALL	654
T_JUDGE_TAP	525
T_JUDGE_HLD	114
T_JUDGE_SLD	89
T_JUDGE_ALL	728
TTM_EACHPAIRS	65
TTM_SCR_TAP	257500
TTM_SCR_BRK	33800
TTM_SCR_HLD	38000
TTM_SCR_SLD	132000
TTM_SCR_ALL	461300
TTM_SCR_S	446200
TTM_SCR_SS	460000
TTM_RAT_ACV	10028

