VERSION	0.00.00	1.04.00
FES_MODE	0
BPM_DEF	185.000	185.000	185.000	185.000
MET_DEF	4	4
RESOLUTION	384
CLK_DEF	384
COMPATIBLE_CODE	MA2

BPM	0	0	185.000
MET	0	0	4	4

BRSTR	2	0	0
NMSLR	2	0	0	96	288	4
NMTTP	2	144	0	E	0	M1
NMTTP	2	156	7	E	0	M1
NMTTP	2	168	6	E	0	M1
NMTTP	2	180	5	E	0	M1
NMTTP	2	192	4	E	0	M1
CNSLR	3	0	4	0	288	0
NMTAP	3	192	4
NMTAP	3	288	4
NMHLD	4	0	2	672
NMTAP	4	0	5
NMTAP	4	96	3
NMTAP	4	192	1
NMTTP	4	288	0	A	0	M1
NMTTP	4	288	1	E	1	M1
NMTTP	4	288	1	A	0	M1
NMTTP	4	288	1	D	0	M1
NMTTP	5	0	6	A	0	M1
NMTTP	5	0	7	E	1	M1
NMTTP	5	0	7	A	0	M1
NMTTP	5	0	7	D	0	M1
NMTTP	5	96	4	A	0	M1
NMTTP	5	96	5	E	1	M1
NMTTP	5	96	5	A	0	M1
NMTTP	5	96	5	D	0	M1
NMTAP	5	192	3
NMTAP	5	240	3
NMSTR	5	288	3
NMSI_	5	288	3	96	48	6
NMTTP	6	0	1	A	0	M1
NMTTP	6	0	2	E	1	M1
NMTTP	6	0	2	A	0	M1
NMTTP	6	0	2	D	0	M1
BRTAP	6	0	3
NMTAP	6	96	0
NMTAP	6	144	0
NMTAP	6	240	1
NMTAP	6	240	3
NMTAP	6	288	1
NMSTR	6	288	3
NMSI_	6	288	3	96	48	6
NMTTP	7	0	1	A	0	M1
NMTTP	7	0	2	E	1	M1
NMTTP	7	0	2	A	0	M1
NMTTP	7	0	2	D	0	M1
BRTAP	7	0	3
NMTAP	7	96	0
NMTAP	7	144	0
NMTAP	7	240	1
NMTAP	7	240	3
NMTAP	7	288	1
NMSTR	7	288	3
NMSV_	7	288	3	96	96	6
BXTAP	8	0	0
BXTAP	8	0	3
NMSTR	8	96	0
NMSV_	8	96	0	96	96	5
CNSCL	8	96	6	0	24	3
BXTAP	8	192	0
BXTAP	8	192	3
NMTAP	8	288	3
CNSCR	8	288	5	0	24	0
NMTAP	9	48	1
NMTAP	9	96	1
NMTAP	9	144	0
EXTAP	9	192	1
EXTAP	9	192	7
EXTAP	9	288	4
EXSTR	9	288	6
NMSI_	9	288	6	96	48	0
BRSTR	10	0	4
NMSI_	10	0	4	96	48	2
BRTAP	10	0	6
BRTAP	10	96	1
BRTAP	10	96	4
NMHLD	10	192	0	48
NMSTR	10	288	0
NMSI_	10	288	0	96	48	6
BRTAP	11	0	0
BRSTR	11	0	2
NMSI_	11	0	2	96	48	4
NMTAP	11	96	2
NMHLD	11	96	5	48
NMHLD	11	192	5	48
NMTAP	11	288	0
NMSTR	11	288	5
NMSI_	11	288	5	96	48	3
NMTAP	12	0	5
NMSTR	12	0	7
NMSI_	12	0	7	96	48	1
NMTAP	12	96	2
NMTAP	12	96	7
NMHLD	12	192	3	48
NMSTR	12	288	3
NMSI_	12	288	3	96	48	5
NMSTR	13	0	1
NMSI_	13	0	1	96	48	7
NMTAP	13	0	3
NMTAP	13	96	1
NMHLD	13	96	6	48
NMHLD	13	192	6	48
NMTAP	13	288	3
NMSTR	13	288	6
NMSI_	13	288	6	96	48	0
BRSTR	14	0	4
NMSI_	14	0	4	96	48	2
BRTAP	14	0	6
BRTAP	14	96	1
BRTAP	14	96	4
NMHLD	14	192	0	48
NMSTR	14	288	0
NMSI_	14	288	0	96	48	6
BRTAP	15	0	0
BRSTR	15	0	2
NMSI_	15	0	2	96	48	4
NMTAP	15	96	2
NMHLD	15	96	5	48
NMHLD	15	192	5	48
NMTAP	15	288	4
NMTAP	15	288	5
NMTAP	15	336	6
NMHLD	16	0	3	96
NMHLD	16	0	7	240
NMHLD	16	144	1	96
NMTTP	16	288	2	A	0	M1
NMTTP	16	288	2	D	0	M1
NMTTP	16	288	3	D	0	M1
NMHLD	17	0	0	240
NMHLD	17	0	4	96
NMHLD	17	144	6	96
NMTTP	17	288	5	A	0	M1
NMTTP	17	288	5	D	0	M1
NMTTP	17	288	6	D	0	M1
NMSTR	18	0	3
NMSCR	18	0	3	96	48	4
NMTAP	18	0	4
NMTAP	18	96	6
CNSV_	18	144	4	0	96	2
NMSTR	18	192	6
NMSV_	18	192	6	96	48	5
NMTAP	18	288	7
NMTAP	18	336	7
NMSTR	19	0	0
NMSCL	19	0	0	96	48	7
NMTAP	19	96	4
CNSV_	19	144	7	0	96	1
NMTAP	19	192	5
NMSTR	19	240	5
NMSV_	19	240	5	96	48	6
NMTAP	19	336	3
NMSTR	20	0	3
NMSCR	20	0	3	96	48	4
NMTAP	20	96	7
CNSV_	20	144	4	0	96	2
NMSTR	20	192	6
NMSV_	20	192	6	96	48	5
NMTAP	20	288	7
NMHLD	20	336	7	96
NMTTP	21	48	4	B	0	M1
NMTTP	21	48	5	B	0	M1
NMTTP	21	48	5	E	0	M1
NMTTP	21	144	2	B	0	M1
NMTTP	21	144	3	B	0	M1
NMTTP	21	144	3	E	0	M1
EXTAP	21	240	0
EXTAP	21	288	0
NMSTR	22	0	3
NMSCR	22	0	3	96	48	4
NMTAP	22	0	4
NMTAP	22	96	6
CNSV_	22	144	4	0	96	2
NMSTR	22	192	6
NMSV_	22	192	6	96	48	5
NMTAP	22	288	7
NMTAP	22	336	7
NMSTR	23	0	0
NMSCL	23	0	0	96	48	7
NMTAP	23	96	4
CNSV_	23	144	7	0	96	1
NMTAP	23	192	5
NMSTR	23	240	5
NMSV_	23	240	5	96	48	6
NMTAP	23	336	3
NMHLD	24	0	3	528
NMSTR	24	96	0
NMSCL	24	96	0	96	96	6
CNSSL	24	288	6	0	168	2
CNSCR	25	72	2	0	72	5
NMHLD	25	240	4	24
NMHLD	25	288	4	24
NMHLD	25	336	4	24
NMTAP	26	0	4
NMTAP	26	0	5
NMHLD	26	48	3	96
NMHLD	26	48	4	96
BRHLD	26	192	2	96
BRHLD	26	192	3	96
NMTAP	27	0	2
NMTAP	27	0	3
NMHLD	27	48	3	96
NMHLD	27	48	4	96
NMHLD	27	192	4	96
NMHLD	27	192	5	96
NMHLD	28	0	2	96
NMTAP	28	0	4
NMHLD	28	96	0	96
EXTAP	28	336	1
EXTAP	28	336	4
NMSTR	29	0	0
NMSLR	29	0	0	96	192	4
EXTAP	29	0	7
NMSTR	29	96	6
NMSI_	29	96	6	96	96	4
NMSTR	30	0	0
NMSV_	30	0	0	96	288	5
NMHLD	30	144	4	144
NMHLD	31	0	3	96
CNSCR	31	0	5	0	192	0
NMTAP	31	192	2
NMTAP	31	288	2
NMHLD	32	0	1	48
NMHLD	32	0	2	48
NMTAP	32	96	0
NMTAP	32	96	3
NMHLD	32	144	1	48
NMHLD	32	144	2	48
NMTAP	32	240	0
NMTAP	32	240	3
NMTAP	32	288	0
NMTAP	32	288	3
NMHLD	33	0	5	96
NMHLD	33	0	6	96
NMTAP	33	192	4
NMTAP	33	192	7
BRTAP	33	288	2
BRTAP	33	288	5
NMTAP	34	0	0
NMHLD	34	0	6	1632
NMTTP	34	144	0	C	0	M1
NMTTP	34	192	4	E	0	M1
NMTTP	34	192	4	D	0	M1
NMTTP	34	288	7	B	0	M1
NMTTP	34	336	4	E	0	M1
NMTTP	34	336	4	D	0	M1
NMTTP	35	48	7	D	0	M1
NMTTP	35	96	4	E	0	M1
NMTTP	35	96	4	D	0	M1
BXSTR	35	192	7
NMSCR	35	192	7	96	48	2
NMTTP	36	0	0	C	0	M1
NMTTP	36	144	2	E	1	M1
NMTTP	36	192	3	E	0	M1
NMTTP	36	192	3	D	0	M1
NMTTP	36	288	0	B	1	M1
NMTTP	36	336	3	E	0	M1
NMTTP	36	336	3	D	0	M1
NMTTP	37	48	7	D	1	M1
NMTTP	37	96	3	E	0	M1
NMTTP	37	96	3	D	0	M1
BXTAP	37	192	0
BXTAP	37	288	0
NMHLD	38	0	7	48
NMTAP	38	96	7
NMHLD	38	144	0	96
NMHLD	38	144	5	48
NMTAP	38	240	5
NMTAP	38	288	1
NMTAP	38	288	4
NMHLD	39	0	2	96
NMHLD	39	0	3	48
NMTAP	39	96	3
NMHLD	39	144	3	48
NMHLD	39	144	4	96
NMTAP	39	240	3
NMTAP	39	288	4
NMSTR	39	288	5
NMSCR	39	288	5	96	96	0
NMTAP	40	96	1
NMSTR	40	144	1
NMSCR	40	144	1	96	96	4
NMTAP	40	288	7
NMTAP	40	336	7
NMTAP	41	48	0
NMTAP	41	48	6
NMTAP	41	96	0
NMSTR	41	96	6
NMSI_	41	96	6	96	48	4
NMTAP	41	144	0
NMTAP	41	144	6
NMHLD	41	192	0	84
NMTAP	41	192	6
EXTAP	41	288	1
EXTAP	41	300	2
EXTAP	41	312	3
EXTAP	41	324	4
EXTAP	41	336	5
EXTAP	41	348	6
EXTAP	41	360	7
EXTAP	41	372	0
EXSTR	42	0	1
NMSV_	42	0	1	96	48	4
NMTAP	42	96	0
NMTAP	42	96	1
NMTTP	42	144	6	A	0	M1
NMTTP	42	144	7	A	0	M1
NMTTP	42	144	7	D	0	M1
NMTAP	42	240	1
NMSTR	42	288	1
NMSV_	42	288	1	96	48	4
NMTAP	43	0	0
NMTAP	43	0	1
NMTTP	43	48	6	A	0	M1
NMTTP	43	48	7	A	0	M1
NMTTP	43	48	7	D	0	M1
NMTAP	43	144	1
NMSTR	43	192	1
NMSV_	43	192	1	96	48	4
NMTAP	43	240	0
BRTAP	43	288	1
NMTTP	43	288	6	A	0	M1
NMTTP	43	288	7	A	0	M1
NMTTP	43	288	7	D	0	M1
NMTAP	44	0	0
NMTAP	44	0	1
NMHLD	44	48	2	48
NMHLD	44	48	7	48
NMTAP	44	144	0
NMTAP	44	144	1
NMHLD	44	192	3	48
NMHLD	44	192	7	48
NMTAP	44	288	0
NMTAP	44	288	1
NMHLD	44	336	4	48
NMHLD	44	336	7	48
NMTAP	45	48	0
NMTAP	45	48	1
NMHLD	45	96	5	48
NMHLD	45	96	7	48
BRTAP	45	192	0
BRTAP	45	192	1
BRSTR	45	240	6
NMSCL	45	240	6	96	48	4
BRTAP	45	240	7
NMSTR	45	336	0
NMSCR	45	336	0	96	48	2
BRTAP	45	336	6
BRTAP	46	48	0
NMSTR	46	48	6
NMSI_	46	48	6	96	48	3
BRTAP	46	144	6
NMSTR	46	144	7
NMSI_	46	144	7	96	48	2
NMTAP	46	240	6
BRSTR	46	240	7
NMSI_	46	240	7	96	48	4
NMSTR	46	336	0
NMSI_	46	336	0	96	48	3
BRTAP	46	336	7
BRSTR	47	48	0
NMSI_	47	48	0	96	48	5
NMTAP	47	48	7
BRTAP	47	144	0
NMSTR	47	144	1
NMSI_	47	144	1	96	48	4
NMTAP	47	240	0
BRTAP	47	240	1
NMTAP	47	336	7
NMTAP	48	0	6
NMTAP	48	48	4
NMTAP	48	48	5
NMTAP	48	144	3
NMTAP	48	192	2
NMSTR	48	240	0
NMSSR	48	240	0	96	144	4
NMSTR	48	240	1
NMSSR	48	240	1	96	144	5
NMTAP	48	288	2
NMTAP	48	288	7
NMTAP	48	336	0
NMTAP	48	336	1
NMSTR	49	192	5
NMSI_	49	192	5	96	48	7
NMSTR	49	193	4
NMSV_	49	193	4	96	24	2
BXTAP	49	288	5
BXTAP	49	289	4
CNSCL	49	313	2	0	23	0
EXTAP	50	0	7
NMTAP	50	48	6
NMSTR	50	96	1
NMSI_	50	96	1	96	48	3
NMSTR	50	96	5
NMSI_	50	96	5	96	48	3
NMTAP	50	192	1
NMTAP	50	192	5
NMTAP	50	288	7
NMTAP	50	336	6
NMSTR	51	0	1
NMSI_	51	0	1	96	48	3
NMSTR	51	0	5
NMSI_	51	0	5	96	48	3
NMTAP	51	96	1
NMTAP	51	96	5
NMTAP	51	192	7
NMTAP	51	240	6
NMTAP	51	288	0
NMTAP	51	288	5
NMTAP	51	336	2
NMTAP	52	0	0
NMTAP	52	0	6
NMHLD	52	48	1	48
NMHLD	52	48	7	48
NMTAP	52	144	0
NMTAP	52	144	6
NMHLD	52	192	2	48
NMHLD	52	192	7	48
NMTAP	52	288	0
NMTAP	52	288	6
NMHLD	52	336	3	48
NMHLD	52	336	7	48
NMTAP	53	48	0
NMTAP	53	48	6
NMHLD	53	96	4	48
NMHLD	53	96	7	48
BRTAP	53	192	0
BRTAP	53	192	6
BRSTR	53	240	2
NMSI_	53	240	2	96	48	4
BRTAP	53	240	3
NMSTR	53	336	6
NMSI_	53	336	6	96	48	0
NMTAP	54	0	6
NMSTR	54	48	2
NMSCR	54	48	2	96	48	4
NMTAP	54	96	2
NMSTR	54	144	6
NMSCR	54	144	6	96	48	0
NMTAP	54	192	6
NMSTR	54	240	2
NMSI_	54	240	2	96	48	4
NMTAP	54	288	2
NMSTR	54	336	6
NMSI_	54	336	6	96	48	0
NMTAP	55	0	6
NMSTR	55	48	2
NMSCR	55	48	2	96	48	4
NMTAP	55	96	2
NMTAP	55	144	6
NMTAP	55	240	5
NMTAP	55	288	4
BXTAP	55	336	3
BXTAP	55	336	5
NMTAP	56	48	5
NMTAP	56	96	4
BXTAP	56	144	3
BXTAP	56	144	5
NMTAP	56	240	4
NMTAP	56	240	6
NMTAP	56	288	3
NMTAP	56	288	5
BXHLD	56	336	2	144
BXHLD	56	336	4	96
NMSTR	57	96	5
NMSCL	57	96	5	96	108	7
EXSTR	58	0	1
BRSUR	58	0	1	96	192	5
CNSUR	58	288	5	0	288	1
NMTHO	59	0	0	192	C	1	M1
NMTAP	59	288	7
NMTAP	59	312	7
NMTAP	60	48	6
NMSTR	60	96	5
BRSUL	60	96	5	96	192	1
NMTAP	60	240	3
NMTHO	61	0	0	288	C	1	M1
CNSUL	61	0	1	0	288	5
NMSTR	62	0	0
BRSUL	62	0	0	96	192	4
CNSUL	62	288	4	0	288	0
NMTHO	63	0	0	192	C	1	M1
NMTAP	63	288	7
NMTAP	63	312	7
NMTAP	64	48	6
NMSTR	64	96	5
BRSCL	64	96	5	96	144	2
NMTAP	64	240	0
NMTTP	65	0	0	C	0	M1
NMSTR	65	48	2
BRSUL	65	48	2	96	96	5
NMHLD	66	0	3	96
NMSTR	66	96	7
BRSUR	66	96	7	96	144	3
NMTAP	66	192	2
CNSUR	66	336	3	0	240	7
NMTHO	67	0	0	192	C	1	M1
NMTAP	67	288	0
NMTAP	67	312	0
NMTAP	68	48	1
NMSTR	68	96	2
BRSUR	68	96	2	96	192	6
NMTAP	68	240	4
NMTHO	69	0	0	288	C	1	M1
CNSUR	69	0	6	0	288	2
NMSTR	70	0	7
BRSUR	70	0	7	96	192	3
NMTAP	70	192	2
CNSUR	70	288	3	0	288	7
NMTHO	71	0	0	192	C	1	M1
NMSTR	72	0	7
NMSCL	72	0	7	96	48	6
NMSCR	72	0	7	96	48	0
CNSI_	72	144	0	0	48	2
CNSI_	72	144	6	0	48	4
CNSCR	72	192	2	0	48	3
CNSCL	72	192	4	0	48	3
NMTTP	72	312	0	C	1	M1
NMTTP	72	312	1	B	0	M1
NMTTP	72	312	3	B	0	M1
NMTTP	72	312	5	B	0	M1
NMSTR	73	288	1
NMSI_	73	288	1	96	48	4
NMTAP	73	288	6
BRTAP	74	0	4
NMHLD	74	96	5	576
NMTAP	74	240	4
NMTAP	74	288	4
NMTAP	75	48	3
NMTAP	75	96	3
NMTAP	75	240	4
NMHLD	75	288	4	672
NMTAP	76	48	5
NMTAP	76	96	5
NMTAP	76	240	3
NMTAP	76	288	3
EXTAP	77	0	2
EXHLD	77	48	2	0
EXTAP	77	96	2
EXHLD	77	144	2	0
EXSTR	77	192	2
NMSCR	77	192	2	96	48	5
NMTAP	78	0	2
NMTAP	78	24	4
NMTAP	78	48	3
NMTAP	78	72	5
NMTAP	78	96	4
NMTAP	78	144	4
NMTAP	78	144	6
NMTAP	78	192	5
NMTAP	78	216	3
NMTAP	78	240	4
NMTAP	78	264	2
NMTAP	78	288	3
NMTAP	78	336	0
NMTAP	78	336	4
NMSTR	78	360	0
NMSCR	78	360	0	96	48	3
NMTAP	78	360	4
NMTAP	79	48	6
NMSTR	79	96	7
NMSSR	79	96	7	96	96	3
EXTAP	79	192	0
EXTAP	79	240	0
EXHLD	79	288	0	48
NMTTP	79	336	5	A	0	M1
NMTTP	79	336	6	A	0	M1
NMTTP	79	336	6	D	0	M1
NMTAP	80	0	2
NMTAP	80	24	4
NMTAP	80	48	3
NMTAP	80	72	5
NMTAP	80	96	4
NMTAP	80	144	4
NMTAP	80	144	6
NMTAP	80	192	5
NMTAP	80	216	3
NMTAP	80	240	4
NMTAP	80	264	2
NMTAP	80	288	3
NMTAP	80	336	0
NMTAP	80	336	4
NMSTR	80	360	0
NMSCR	80	360	0	96	48	3
NMTAP	80	360	4
NMTAP	81	48	6
NMSTR	81	96	7
NMSSR	81	96	7	96	96	3
EXSTR	81	192	2
BRSCL	81	192	2	96	24	0
EXTAP	81	240	2
EXTAP	82	0	0
NMTAP	82	48	1
NMTAP	82	48	3
EXTAP	82	96	0
NMTTP	82	144	5	A	0	M1
NMTTP	82	144	6	A	0	M1
NMTTP	82	144	6	D	0	M1
EXTAP	82	192	0
NMTAP	82	240	1
NMTAP	82	240	3
EXTAP	82	288	0
NMTTP	82	336	5	A	0	M1
NMTTP	82	336	6	A	0	M1
NMTTP	82	336	6	D	0	M1
NMHLD	83	0	0	48
NMHLD	83	96	1	48
NMHLD	83	96	3	48
NMSTR	83	192	0
BRSI_	83	192	0	96	24	4
BRTAP	83	288	0
NMTTP	83	288	5	A	0	M1
NMTTP	83	288	6	A	0	M1
NMTTP	83	288	6	D	0	M1
NMTTP	83	300	0	C	1	M1
EXTAP	84	0	0
NMTAP	84	48	1
NMTAP	84	48	3
EXTAP	84	96	0
NMTTP	84	144	5	A	0	M1
NMTTP	84	144	6	A	0	M1
NMTTP	84	144	6	D	0	M1
EXTAP	84	192	0
NMTAP	84	240	1
NMTAP	84	240	3
EXTAP	84	288	0
NMTTP	84	336	5	A	0	M1
NMTTP	84	336	6	A	0	M1
NMTTP	84	336	6	D	0	M1
NMHLD	85	0	0	48
NMHLD	85	96	1	48
NMHLD	85	96	3	48
NMHLD	85	192	0	88
BXTAP	85	288	1
BXTAP	85	288	7
BXTAP	85	296	2
BXTAP	85	296	6
BXTAP	85	304	3
BXTAP	85	304	5
NMSTR	86	0	1
BRSCR	86	0	1	96	72	5
NMTAP	86	0	4
NMTTP	86	72	4	E	0	M1
NMTTP	86	96	3	E	0	M1
NMTAP	86	168	7
NMHLD	86	192	7	48
NMHLD	86	240	6	48
NMHLD	86	288	5	48
NMTAP	86	336	4
NMTAP	87	0	3
NMSTR	87	0	6
NMSCL	87	0	6	96	72	2
NMTTP	87	72	4	E	0	M1
NMTTP	87	96	5	E	0	M1
NMTAP	87	168	0
NMHLD	87	192	0	48
NMHLD	87	240	1	48
NMHLD	87	288	2	48
NMTAP	87	336	3
NMTAP	88	48	4
NMTAP	88	72	3
NMTAP	88	96	4
NMTAP	88	120	2
NMTAP	88	144	4
NMTAP	88	168	2
NMTAP	88	192	5
NMTAP	88	216	3
NMTAP	88	240	5
NMTAP	88	264	3
NMTAP	88	288	4
NMTAP	88	312	3
EXSTR	88	336	4
NMSI_	88	336	4	96	48	2
NMHLD	89	48	0	192
CNSI_	89	96	2	0	48	5
NMTTP	89	96	2	A	0	M1
CNSI_	89	144	5	0	48	1
NMTTP	89	144	5	A	0	M1
CNSI_	89	192	1	0	48	7
NMTTP	89	192	1	A	0	M1
NMTTP	89	240	7	A	0	M1
EXTAP	89	336	1
EXTAP	89	336	6
BXTAP	90	0	3
BXTAP	90	0	4
BXTAP	90	48	3
BXTAP	90	48	4
BXTAP	90	96	3
BXTAP	90	96	4
BXTAP	90	144	2
BXTAP	90	168	3
BXTAP	90	192	2
BXTAP	90	240	3
BXTAP	90	240	4
BXTAP	90	288	5
BXTAP	90	312	4
BXTAP	90	336	5
BXTAP	90	360	4
BRSTR	91	0	5
BRSI_	91	0	5	96	48	7
BRSTR	91	96	0
BRSI_	91	96	0	96	48	4
BRTAP	91	96	5
BRTAP	91	192	0
BRSTR	91	192	3
BRSI_	91	192	3	96	48	1
BRTAP	91	288	3
BRTAP	91	288	7
BXTAP	92	0	6
BXTAP	92	24	7
BXTAP	92	48	6
BXTAP	92	96	1
BXTAP	92	120	0
BXTAP	92	144	1
BXTAP	92	192	2
BXTAP	92	192	7
BXTAP	92	240	4
BXTAP	92	264	5
BXTAP	92	288	4
BXTAP	92	336	3
BXTAP	92	336	7
BRSTR	93	0	2
BRSI_	93	0	2	96	48	0
BRTAP	93	96	2
BRSTR	93	96	7
BRSI_	93	96	7	96	48	3
BRSTR	93	192	4
BRSI_	93	192	4	96	48	6
BRTAP	93	192	7
BRTAP	93	288	0
BRTAP	93	288	4
BXTAP	94	0	2
BXTAP	94	0	7
BXTAP	94	48	1
BXTAP	94	48	6
BXTAP	94	96	0
BXTAP	94	96	5
BXTAP	94	144	6
BXTAP	94	168	7
BXTAP	94	192	6
BXTAP	94	240	0
BXTAP	94	240	1
BXTAP	94	288	2
BXTAP	94	312	3
BXTAP	94	336	2
BXTAP	94	360	3
BRSTR	95	0	2
BRSI_	95	0	2	96	48	4
BRTAP	95	96	2
BRSTR	95	96	5
BRSI_	95	96	5	96	48	1
BRSTR	95	192	0
BRSI_	95	192	0	96	48	6
BRTAP	95	192	5
BRTAP	95	288	0
BRTAP	95	288	4
BXTAP	96	0	1
BXTAP	96	24	3
BXTAP	96	48	1
BXTAP	96	96	6
BXTAP	96	120	4
BXTAP	96	144	6
BXTAP	96	192	0
BXTAP	96	192	7
BXTAP	96	240	1
BXTAP	96	240	6
BXTAP	96	264	2
BXTAP	96	264	5
BXTAP	96	288	3
BXTAP	96	288	4
BXTAP	96	336	1
BXTAP	96	336	6
BRSTR	97	0	5
BRSI_	97	0	5	96	48	3
BRSTR	97	96	2
BRSI_	97	96	2	96	48	6
BRTAP	97	96	5
BRTAP	97	192	2
BRSTR	97	192	7
BRSI_	97	192	7	96	48	1
BRTAP	97	288	3
BRTAP	97	288	7
BXSTR	98	0	0
NMSV_	98	0	0	96	96	5
CNSCR	98	192	5	0	96	0
BRHLD	98	336	1	96
NMTAP	99	48	4
NMTAP	99	96	5
BRHLD	99	144	6	96
NMTAP	99	240	7
EXTAP	99	288	1
EXTAP	99	300	2
EXTAP	99	312	3
EXTAP	99	324	4
EXTAP	99	336	5
EXTAP	99	348	6
EXTAP	99	360	7
EXTAP	99	372	0
EXSTR	100	0	1
NMSI_	100	0	1	96	48	4
EXTAP	100	0	5
NMTAP	100	96	1
NMTAP	100	96	6
NMTTP	100	144	0	D	0	M1
CNSI_	100	144	4	0	48	0
NMTTP	100	144	7	A	1	M1
NMTTP	100	144	7	D	0	M1
NMTAP	100	240	6
NMSTR	100	288	1
NMSI_	100	288	1	96	48	4
NMTAP	100	288	5
NMTAP	101	0	1
NMTAP	101	0	6
NMTTP	101	48	0	D	0	M1
CNSI_	101	48	4	0	48	0
NMTTP	101	48	7	A	1	M1
NMTTP	101	48	7	D	0	M1
NMTAP	101	144	6
NMSTR	101	192	1
NMSI_	101	192	1	96	48	4
NMTAP	101	192	5
NMTAP	101	240	6
NMTTP	101	288	0	D	0	M1
NMTAP	101	288	1
NMTTP	101	288	7	A	1	M1
NMTTP	101	288	7	D	0	M1
BRTAP	102	0	1
BRTAP	102	0	7
BRHLD	102	48	2	48
BRHLD	102	48	6	48
BRTAP	102	144	1
BRTAP	102	144	7
BRHLD	102	192	3	48
BRHLD	102	192	6	48
BRTAP	102	288	1
BRTAP	102	288	7
BRHLD	102	336	4	48
BRHLD	102	336	6	48
BRTAP	103	48	1
BRTAP	103	48	7
BRHLD	103	96	5	48
BRHLD	103	96	6	48
BRTAP	103	192	1
BRTAP	103	192	7
BRTAP	103	240	4
BRSTR	103	240	5
NMSCR	103	240	5	96	48	7
NMSTR	103	336	3
NMSCL	103	336	3	96	48	1
BRTAP	103	336	5
BRTAP	104	48	3
NMSTR	104	48	5
NMSI_	104	48	5	96	48	0
NMSTR	104	144	4
NMSI_	104	144	4	96	48	1
BRTAP	104	144	5
BRSTR	104	240	4
NMSI_	104	240	4	96	48	7
NMTAP	104	240	5
NMSTR	104	336	3
NMSI_	104	336	3	96	48	0
BRTAP	104	336	4
BRSTR	105	48	3
NMSI_	105	48	3	96	48	6
NMTAP	105	48	4
NMSTR	105	144	2
NMSI_	105	144	2	96	48	7
BRTAP	105	144	3
BRTAP	105	240	2
NMTAP	105	240	3
NMTAP	105	336	3
NMTAP	106	0	2
NMTAP	106	48	0
NMTAP	106	48	1
NMTAP	106	144	4
NMTAP	106	192	5
NMSTR	106	240	6
NMSCL	106	240	6	96	144	3
NMSTR	106	240	7
NMSSL	106	240	7	96	144	3
NMTAP	106	288	0
NMTAP	106	288	5
NMTAP	106	336	6
NMTAP	106	336	7
NMSTR	107	192	5
NMSI_	107	192	5	96	48	7
NMSTR	107	193	4
BRSV_	107	193	4	96	24	2
BXTAP	107	288	5
BXTAP	107	289	4
CNSCL	107	313	2	0	23	0
EXTAP	108	0	0
NMTAP	108	48	1
NMSTR	108	96	2
NMSI_	108	96	2	96	48	5
NMSTR	108	96	6
NMSI_	108	96	6	96	48	3
NMTAP	108	144	1
NMTAP	108	144	7
BRTAP	108	192	2
BRTAP	108	192	6
NMTAP	108	288	0
NMTAP	108	336	1
NMSTR	109	0	2
NMSI_	109	0	2	96	48	5
NMSTR	109	0	6
NMSI_	109	0	6	96	48	3
NMTAP	109	48	1
NMTAP	109	48	7
BRTAP	109	96	2
BRTAP	109	96	6
NMTAP	109	192	0
NMTAP	109	240	2
NMTAP	109	288	1
NMTAP	109	288	7
NMTAP	109	336	4
BRTAP	110	0	0
BRTAP	110	0	5
BRHLD	110	48	1	48
BRHLD	110	48	7	48
BRTAP	110	144	0
BRTAP	110	144	5
BRHLD	110	192	2	48
BRHLD	110	192	7	48
BRTAP	110	288	0
BRTAP	110	288	5
BRHLD	110	336	3	48
BRHLD	110	336	7	48
BRTAP	111	48	0
BRTAP	111	48	5
BRHLD	111	96	4	48
BRHLD	111	96	7	48
BRTAP	111	192	0
BRTAP	111	192	5
BRTAP	111	240	4
BRSTR	111	240	6
NMSI_	111	240	6	96	48	0
NMSTR	111	336	2
NMSI_	111	336	2	96	48	4
NMTAP	112	0	2
NMSTR	112	48	6
NMSCR	112	48	6	96	48	0
NMTAP	112	96	6
NMSTR	112	144	2
NMSCR	112	144	2	96	48	4
NMTAP	112	192	2
NMSTR	112	240	6
NMSI_	112	240	6	96	48	0
NMTAP	112	288	6
NMSTR	112	336	2
NMSI_	112	336	2	96	48	4
NMTAP	113	0	2
NMSTR	113	48	6
NMSCR	113	48	6	96	48	0
NMTAP	113	96	6
NMTAP	113	144	2
NMTAP	113	240	2
NMTAP	113	288	0
BXHLD	113	336	1	96
BXTAP	113	336	7
NMTAP	114	48	2
NMTAP	114	96	0
BXHLD	114	144	1	96
BXTAP	114	144	7
NMTAP	114	240	0
NMTAP	114	288	1
NMTAP	114	288	7
BXHLD	114	336	0	144
BXHLD	114	336	6	96
NMSTR	115	96	5
NMSCL	115	96	5	96	108	7
EXSTR	115	288	4
NMSI_	115	288	4	96	48	1
BRTAP	116	0	4
BRSTR	116	0	5
NMSI_	116	0	5	96	48	0
NMTAP	116	48	6
BRTAP	116	96	4
BRTAP	116	96	5
NMTAP	116	144	3
NMHLD	116	192	2	48
NMHLD	116	192	7	48
NMSTR	116	288	0
NMSCL	116	288	0	96	48	5
NMSTR	116	288	1
NMSCR	116	288	1	96	48	4
BRTAP	117	0	0
BRTAP	117	0	1
NMHLD	117	96	2	48
NMHLD	117	96	7	48
NMHLD	117	192	4	48
NMHLD	117	192	5	48
NMTAP	117	288	2
NMTAP	117	288	3
NMTAP	117	336	1
BRHLD	118	0	0	96
BRHLD	118	0	5	96
BRHLD	118	144	2	96
BRHLD	118	144	7	96
NMTTP	118	288	1	A	0	M1
NMTTP	118	288	1	D	0	M1
NMTTP	118	288	2	D	0	M1
NMTTP	118	288	6	A	0	M1
NMTTP	118	288	6	D	0	M1
NMTTP	118	288	7	D	0	M1
BRHLD	119	0	0	96
BRHLD	119	0	7	96
EXHLD	119	144	1	24
NMTTP	119	144	7	E	1	M1
NMTTP	119	144	7	D	0	M1
NMTTP	119	198	1	E	1	M1
NMTTP	119	198	1	D	0	M1
EXHLD	119	198	5	24
EXHLD	119	252	2	24
NMTTP	119	252	6	E	1	M1
NMTTP	119	252	6	D	0	M1
NMTTP	119	318	2	E	1	M1
NMTTP	119	318	2	D	0	M1
EXHLD	119	318	4	24
EXSTR	120	0	3
BRSCL	120	0	3	96	24	2
BRSCR	120	0	3	96	24	4
BRTAP	120	96	3
CNSV_	120	120	2	0	24	7
CNSV_	120	120	4	0	24	7
NMTTP	120	126	0	C	1	M1

T_REC_TAP	283
T_REC_BRK	81
T_REC_XTP	42
T_REC_BXX	81
T_REC_HLD	85
T_REC_XHO	7
T_REC_BHO	26
T_REC_BXH	6
T_REC_STR	90
T_REC_BST	26
T_REC_XST	9
T_REC_XBS	2
T_REC_TTP	121
T_REC_THO	6
T_REC_SLD	103
T_REC_BSL	26
T_REC_ALL	994
T_NUM_TAP	545
T_NUM_BRK	248
T_NUM_HLD	98
T_NUM_SLD	103
T_NUM_ALL	994
T_JUDGE_TAP	735
T_JUDGE_HLD	285
T_JUDGE_SLD	129
T_JUDGE_ALL	1149
TTM_EACHPAIRS	204
TTM_SCR_TAP	272500
TTM_SCR_BRK	644800
TTM_SCR_HLD	98000
TTM_SCR_SLD	154500
TTM_SCR_ALL	1169800
TTM_SCR_S	1110650
TTM_SCR_SS	1145000
TTM_RAT_ACV	10216

