VERSION	0.00.00	1.04.00
FES_MODE	0
BPM_DEF	185.000	185.000	185.000	185.000
MET_DEF	4	4
RESOLUTION	384
CLK_DEF	384
COMPATIBLE_CODE	MA2

BPM	0	0	185.000
MET	0	0	4	4

NMSTR	1	0	0
NMSCR	1	0	0	96	144	3
NMSTR	1	0	7
NMSCL	1	0	7	96	144	4
BXHLD	2	0	1	192
BXHLD	2	0	6	192
NMTAP	2	288	2
NMTAP	2	288	4
NMHLD	3	0	2	192
NMHLD	3	0	4	192
NMTAP	3	288	3
NMTAP	3	288	5
NMHLD	4	0	3	192
NMHLD	4	0	5	192
NMTAP	4	288	2
NMTAP	4	288	4
NMTAP	5	0	1
NMTAP	5	0	3
NMTAP	5	96	0
NMTAP	5	96	2
NMTAP	5	192	7
NMTAP	5	288	7
BXHLD	6	0	1	288
BXHLD	6	0	6	288
BXHLD	7	0	3	288
BXHLD	7	0	5	288
BXHLD	8	0	2	96
BXHLD	8	0	4	96
BXHLD	8	192	3	96
BXHLD	8	192	5	96
NMTAP	9	48	5
NMTAP	9	96	4
NMTAP	9	144	3
BRTAP	9	192	2
NMHLD	10	0	4	48
NMHLD	10	0	5	48
NMHLD	10	96	4	48
NMHLD	10	96	5	48
BRTAP	10	192	6
BRTAP	10	192	7
BRTAP	10	288	6
BRTAP	10	288	7
NMHLD	11	0	2	48
NMHLD	11	0	3	48
BRTAP	11	96	0
BRTAP	11	96	1
BRTAP	11	192	0
BRTAP	11	192	1
NMTAP	11	288	2
NMHLD	12	0	3	48
NMHLD	12	0	5	48
NMHLD	12	96	3	48
NMHLD	12	96	5	48
BRTAP	12	192	0
BRTAP	12	192	6
BRTAP	12	288	0
BRTAP	12	288	6
NMHLD	13	0	2	48
NMHLD	13	0	3	48
BRTAP	13	96	0
BRTAP	13	96	1
BRTAP	13	192	0
BRTAP	13	192	1
NMTAP	13	288	2
NMHLD	14	0	2	48
NMHLD	14	0	3	48
NMHLD	14	96	2	48
NMHLD	14	96	3	48
BRTAP	14	192	0
BRTAP	14	192	1
BRTAP	14	288	0
BRTAP	14	288	1
NMHLD	15	0	4	48
NMHLD	15	0	5	48
BRTAP	15	96	6
BRTAP	15	96	7
BRTAP	15	192	6
BRTAP	15	192	7
NMTAP	15	288	5
NMHLD	16	0	1	96
NMHLD	16	0	4	96
NMHLD	16	144	3	96
NMHLD	16	144	6	96
BRTAP	16	288	7
NMHLD	17	0	3	96
NMHLD	17	0	6	96
NMHLD	17	144	1	96
NMHLD	17	144	4	96
BRTAP	17	288	0
NMTAP	18	0	2
NMTAP	18	0	3
NMHLD	18	96	1	96
NMTAP	18	192	4
NMHLD	18	288	2	48
NMTAP	18	336	3
NMHLD	19	96	1	96
NMTAP	19	192	3
NMHLD	19	240	1	96
NMTAP	19	336	3
NMHLD	20	96	1	96
NMTAP	20	192	4
NMHLD	20	288	2	48
NMSTR	20	336	3
NMSXR	20	336	3	96	192	4
NMTAP	22	0	4
NMTAP	22	0	5
NMHLD	22	96	6	96
NMTAP	22	192	3
NMHLD	22	288	5	48
NMTAP	22	336	4
NMHLD	23	96	6	96
NMTAP	23	192	4
NMHLD	23	240	6	96
NMSTR	23	336	4
NMSI_	23	336	4	96	48	2
CNSI_	24	96	2	0	96	5
CNSI_	24	192	5	0	96	1
CNSI_	24	288	1	0	96	6
CNSI_	25	0	6	0	96	0
BXTAP	25	192	7
BXTAP	25	240	7
BXTAP	25	288	7
BXTAP	25	336	7
BXSTR	26	0	7
NMSCL	26	0	7	96	96	4
NMSTR	26	192	1
NMSCR	26	192	1	96	96	4
NMSTR	27	0	7
NMSXR	27	0	7	96	288	4
NMSTR	28	0	0
NMSCR	28	0	0	96	96	3
NMSTR	28	192	6
NMSCL	28	192	6	96	96	3
NMSTR	29	0	0
NMSI_	29	0	0	96	96	4
NMSTR	29	192	6
NMSI_	29	192	6	96	96	2
NMHLD	30	0	1	288
NMHLD	30	144	3	144
NMHLD	31	0	6	144
NMTAP	31	144	4
NMTAP	31	192	4
NMTAP	31	288	0
NMTAP	31	288	7
NMHLD	32	0	0	96
NMHLD	32	0	1	96
NMHLD	32	144	0	96
NMHLD	32	144	1	96
NMTAP	32	288	0
NMTAP	32	288	7
NMHLD	33	0	6	96
NMHLD	33	0	7	96
NMTAP	33	192	4
NMTAP	33	192	5
NMTAP	33	288	2
NMTAP	33	288	3
NMHLD	34	0	1	144
NMTAP	34	144	0
NMHLD	34	192	1	96
NMTAP	34	288	0
NMHLD	34	336	1	96
NMTAP	35	48	0
NMHLD	35	96	1	96
NMTAP	35	192	0
NMTAP	35	288	2
NMTAP	35	288	7
NMHLD	36	0	6	144
NMTAP	36	144	7
NMHLD	36	192	6	96
NMTAP	36	288	7
NMHLD	36	336	6	96
NMTAP	37	48	7
NMHLD	37	96	6	96
NMTAP	37	192	7
NMTAP	37	288	0
NMTAP	37	288	5
NMSTR	38	0	1
NMSSL	38	0	1	96	192	5
NMTAP	39	0	6
NMTAP	39	96	7
NMTAP	39	144	7
NMTAP	39	240	0
NMTAP	39	240	6
NMHLD	39	288	0	96
NMHLD	39	288	6	96
NMTAP	40	96	1
NMTAP	40	96	7
NMTAP	40	144	1
NMTAP	40	144	7
EXTAP	40	288	2
EXTAP	40	288	5
EXTAP	40	336	2
EXTAP	40	336	5
NMTAP	41	48	1
NMTAP	41	48	3
NMTAP	41	96	1
NMTAP	41	96	3
NMTAP	41	192	4
NMTAP	41	192	6
EXTAP	41	288	0
EXTAP	41	288	7
NMSTR	42	0	1
NMSI_	42	0	1	96	48	4
NMSTR	42	144	5
NMSI_	42	144	5	96	48	0
NMSTR	42	288	1
NMSI_	42	288	1	96	48	4
NMSTR	43	48	5
NMSI_	43	48	5	96	48	0
NMTAP	43	192	1
NMTAP	43	288	0
NMTAP	43	288	7
NMTAP	44	0	1
NMHLD	44	48	1	96
NMTAP	44	144	3
NMHLD	44	192	3	96
NMTAP	44	288	4
NMHLD	44	336	4	96
NMTAP	45	48	6
NMHLD	45	96	6	96
NMTAP	45	192	0
NMTAP	45	240	0
NMTAP	45	288	1
NMTAP	45	288	5
NMTAP	46	0	4
NMTAP	46	0	6
NMTAP	46	96	1
NMTAP	46	96	3
NMTAP	46	192	4
NMTAP	46	192	6
NMTAP	46	288	1
NMTAP	46	288	3
NMTAP	47	0	0
NMTAP	47	0	1
NMTAP	47	96	6
NMTAP	47	96	7
NMTAP	47	192	0
NMTAP	47	192	1
NMTAP	47	288	6
NMTAP	47	288	7
NMTAP	48	0	4
NMTAP	48	0	6
NMTAP	48	96	1
NMTAP	48	96	3
NMSTR	48	192	0
NMSUR	48	192	0	96	192	7
NMSTR	48	192	1
NMSCR	48	192	1	96	192	6
NMTAP	49	192	0
NMTAP	49	192	2
BRTAP	49	288	2
BRTAP	49	288	4
NMSTR	50	0	6
NMSI_	50	0	6	96	48	3
NMSTR	50	144	2
NMSI_	50	144	2	96	48	7
NMSTR	50	288	6
NMSI_	50	288	6	96	48	3
NMSTR	51	48	2
NMSI_	51	48	2	96	48	7
NMTAP	51	192	6
NMTAP	51	288	0
NMTAP	51	288	7
NMTAP	52	0	6
NMHLD	52	48	6	96
NMTAP	52	144	4
NMHLD	52	192	4	96
NMTAP	52	288	3
NMHLD	52	336	3	96
NMTAP	53	48	1
NMHLD	53	96	1	96
NMTAP	53	192	7
NMTAP	53	240	7
NMTAP	53	288	2
NMTAP	53	288	6
NMTAP	54	0	1
NMTAP	54	0	3
NMTAP	54	96	4
NMTAP	54	96	6
NMTAP	54	192	1
NMTAP	54	192	3
NMTAP	54	288	4
NMTAP	54	288	6
NMTAP	55	0	6
NMTAP	55	0	7
NMTAP	55	96	0
NMTAP	55	96	7
NMTAP	55	144	0
NMTAP	55	144	7
NMHLD	55	240	0	96
NMHLD	55	240	2	96
NMHLD	56	48	5	96
NMHLD	56	48	7	96
NMHLD	56	240	0	96
NMHLD	56	240	2	96
NMTAP	57	48	7
NMSTR	57	96	7
NMSV_	57	96	7	96	96	5
CNSI_	57	288	5	0	96	3
NMTHO	58	0	0	336	C	0	M1
NMTTP	59	0	0	A	0	M1
NMTTP	59	0	1	A	0	M1
NMTTP	59	0	1	D	0	M1
NMTHO	59	288	0	432	C	0	M1
NMTTP	61	0	6	A	0	M1
NMTTP	61	0	7	A	0	M1
NMTTP	61	0	7	D	0	M1
NMTHO	62	0	0	336	C	0	M1
NMTTP	63	0	1	A	0	M1
NMTTP	63	0	1	D	0	M1
NMTTP	63	0	2	A	0	M1
NMTTP	63	0	2	D	0	M1
NMTTP	63	0	3	D	0	M1
NMTHO	63	288	0	432	C	0	M1
NMTTP	65	0	5	A	0	M1
NMTTP	65	0	5	D	0	M1
NMTTP	65	0	6	A	0	M1
NMTTP	65	0	6	D	0	M1
NMTTP	65	144	0	A	0	M1
NMTTP	65	144	0	D	0	M1
NMTTP	65	144	1	D	0	M1
NMTTP	65	144	7	A	0	M1
NMTHO	66	0	0	336	C	0	M1
NMTTP	67	0	1	A	0	M1
NMTTP	67	0	2	A	0	M1
NMTTP	67	0	2	D	0	M1
NMTTP	67	0	3	A	0	M1
NMTTP	67	0	3	D	0	M1
NMTHO	67	288	0	432	C	0	M1
NMTTP	69	0	4	A	0	M1
NMTTP	69	0	5	A	0	M1
NMTTP	69	0	5	D	0	M1
NMTTP	69	0	6	A	0	M1
NMTTP	69	0	6	D	0	M1
NMTHO	70	0	0	384	C	0	M1
NMTTP	71	0	0	A	0	M1
NMTTP	71	0	0	D	0	M1
NMTTP	71	0	1	A	0	M1
NMTTP	71	0	1	D	0	M1
NMTTP	71	0	6	A	0	M1
NMTTP	71	0	7	A	0	M1
NMTTP	71	0	7	D	0	M1
NMTTP	72	0	0	C	1	M1
NMTTP	72	0	2	B	0	M1
NMTTP	72	0	3	B	0	M1
NMTTP	72	0	4	B	0	M1
NMTTP	72	0	5	B	0	M1
NMHLD	74	0	6	96
NMTAP	74	96	7
NMHLD	74	192	1	96
NMTAP	74	288	0
NMHLD	75	0	6	96
NMTAP	75	96	7
NMTAP	75	192	0
NMTAP	75	192	5
NMTAP	75	288	0
NMTAP	75	288	5
NMHLD	76	0	1	96
NMTAP	76	96	3
NMHLD	76	192	6	96
NMTAP	76	288	4
NMTAP	77	0	3
NMTAP	77	0	5
NMTAP	77	96	2
NMTAP	77	96	4
NMHLD	77	192	1	96
NMHLD	77	192	3	96
NMTAP	78	0	0
NMTAP	78	48	0
NMTAP	78	96	3
NMTAP	78	144	3
NMTAP	78	192	2
NMTAP	78	240	2
NMTAP	78	288	6
NMTAP	78	336	6
NMTAP	79	0	4
NMTAP	79	48	4
NMTAP	79	96	7
NMTAP	79	144	7
EXTAP	79	192	0
EXTAP	79	240	6
EXTAP	79	288	4
NMTAP	80	0	7
NMTAP	80	48	7
NMTAP	80	96	4
NMTAP	80	144	4
NMTAP	80	192	5
NMTAP	80	240	5
NMTAP	80	288	1
NMTAP	80	336	1
NMTAP	81	0	3
NMTAP	81	48	3
NMTAP	81	96	0
NMTAP	81	144	0
EXTAP	81	192	7
EXTAP	81	240	1
NMTTP	81	288	4	E	1	M1
NMTAP	82	0	7
NMTAP	82	48	1
NMTAP	82	96	3
NMTAP	82	192	7
NMTAP	82	240	1
NMTAP	82	288	3
NMTTP	83	0	7	B	1	M1
NMTTP	83	96	1	B	1	M1
NMTTP	83	192	4	E	1	M1
EXTAP	83	288	0
NMTAP	84	0	7
NMTAP	84	48	1
NMTAP	84	96	3
NMTAP	84	192	7
NMTAP	84	240	1
NMTAP	84	288	3
NMTTP	85	0	7	B	1	M1
NMTTP	85	96	1	B	1	M1
NMTTP	85	192	4	E	1	M1
EXTAP	85	288	0
NMHLD	86	0	1	48
NMHLD	86	0	7	48
NMHLD	86	96	0	48
NMHLD	86	96	6	48
NMTAP	86	192	1
NMTAP	86	240	1
NMTAP	86	288	4
NMTAP	86	336	2
NMHLD	87	0	0	48
NMHLD	87	0	6	48
NMHLD	87	96	1	48
NMHLD	87	96	7	48
NMTAP	87	192	6
NMTAP	87	240	6
NMTAP	87	288	3
NMTAP	87	336	5
NMTAP	88	0	1
NMTAP	88	48	1
NMTAP	88	96	3
NMTAP	88	144	2
NMTAP	88	192	6
NMTAP	88	240	6
NMTAP	88	288	4
NMTAP	88	336	5
NMTAP	89	0	2
NMTAP	89	48	2
NMTAP	89	96	3
NMTAP	89	144	1
NMTAP	89	192	5
NMTAP	89	240	5
NMTAP	89	288	3
BXTAP	90	0	2
BXTAP	90	0	4
BXTAP	90	48	2
BXTAP	90	48	4
BXTAP	90	96	2
BXTAP	90	96	4
BXTAP	90	144	2
BXTAP	90	144	4
BXTAP	90	192	3
BXTAP	90	192	5
BXTAP	90	240	3
BXTAP	90	240	5
BXTAP	90	288	3
BXTAP	90	288	5
BXTAP	90	336	3
BXTAP	90	336	5
NMHLD	91	0	6	96
NMHLD	91	96	4	96
NMHLD	91	192	2	96
BRTAP	91	288	0
BXTAP	92	0	1
BXTAP	92	0	7
BXTAP	92	48	1
BXTAP	92	48	7
BXTAP	92	96	1
BXTAP	92	96	7
BXTAP	92	144	1
BXTAP	92	144	7
BXTAP	92	192	0
BXTAP	92	192	6
BXTAP	92	240	0
BXTAP	92	240	6
BXTAP	92	288	0
BXTAP	92	288	6
BXTAP	92	336	0
BXTAP	92	336	6
NMHLD	93	0	2	96
NMHLD	93	96	0	96
NMHLD	93	192	6	96
BRTAP	93	288	4
BXTAP	94	0	3
BXTAP	94	0	5
BXTAP	94	48	3
BXTAP	94	48	5
BXTAP	94	96	3
BXTAP	94	96	5
BXTAP	94	144	3
BXTAP	94	144	5
BXTAP	94	192	2
BXTAP	94	192	4
BXTAP	94	240	2
BXTAP	94	240	4
BXTAP	94	288	2
BXTAP	94	288	4
BXTAP	94	336	2
BXTAP	94	336	4
NMHLD	95	0	1	96
NMHLD	95	96	3	96
NMHLD	95	192	5	96
BRTAP	95	288	7
BXTAP	96	0	0
BXTAP	96	0	6
BXTAP	96	48	0
BXTAP	96	48	6
BXTAP	96	96	0
BXTAP	96	96	6
BXTAP	96	144	0
BXTAP	96	144	6
BXTAP	96	192	1
BXTAP	96	192	7
BXTAP	96	240	1
BXTAP	96	240	7
BXTAP	96	288	1
BXTAP	96	288	7
BXTAP	96	336	1
BXTAP	96	336	7
NMHLD	97	0	5	96
NMHLD	97	96	7	96
NMHLD	97	192	1	96
BRSTR	97	288	3
BRSCL	97	288	3	96	384	4
NMTTP	98	0	0	C	1	M1
NMHLD	99	192	3	96
NMHLD	99	192	4	96
NMSTR	100	0	5
NMSI_	100	0	5	96	48	2
NMSTR	100	144	1
NMSI_	100	144	1	96	48	6
NMSTR	100	288	5
NMSI_	100	288	5	96	48	2
NMSTR	101	48	1
NMSI_	101	48	1	96	48	6
NMTAP	101	192	5
NMTAP	101	288	0
NMTAP	101	288	7
NMTAP	102	0	2
NMHLD	102	48	2	96
NMTAP	102	144	0
NMHLD	102	192	0	96
NMTAP	102	288	7
NMHLD	102	336	7	96
NMTAP	103	48	5
NMHLD	103	96	5	96
NMTAP	103	192	3
NMTAP	103	240	3
NMTAP	103	288	2
NMTAP	103	288	6
NMTAP	104	0	1
NMTAP	104	0	3
NMTAP	104	96	4
NMTAP	104	96	6
NMTAP	104	192	1
NMTAP	104	192	3
NMTAP	104	288	4
NMTAP	104	288	6
NMTAP	105	0	6
NMTAP	105	0	7
NMTAP	105	96	0
NMTAP	105	96	1
NMTAP	105	192	6
NMTAP	105	192	7
NMTAP	105	288	0
NMTAP	105	288	1
NMTAP	106	0	1
NMTAP	106	0	3
NMTAP	106	96	4
NMTAP	106	96	6
NMSTR	106	192	6
NMSCL	106	192	6	96	192	1
NMSTR	106	192	7
NMSUL	106	192	7	96	192	0
NMTAP	107	192	5
NMTAP	107	192	7
BRTAP	107	288	3
BRTAP	107	288	5
NMSTR	108	0	2
NMSI_	108	0	2	96	48	5
NMSTR	108	144	6
NMSI_	108	144	6	96	48	1
NMSTR	108	288	2
NMSI_	108	288	2	96	48	5
NMSTR	109	48	6
NMSI_	109	48	6	96	48	1
NMTAP	109	192	2
NMTAP	109	288	0
NMTAP	109	288	7
NMTAP	110	0	5
NMHLD	110	48	5	96
NMTAP	110	144	7
NMHLD	110	192	7	96
NMTAP	110	288	0
NMHLD	110	336	0	96
NMTAP	111	48	2
NMHLD	111	96	2	96
NMTAP	111	192	4
NMTAP	111	240	4
NMTAP	111	288	1
NMTAP	111	288	5
NMTAP	112	0	4
NMTAP	112	0	6
NMTAP	112	96	1
NMTAP	112	96	3
NMTAP	112	192	4
NMTAP	112	192	6
NMTAP	112	288	1
NMTAP	112	288	3
NMTAP	113	0	0
NMTAP	113	0	1
NMTAP	113	96	0
NMTAP	113	96	7
NMTAP	113	144	0
NMTAP	113	144	7
NMSTR	113	240	6
NMSI_	113	240	6	96	48	3
NMSTR	113	240	7
NMSI_	113	240	7	96	48	3
NMSTR	114	48	0
NMSI_	114	48	0	96	48	4
NMSTR	114	48	1
NMSI_	114	48	1	96	48	4
NMSTR	114	240	6
NMSI_	114	240	6	96	48	3
NMSTR	114	240	7
NMSI_	114	240	7	96	48	3
NMTAP	115	48	0
NMTAP	115	48	1
NMSTR	115	96	0
NMSLL	115	96	0	96	96	4
NMTAP	115	96	1
NMHLD	116	0	4	48
NMHLD	116	0	5	48
NMHLD	116	96	4	48
NMHLD	116	96	5	48
BRTAP	116	192	6
BRTAP	116	192	7
BRTAP	116	288	6
BRTAP	116	288	7
NMHLD	117	0	2	48
NMHLD	117	0	3	48
BRTAP	117	96	0
BRTAP	117	96	1
BRTAP	117	192	0
BRTAP	117	192	1
EXTAP	117	288	0
EXTAP	117	288	1
NMHLD	118	0	2	96
NMHLD	118	0	7	96
NMHLD	118	144	0	96
NMHLD	118	144	5	96
BRTAP	118	288	1
NMHLD	119	0	2	96
NMHLD	119	0	4	96
NMTAP	119	144	2
NMTAP	119	144	4
NMTAP	119	192	2
NMTAP	119	192	4
NMTAP	119	256	3
NMTAP	119	256	5
NMTAP	119	320	4
NMTAP	119	320	6
NMTAP	120	0	5
NMSTR	120	0	7
NMSF_	120	0	7	96	96	3

T_REC_TAP	268
T_REC_BRK	43
T_REC_XTP	15
T_REC_BXX	68
T_REC_HLD	122
T_REC_XHO	0
T_REC_BHO	0
T_REC_BXH	10
T_REC_STR	40
T_REC_BST	1
T_REC_XST	0
T_REC_XBS	1
T_REC_TTP	49
T_REC_THO	7
T_REC_SLD	41
T_REC_BSL	1
T_REC_ALL	666
T_NUM_TAP	372
T_NUM_BRK	124
T_NUM_HLD	129
T_NUM_SLD	41
T_NUM_ALL	666
T_JUDGE_TAP	485
T_JUDGE_HLD	321
T_JUDGE_SLD	42
T_JUDGE_ALL	848
TTM_EACHPAIRS	173
TTM_SCR_TAP	186000
TTM_SCR_BRK	322400
TTM_SCR_HLD	129000
TTM_SCR_SLD	61500
TTM_SCR_ALL	698900
TTM_SCR_S	665950
TTM_SCR_SS	686500
TTM_RAT_ACV	10180

