VERSION	0.00.00	1.04.00
FES_MODE	0
BPM_DEF	185.000	185.000	185.000	185.000
MET_DEF	4	4
RESOLUTION	384
CLK_DEF	384
COMPATIBLE_CODE	MA2

BPM	0	0	185.000
MET	0	0	4	4

EXHLD	2	0	5	192
NMHLD	2	192	4	192
NMHLD	3	0	3	192
NMTAP	3	192	2
NMHLD	4	0	2	192
NMHLD	4	192	3	192
NMHLD	5	0	4	192
NMTAP	5	192	5
EXHLD	6	0	6	192
NMHLD	6	192	7	192
EXHLD	7	0	0	192
NMTAP	7	192	1
EXHLD	8	0	1	192
EXHLD	8	192	0	192
NMHLD	9	0	7	192
NMTAP	9	192	6
BXTAP	10	0	6
BXTAP	10	96	6
NMTAP	10	192	6
NMTAP	10	192	7
BXTAP	11	0	5
NMTAP	11	96	5
NMTAP	11	192	4
NMTAP	11	192	5
NMTAP	12	0	3
NMTAP	12	96	3
NMTAP	12	192	2
NMTAP	12	192	3
NMTAP	13	0	0
NMTAP	13	0	1
NMTAP	13	96	0
NMTAP	13	96	1
NMTAP	13	192	2
NMTAP	13	192	7
BXTAP	14	0	1
BXTAP	14	96	1
NMTAP	14	192	0
NMTAP	14	192	1
BXTAP	15	0	2
NMTAP	15	96	2
NMTAP	15	192	2
NMTAP	15	192	3
NMTAP	16	0	4
NMTAP	16	96	4
NMTAP	16	192	4
NMTAP	16	192	5
NMTAP	17	0	6
NMTAP	17	0	7
NMTAP	17	96	6
NMTAP	17	96	7
NMTAP	17	192	0
NMTAP	17	192	5
NMTAP	18	0	6
NMTAP	18	0	7
NMTAP	18	96	6
NMTAP	18	96	7
NMTAP	18	192	6
NMTAP	18	192	7
NMTAP	19	0	5
NMTAP	19	96	5
NMTAP	19	192	5
NMTAP	20	0	3
NMTAP	20	0	4
NMTAP	20	96	3
NMTAP	20	96	4
NMTAP	20	192	3
NMTAP	20	192	4
NMTAP	21	0	2
NMTAP	21	96	2
NMTAP	21	192	2
NMTAP	22	0	0
NMTAP	22	0	1
NMTAP	22	96	0
NMTAP	22	96	1
NMTAP	22	192	0
NMTAP	22	192	1
NMTAP	23	0	2
NMTAP	23	96	2
NMTAP	23	192	2
NMTAP	24	0	3
NMTAP	24	0	4
NMTAP	24	96	3
NMTAP	24	96	4
NMTAP	24	192	3
NMTAP	24	192	4
NMTAP	25	0	2
NMTAP	25	0	5
NMTAP	25	192	2
NMTAP	25	192	5
NMSTR	26	0	3
NMSI_	26	0	3	96	192	0
NMSTR	27	0	7
NMSI_	27	0	7	96	192	4
NMSTR	28	0	2
NMSI_	28	0	2	96	192	5
NMSTR	29	0	6
NMSI_	29	0	6	96	192	3
NMSTR	30	0	1
NMSUR	30	0	1	96	480	4
NMSTR	32	0	5
NMSUL	32	0	5	96	480	2
NMTAP	34	0	1
NMTAP	34	96	1
NMTAP	34	192	1
NMTAP	35	0	2
NMTAP	35	96	2
EXTAP	35	192	2
NMTAP	36	0	3
NMTAP	36	96	3
NMTAP	36	192	3
NMTAP	37	0	4
NMTAP	37	0	5
NMTAP	37	96	4
NMTAP	37	96	5
EXTAP	37	192	4
EXTAP	37	192	5
NMTAP	38	0	6
NMTAP	38	96	6
NMTAP	38	192	6
NMTAP	39	0	5
NMTAP	39	96	5
NMTAP	39	192	5
NMTAP	40	0	4
NMTAP	40	96	4
NMTAP	40	192	4
NMTAP	41	0	3
NMTAP	41	0	4
NMTAP	41	96	3
NMTAP	41	96	4
NMTAP	41	192	3
NMTAP	41	192	4
BXTAP	42	0	2
EXTAP	42	48	2
EXTAP	42	96	2
NMTAP	42	192	1
NMTAP	42	288	1
NMTAP	43	0	0
NMTAP	43	96	0
NMTAP	43	192	6
NMTAP	43	192	7
NMTAP	44	0	5
NMTAP	44	48	5
NMTAP	44	96	5
NMTAP	44	192	6
NMTAP	44	288	6
NMTAP	45	0	7
NMTAP	45	96	7
NMTAP	45	192	0
NMTAP	45	192	1
NMTAP	46	0	1
NMTAP	46	48	1
NMTAP	46	96	1
NMTAP	46	192	2
NMTAP	46	288	2
NMTAP	47	0	3
NMTAP	47	96	3
NMTAP	47	192	4
NMTAP	47	192	5
NMTAP	48	0	6
NMTAP	48	48	6
NMTAP	48	96	6
NMTAP	48	192	5
NMTAP	48	288	5
NMTAP	49	0	4
NMTAP	49	96	4
NMTAP	49	192	2
NMTAP	49	192	3
BXTAP	50	0	2
NMTAP	50	48	2
NMTAP	50	96	2
NMTAP	50	192	1
NMTAP	50	288	1
NMTAP	51	0	0
NMTAP	51	48	0
NMTAP	51	96	0
NMTAP	51	192	6
NMTAP	51	192	7
NMTAP	52	0	5
NMTAP	52	48	5
NMTAP	52	96	5
NMTAP	52	192	6
NMTAP	52	288	6
NMTAP	53	0	7
NMTAP	53	48	7
NMTAP	53	96	7
NMTAP	53	192	0
NMTAP	53	192	1
NMTAP	54	0	1
NMTAP	54	48	1
NMTAP	54	96	1
NMTAP	54	192	2
NMTAP	54	288	2
NMTAP	55	0	3
NMTAP	55	48	3
NMTAP	55	96	3
NMTAP	55	192	4
NMTAP	55	192	5
NMTAP	56	0	6
NMTAP	56	48	6
NMTAP	56	96	6
NMTAP	56	192	5
NMTAP	56	288	5
NMTAP	57	0	4
NMTAP	57	48	4
NMTAP	57	96	4
NMTAP	57	192	2
NMTAP	57	192	3
EXSTR	58	0	0
NMSXR	58	0	0	96	672	5
EXSTR	58	0	1
NMSXL	58	0	1	96	672	4
EXTAP	61	0	4
EXTAP	61	0	5
EXSTR	62	0	6
NMSXR	62	0	6	96	672	3
EXSTR	62	0	7
NMSXL	62	0	7	96	672	2
EXTAP	65	0	2
EXTAP	65	0	3
EXSTR	66	0	2
NMSXR	66	0	2	96	672	7
EXSTR	66	0	3
NMSXL	66	0	3	96	672	6
EXTAP	69	0	6
EXTAP	69	0	7
NMSTR	70	0	5
NMSLL	70	0	5	96	480	7
EXHLD	72	0	0	384
EXHLD	72	0	7	384
NMTAP	74	0	6
NMTAP	74	96	6
NMTAP	74	192	6
NMTAP	74	192	7
NMTAP	75	0	5
NMTAP	75	96	5
NMTAP	75	192	4
NMTAP	75	192	5
NMTAP	76	0	3
NMTAP	76	96	3
NMTAP	76	192	2
NMTAP	76	192	3
NMTAP	77	0	0
NMTAP	77	0	1
NMTAP	77	96	0
NMTAP	77	96	1
NMTAP	77	192	0
NMTAP	77	192	1
NMTAP	78	0	1
NMTAP	78	96	1
NMTAP	78	192	0
NMTAP	78	192	1
NMTAP	79	0	2
NMTAP	79	96	2
NMTAP	79	192	2
NMTAP	79	192	3
NMTAP	80	0	4
NMTAP	80	96	4
NMTAP	80	192	4
NMTAP	80	192	5
NMTAP	81	0	6
NMTAP	81	0	7
NMTAP	81	96	6
NMTAP	81	96	7
NMTAP	81	192	6
NMTAP	81	192	7
NMTAP	82	0	0
NMTAP	82	0	1
NMTAP	82	96	0
NMTAP	82	96	1
NMTAP	82	192	0
NMTAP	82	192	1
EXTAP	83	0	0
EXTAP	83	0	7
EXTAP	83	96	0
EXTAP	83	96	7
BRTAP	83	192	0
BRTAP	83	192	7
NMTAP	84	0	1
NMTAP	84	0	6
NMTAP	84	96	1
NMTAP	84	96	6
NMTAP	84	192	2
NMTAP	84	192	5
NMTAP	84	288	2
NMTAP	84	288	5
NMTAP	85	0	3
NMTAP	85	0	4
NMTAP	85	96	3
NMTAP	85	96	4
BRTAP	85	192	3
BRTAP	85	192	4
NMTTP	86	0	3	B	0	L1
NMTTP	86	96	2	B	0	L1
NMTTP	86	192	1	B	0	L1
NMTTP	87	0	4	B	0	L1
NMTTP	87	96	5	B	0	L1
NMTTP	87	192	6	B	0	L1
NMTTP	88	0	3	B	0	L1
NMTTP	88	96	2	B	0	L1
NMTTP	88	192	1	B	0	L1
NMTTP	88	288	0	B	0	L1
NMTTP	89	0	7	B	0	L1
NMTTP	89	96	6	B	0	L1
NMTTP	89	192	4	B	0	L1
NMTTP	89	192	5	B	0	L1
NMTAP	90	0	2
NMTAP	90	96	2
NMTAP	90	192	2
NMTAP	90	288	2
NMTAP	91	0	1
NMTAP	91	96	1
NMTAP	91	192	1
NMTAP	91	288	1
NMTAP	92	0	0
NMTAP	92	96	0
NMTAP	92	192	0
NMTAP	92	288	0
NMTAP	93	0	6
NMTAP	93	0	7
NMTAP	93	192	6
NMTAP	93	192	7
NMTAP	94	0	5
NMTAP	94	96	5
NMTAP	94	192	5
NMTAP	94	288	5
NMTAP	95	0	6
NMTAP	95	96	6
NMTAP	95	192	6
NMTAP	95	288	6
NMTAP	96	0	7
NMTAP	96	96	7
NMTAP	96	192	7
NMTAP	96	288	7
NMTAP	97	0	0
NMTAP	97	0	1
NMTAP	97	192	0
NMTAP	97	192	1
NMHLD	98	0	2	192
NMTAP	98	192	3
NMHLD	99	0	4	192
NMTAP	99	192	3
BXTAP	100	0	5
NMTAP	100	48	5
NMTAP	100	96	5
NMTAP	100	192	6
NMTAP	100	192	7
NMTAP	100	288	6
NMTAP	100	288	7
NMTAP	101	0	0
NMTAP	101	96	0
NMTAP	101	192	0
NMTAP	101	192	1
NMTAP	102	0	2
NMTAP	102	48	2
NMTAP	102	96	2
NMTAP	102	192	0
NMTAP	102	192	1
NMTAP	102	288	0
NMTAP	102	288	1
NMTAP	103	0	7
NMTAP	103	96	7
NMTAP	103	192	6
NMTAP	103	192	7
NMTAP	104	0	6
NMTAP	104	48	6
NMTAP	104	96	6
NMTAP	104	192	4
NMTAP	104	192	5
NMTAP	104	288	4
NMTAP	104	288	5
NMTAP	105	0	3
NMTAP	105	96	3
NMTAP	105	192	2
NMTAP	105	192	3
NMTAP	106	0	1
NMTAP	106	48	1
NMTAP	106	96	1
NMTAP	106	192	2
NMTAP	106	192	3
NMTAP	106	288	2
NMTAP	106	288	3
NMTAP	107	0	4
NMTAP	107	96	4
NMTAP	107	192	4
NMTAP	107	192	5
BXTAP	108	0	5
NMTAP	108	48	5
NMTAP	108	96	5
NMTAP	108	192	6
NMTAP	108	192	7
NMTAP	108	288	6
NMTAP	108	288	7
NMTAP	109	0	0
NMTAP	109	48	0
NMTAP	109	96	0
NMTAP	109	192	0
NMTAP	109	192	1
NMTAP	109	288	0
NMTAP	109	288	1
NMTAP	110	0	2
NMTAP	110	48	2
NMTAP	110	96	2
NMTAP	110	192	0
NMTAP	110	192	1
NMTAP	110	288	0
NMTAP	110	288	1
NMTAP	111	0	7
NMTAP	111	48	7
NMTAP	111	96	7
NMTAP	111	192	6
NMTAP	111	192	7
NMTAP	112	0	6
NMTAP	112	48	6
NMTAP	112	96	6
NMTAP	112	192	4
NMTAP	112	192	5
NMTAP	112	288	4
NMTAP	112	288	5
NMTAP	113	0	3
NMTAP	113	48	3
NMTAP	113	96	3
NMTAP	113	192	2
NMTAP	113	192	3
NMTAP	113	288	2
NMTAP	113	288	3
NMTAP	114	0	1
NMTAP	114	48	1
NMTAP	114	96	1
NMTAP	114	192	2
NMTAP	114	192	3
NMTAP	114	288	2
NMTAP	114	288	3
NMTAP	115	0	4
NMTAP	115	48	4
NMTAP	115	96	4
NMTAP	115	192	4
NMTAP	115	192	5
NMTAP	116	0	6
NMTAP	116	48	6
NMTAP	116	96	6
NMTAP	116	192	5
NMTAP	116	240	5
NMTAP	116	288	5
NMTAP	117	0	4
NMTAP	117	48	4
NMTAP	117	96	4
NMTAP	117	192	3
NMTAP	117	240	3
NMTAP	117	288	3
NMTAP	118	0	2
NMTAP	118	48	2
NMTAP	118	96	2
NMTAP	118	192	1
NMTAP	118	240	1
NMTAP	118	288	1
NMTAP	119	0	0
NMTAP	119	0	7
NMTAP	119	48	0
NMTAP	119	48	7
NMTAP	119	96	0
NMTAP	119	96	7
NMHLD	119	192	1	288
NMHLD	119	192	6	288

T_REC_TAP	376
T_REC_BRK	4
T_REC_XTP	15
T_REC_BXX	10
T_REC_HLD	11
T_REC_XHO	7
T_REC_BHO	0
T_REC_BXH	0
T_REC_STR	7
T_REC_BST	0
T_REC_XST	6
T_REC_XBS	0
T_REC_TTP	14
T_REC_THO	0
T_REC_SLD	13
T_REC_BSL	0
T_REC_ALL	463
T_NUM_TAP	418
T_NUM_BRK	14
T_NUM_HLD	18
T_NUM_SLD	13
T_NUM_ALL	463
T_JUDGE_TAP	432
T_JUDGE_HLD	84
T_JUDGE_SLD	13
T_JUDGE_ALL	529
TTM_EACHPAIRS	106
TTM_SCR_TAP	209000
TTM_SCR_BRK	36400
TTM_SCR_HLD	18000
TTM_SCR_SLD	19500
TTM_SCR_ALL	282900
TTM_SCR_S	273100
TTM_SCR_SS	281500
TTM_RAT_ACV	10049

