VERSION	0.00.00	1.04.00
FES_MODE	0
BPM_DEF	185.000	185.000	185.000	185.000
MET_DEF	4	4
RESOLUTION	384
CLK_DEF	384
COMPATIBLE_CODE	MA2

BPM	0	0	185.000
MET	0	0	4	4

BRSTR	2	0	0
NMSLL	2	0	0	96	480	4
NMSLR	2	0	0	96	480	4
NMTTP	4	0	0	C	0	M1
NMTTP	4	0	3	B	0	M1
NMTTP	4	0	4	B	0	M1
NMTTP	4	0	5	B	0	M1
EXTAP	4	288	0
EXTAP	4	288	1
EXTAP	4	336	0
EXTAP	4	336	1
EXTAP	5	96	6
EXTAP	5	96	7
EXTAP	5	144	6
EXTAP	5	144	7
NMTAP	5	240	0
NMTAP	5	240	7
NMTAP	5	336	1
NMTAP	5	336	6
NMTAP	6	0	1
NMHLD	6	0	6	96
NMTAP	6	96	4
NMTAP	6	144	4
NMTAP	6	240	3
NMTAP	6	240	5
NMTAP	6	288	3
NMTAP	6	288	5
NMTAP	7	0	2
NMTAP	7	48	2
NMTAP	7	96	3
NMTAP	7	144	1
NMTAP	7	240	0
NMTAP	7	240	4
BRSTR	7	288	0
NMSV_	7	288	0	96	144	5
BRTAP	7	288	4
CNSCR	8	144	5	0	192	0
NMTAP	9	48	1
NMTAP	9	96	1
NMTAP	9	144	0
EXTAP	9	192	1
EXTAP	9	192	7
NMTAP	9	288	3
NMTAP	9	288	4
NMSTR	10	0	6
NMSI_	10	0	6	96	48	3
NMTAP	10	96	7
NMTAP	10	144	7
NMTAP	10	240	0
NMTAP	10	336	1
NMSTR	11	0	1
NMSI_	11	0	1	96	48	4
NMTAP	11	96	0
NMTAP	11	144	0
NMTAP	11	240	7
NMTAP	11	336	3
NMTAP	11	336	6
NMTAP	12	0	3
NMHLD	12	0	6	96
NMTAP	12	96	4
NMTAP	12	192	3
NMTAP	12	192	5
NMTAP	12	240	3
NMTAP	12	240	5
NMHLD	12	336	1	96
NMHLD	12	336	4	96
EXTAP	13	144	6
EXTAP	13	144	7
NMTAP	13	240	0
NMTAP	13	288	1
NMHLD	13	336	2	192
NMTAP	14	48	5
NMTAP	14	96	4
NMHLD	14	144	3	192
NMTAP	14	240	2
NMTAP	14	288	1
NMHLD	14	336	0	192
NMTAP	15	48	3
NMTAP	15	96	4
NMSTR	15	144	5
NMSI_	15	144	5	96	48	0
EXTAP	15	240	1
NMTAP	15	336	3
NMHLD	16	0	3	192
NMTTP	16	96	1	A	0	M1
NMTTP	16	96	2	A	0	M1
NMTTP	16	96	2	D	0	M1
NMTTP	16	192	4	A	0	M1
NMTTP	16	192	5	A	0	M1
NMTTP	16	192	5	D	0	M1
BXTAP	16	288	1
BXTAP	16	288	4
BXHLD	16	336	1	96
BXHLD	16	336	4	96
EXTAP	17	144	3
EXTAP	17	144	6
NMTAP	17	240	2
NMTAP	17	240	5
NMTAP	17	288	2
NMTAP	17	288	5
NMSTR	18	0	3
NMSCR	18	0	3	96	48	4
NMTAP	18	0	4
EXTAP	18	96	6
CNSV_	18	144	4	0	96	2
EXTAP	18	192	6
NMTAP	18	336	1
NMTAP	18	336	4
NMSTR	19	48	2
NMSCR	19	48	2	96	96	5
NMTAP	19	48	5
NMTAP	19	144	6
NMTAP	19	240	7
NMHLD	19	336	6	96
NMTAP	20	48	4
NMTAP	20	96	4
NMTAP	20	192	3
NMTAP	20	192	5
NMTAP	20	288	4
NMTAP	20	288	6
NMTAP	20	336	4
NMHLD	20	336	6	96
NMTTP	21	48	4	B	0	M1
NMTTP	21	48	5	B	0	M1
NMTTP	21	48	5	E	0	M1
NMTTP	21	144	2	B	0	M1
NMTTP	21	144	3	B	0	M1
NMTTP	21	144	3	E	0	M1
EXTAP	21	240	0
EXTAP	21	288	0
NMHLD	22	0	2	96
NMTAP	22	96	3
NMHLD	22	144	1	96
NMTAP	22	240	3
NMHLD	22	288	0	288
NMTTP	23	0	3	A	0	M1
NMTTP	23	96	2	A	0	M1
NMTTP	23	192	1	A	0	M1
EXTAP	23	288	0
EXTAP	23	288	3
NMHLD	24	0	2	96
NMHLD	24	0	4	96
NMTAP	24	144	2
NMTAP	24	144	4
NMHLD	24	192	3	96
NMHLD	24	192	5	96
NMTAP	24	336	3
NMTAP	24	336	5
NMTAP	25	0	4
NMTAP	25	48	2
NMTAP	25	96	3
NMTAP	25	144	4
NMTAP	25	192	5
EXTAP	25	240	4
EXTAP	25	240	6
NMTAP	25	336	6
NMTAP	25	336	7
NMTAP	26	0	6
NMTAP	26	0	7
NMTAP	26	96	0
NMTAP	26	96	4
NMTAP	26	144	1
NMTAP	26	192	2
NMTAP	26	192	3
NMTAP	26	288	4
NMTAP	26	288	5
NMTAP	27	0	4
NMTAP	27	0	6
NMTAP	27	96	4
NMTAP	27	96	7
NMTAP	27	144	6
NMTAP	27	192	4
NMTAP	27	192	5
NMSTR	27	288	2
NMSCL	27	288	2	96	96	7
NMTAP	27	288	3
NMTAP	28	0	4
NMTAP	28	96	5
CNSI_	28	96	7	0	96	3
NMTAP	28	144	5
NMTAP	28	192	5
NMHLD	28	288	6	96
NMHLD	29	0	4	96
NMTAP	29	96	7
NMTAP	29	192	0
EXTAP	29	240	0
EXTAP	29	264	7
EXTAP	29	288	1
BRHLD	30	0	2	96
BRHLD	30	0	3	96
NMHLD	30	144	3	96
NMHLD	30	144	4	96
NMTAP	30	288	4
NMTAP	30	288	5
NMHLD	31	0	4	96
NMHLD	31	0	5	96
NMHLD	31	144	3	96
NMHLD	31	144	4	96
NMTAP	31	288	2
NMTAP	31	288	3
EXTAP	32	0	1
EXTAP	32	0	4
NMHLD	32	144	0	96
NMHLD	32	240	2	96
NMTAP	32	336	4
NMSTR	33	0	4
NMSI_	33	0	4	96	96	6
NMSLL	33	0	4	96	192	0
EXTAP	33	288	7
NMTAP	34	0	0
NMHLD	34	0	6	1632
NMTTP	34	144	0	C	0	M1
NMTTP	34	192	4	E	0	M1
NMTTP	34	336	5	B	0	M1
NMTTP	35	0	4	B	0	M1
NMTAP	35	96	2
BXTAP	35	192	0
BXTAP	35	288	0
NMTTP	36	0	0	C	0	M1
NMTTP	36	144	2	E	0	M1
NMTTP	36	192	3	E	0	M1
NMTTP	36	336	5	E	0	M1
NMTTP	37	0	4	E	0	M1
NMTAP	37	96	2
BXTAP	37	192	0
BXTAP	37	288	0
NMHLD	38	0	7	96
NMHLD	38	144	0	96
NMHLD	38	144	5	96
NMTAP	38	288	1
NMTAP	38	288	4
NMHLD	39	0	2	96
NMHLD	39	0	3	96
NMHLD	39	144	3	96
NMHLD	39	144	4	96
NMTAP	39	288	4
NMSTR	39	288	5
NMSCR	39	288	5	96	96	0
NMTAP	40	96	1
NMSTR	40	144	1
NMSCR	40	144	1	96	96	4
NMTAP	40	288	7
NMTAP	40	336	7
NMTAP	41	48	0
NMTAP	41	48	6
NMTAP	41	96	0
NMTAP	41	96	6
NMTAP	41	144	0
NMTAP	41	144	6
NMTAP	41	192	1
NMTAP	41	192	5
NMTAP	41	288	0
NMTAP	41	288	7
BRSTR	42	0	1
NMSV_	42	0	1	96	48	4
BRTAP	42	0	4
NMTAP	42	96	0
NMTAP	42	96	1
NMTAP	42	192	3
NMSTR	42	192	6
NMSV_	42	192	6	96	48	3
NMTAP	42	288	6
NMTAP	42	288	7
NMSTR	43	0	1
NMSV_	43	0	1	96	48	4
NMTAP	43	0	5
NMTAP	43	96	0
NMTAP	43	96	1
NMTAP	43	192	6
NMTAP	43	240	7
NMTAP	43	288	0
NMSTR	43	288	5
NMSCL	43	288	5	96	48	2
NMSTR	44	0	1
NMSCL	44	0	1	96	48	6
NMSTR	44	96	5
NMSI_	44	96	5	96	48	2
NMTAP	44	192	1
EXTAP	44	288	0
EXTAP	44	288	1
EXTAP	44	336	2
EXTAP	44	336	7
NMTAP	45	48	0
NMTAP	45	48	1
NMTAP	45	96	2
NMTAP	45	96	7
NMTAP	45	192	0
NMTAP	45	192	6
NMSTR	45	240	0
NMSCR	45	240	0	96	48	2
NMSTR	45	240	6
NMSCL	45	240	6	96	48	4
BRTAP	45	336	0
BRTAP	45	336	6
NMSTR	46	48	6
NMSI_	46	48	6	96	48	3
NMSTR	46	48	7
NMSI_	46	48	7	96	48	2
BRTAP	46	144	6
BRTAP	46	144	7
NMSTR	46	240	0
NMSI_	46	240	0	96	48	3
NMSTR	46	240	7
NMSI_	46	240	7	96	48	4
BRTAP	46	336	0
BRTAP	46	336	7
NMSTR	47	48	0
NMSI_	47	48	0	96	48	5
NMSTR	47	48	1
NMSI_	47	48	1	96	48	4
BRTAP	47	144	0
BRTAP	47	144	1
NMTAP	47	240	3
NMTAP	47	240	6
NMTAP	47	288	3
NMTAP	47	288	6
EXTAP	48	0	4
EXTAP	48	0	5
EXTAP	48	96	6
EXTAP	48	96	7
EXTAP	48	192	1
EXSTR	48	240	0
NMSSR	48	240	0	96	144	4
EXSTR	48	240	1
NMSSR	48	240	1	96	144	5
NMSTR	49	192	4
BRSI_	49	192	4	96	48	2
NMSTR	49	192	5
BRSI_	49	192	5	96	48	7
NMTTP	49	288	4	A	0	M1
NMTTP	49	288	5	A	0	M1
NMTTP	49	288	5	D	0	M1
EXTAP	50	0	7
NMTAP	50	48	6
NMSTR	50	96	1
NMSI_	50	96	1	96	48	3
NMSTR	50	96	5
NMSI_	50	96	5	96	48	3
NMTAP	50	192	1
NMTAP	50	192	5
NMTAP	50	288	0
NMTAP	50	288	6
NMTAP	51	0	0
NMTAP	51	48	1
NMSTR	51	96	2
NMSI_	51	96	2	96	48	4
NMSTR	51	96	6
NMSI_	51	96	6	96	48	4
NMTAP	51	192	2
NMTAP	51	192	6
NMSTR	51	288	1
NMSV_	51	288	1	96	48	4
NMSTR	51	288	7
NMSV_	51	288	7	96	48	4
BRTAP	52	0	1
BRTAP	52	0	7
NMTAP	52	96	6
NMTAP	52	96	7
NMTAP	52	144	0
NMTAP	52	144	5
NMTAP	52	240	0
NMTAP	52	240	1
NMTAP	52	288	2
NMTAP	52	288	7
NMTAP	52	336	3
NMHLD	52	336	6	96
EXTAP	53	48	7
EXTAP	53	96	0
EXTAP	53	96	5
NMTAP	53	192	2
NMTAP	53	192	7
NMSTR	53	240	2
NMSI_	53	240	2	96	48	4
NMTAP	53	240	7
NMSTR	53	336	6
NMSI_	53	336	6	96	48	0
NMSTR	54	48	2
NMSCR	54	48	2	96	48	4
NMSTR	54	144	6
NMSCR	54	144	6	96	48	0
NMTAP	54	240	0
NMHLD	54	336	2	96
NMTAP	55	48	0
NMTAP	55	96	7
NMHLD	55	144	6	96
NMTAP	55	240	4
NMTAP	55	288	3
BXHLD	55	336	2	96
BXTAP	55	336	4
NMTAP	56	48	5
NMTAP	56	96	4
BXTAP	56	144	3
BXTAP	56	144	5
NMTAP	56	240	4
NMTAP	56	240	6
NMTAP	56	288	3
NMTAP	56	288	5
BXHLD	56	336	2	144
BXHLD	56	336	4	96
NMTTP	57	144	5	B	0	M1
NMTTP	57	192	3	B	0	M1
EXTAP	57	288	0
EXTAP	57	288	7
NMSTR	58	0	0
NMSCR	58	0	0	96	288	6
NMHLD	58	0	6	192
CNSCL	59	0	6	0	384	0
NMHLD	59	0	7	192
NMTAP	60	0	7
NMTAP	60	96	0
NMTAP	60	192	1
NMHLD	60	288	2	192
NMTAP	60	288	4
NMTAP	61	0	3
NMSTR	61	96	3
NMSCL	61	96	3	96	48	2
NMSCR	61	96	3	96	48	4
CNSI_	61	240	2	0	48	0
CNSI_	61	240	4	0	48	6
CNSCL	61	288	0	0	48	7
CNSCR	61	288	6	0	48	7
NMTTP	62	24	0	C	1	M1
NMTTP	62	24	1	B	0	M1
NMTTP	62	24	3	B	0	M1
NMTTP	62	24	5	B	0	M1
EXTAP	62	240	7
EXTAP	62	312	0
EXTAP	62	312	6
EXTAP	62	336	0
EXSTR	62	336	6
NMSUL	62	336	6	96	336	2
NMTHO	63	240	0	504	C	1	M1
CNSUL	64	0	2	0	360	6
NMTAP	65	240	0
NMTAP	65	240	7
NMSTR	65	288	1
NMSI_	65	288	1	96	48	4
NMTAP	65	288	6
BRTAP	66	0	4
NMHLD	66	96	5	576
NMTAP	66	240	4
NMTAP	66	288	4
NMTAP	67	48	3
NMTAP	67	96	3
NMTAP	67	240	4
NMHLD	67	288	4	672
NMTAP	68	48	5
NMTAP	68	96	5
NMTAP	68	240	3
NMTAP	68	288	3
EXTAP	69	0	2
EXTAP	69	48	2
EXTAP	69	96	2
EXTAP	69	144	2
EXSTR	69	192	2
NMSCR	69	192	2	96	48	5
NMTAP	70	0	2
NMTAP	70	48	4
NMTAP	70	96	3
NMTAP	70	144	5
NMHLD	70	192	4	48
NMHLD	70	192	6	48
NMTAP	70	288	4
NMTAP	70	288	6
NMTAP	71	0	5
NMTAP	71	48	3
NMTAP	71	96	4
NMTAP	71	144	2
NMTAP	71	192	1
NMTAP	71	192	3
NMTAP	71	288	0
NMSTR	71	336	0
NMSCR	71	336	0	96	48	3
NMTAP	72	48	6
NMSTR	72	96	6
NMSI_	72	96	6	96	48	3
NMSTR	72	192	1
NMSI_	72	192	1	96	48	3
NMSTR	72	288	7
NMSSR	72	288	7	96	192	3
EXTAP	73	0	0
EXTAP	73	96	0
EXHLD	73	192	0	96
BRTAP	73	288	3
NMSTR	74	0	1
BRSCR	74	0	1	96	192	5
NMTAP	74	0	4
NMTTP	74	144	4	E	0	M1
NMTTP	74	192	3	E	0	M1
NMTAP	74	336	7
NMHLD	75	0	7	96
NMHLD	75	96	6	96
NMHLD	75	192	5	96
NMTAP	75	288	4
NMTAP	76	0	3
NMSTR	76	0	6
NMSCL	76	0	6	96	240	2
NMTTP	76	144	4	E	0	M1
NMTTP	76	192	5	E	0	M1
NMTAP	76	336	0
NMHLD	77	0	0	96
NMHLD	77	96	1	96
NMHLD	77	192	2	96
NMTAP	77	288	3
NMHLD	78	0	2	96
NMHLD	78	0	3	96
NMHLD	78	144	3	96
NMHLD	78	144	4	96
EXSTR	78	288	4
NMSI_	78	288	4	96	48	2
EXTAP	78	288	5
CNSI_	79	48	2	0	96	5
CNSI_	79	144	5	0	48	1
CNSI_	79	192	1	0	120	7
NMTAP	79	240	6
NMSTR	79	288	6
NMSLL	79	288	6	96	96	0
NMTAP	80	96	1
NMSTR	80	144	1
NMSLR	80	144	1	96	96	7
NMTAP	80	288	6
NMHLD	80	336	6	96
NMTAP	81	48	7
NMTAP	81	96	7
NMTAP	81	144	0
NMTAP	81	144	6
NMSTR	81	192	0
NMSI_	81	192	0	96	48	3
NMSTR	81	192	6
NMSI_	81	192	6	96	48	3
EXTAP	81	288	0
EXTAP	81	288	6
NMTTP	82	0	3	B	1	M1
NMTTP	82	192	6	B	0	M1
NMTTP	82	288	0	C	0	M1
NMTTP	83	0	2	B	0	M1
NMTTP	83	192	1	B	0	M1
NMTTP	83	288	0	C	0	M1
NMTTP	84	0	5	B	0	M1
NMTTP	84	192	0	B	0	M1
NMTTP	84	192	0	A	0	M1
NMTTP	84	288	2	B	0	M1
NMTTP	84	288	2	A	0	M1
NMTTP	85	0	0	C	0	M1
NMTTP	85	0	4	B	0	M1
NMTTP	85	0	4	A	0	M1
EXHLD	85	144	0	96
EXHLD	85	144	7	96
BRTAP	85	336	1
NMHLD	85	336	6	96
NMTAP	86	48	4
NMTAP	86	96	4
BRTAP	86	144	5
NMTAP	86	192	2
NMTAP	86	240	2
NMTAP	86	288	3
BRHLD	86	336	1	96
NMTAP	87	48	3
NMTAP	87	96	3
NMTAP	87	144	2
NMTAP	87	192	5
NMTAP	87	240	5
NMTAP	87	288	4
NMTAP	87	336	6
NMTTP	88	0	4	B	0	M1
NMTTP	88	0	5	B	0	M1
NMTTP	88	96	2	B	0	M1
NMTTP	88	96	3	B	0	M1
NMTTP	88	192	0	C	0	M1
NMTAP	88	288	0
NMHLD	88	336	0	96
NMTAP	89	48	6
NMTAP	89	96	5
NMHLD	89	144	4	96
NMTAP	89	240	2
NMTAP	89	288	2
BRHLD	89	336	1	96
NMTAP	89	336	3
NMTAP	90	48	4
NMTAP	90	96	5
BRHLD	90	144	6	96
NMTAP	90	240	7
BRTAP	90	288	0
BRTAP	90	288	5
NMSTR	91	0	1
NMSI_	91	0	1	96	48	4
NMSTR	91	0	4
NMSI_	91	0	4	96	48	0
NMTAP	91	96	1
NMTAP	91	96	4
NMSTR	91	192	3
NMSI_	91	192	3	96	48	7
NMSTR	91	192	6
NMSI_	91	192	6	96	48	3
NMTAP	91	288	3
NMTAP	91	288	6
NMSTR	92	0	1
NMSI_	92	0	1	96	48	4
NMSTR	92	0	4
NMSI_	92	0	4	96	48	0
NMTAP	92	96	1
NMTAP	92	96	4
NMTAP	92	192	2
NMSTR	92	192	7
NMSI_	92	192	7	96	48	3
NMSTR	92	288	3
NMSXL	92	288	3	96	96	5
NMSXR	92	288	3	96	96	1
EXTAP	93	192	0
EXTAP	93	192	6
BXTAP	93	288	1
BXTAP	93	288	7
BXTAP	93	336	2
BXTAP	93	336	6
BRTAP	94	48	1
BRTAP	94	48	7
BRTAP	94	96	2
BRTAP	94	96	6
NMTAP	94	192	3
NMTAP	94	192	5
NMSTR	94	240	3
NMSCL	94	240	3	96	48	1
NMSTR	94	240	5
NMSCR	94	240	5	96	48	7
BRTAP	94	336	3
BRTAP	94	336	5
NMSTR	95	48	4
NMSI_	95	48	4	96	48	1
NMSTR	95	48	5
NMSI_	95	48	5	96	48	0
BRTAP	95	144	4
BRTAP	95	144	5
NMSTR	95	240	3
NMSI_	95	240	3	96	48	0
NMSTR	95	240	4
NMSI_	95	240	4	96	48	7
BRTAP	95	336	3
BRTAP	95	336	4
NMSTR	96	48	2
NMSI_	96	48	2	96	48	7
NMSTR	96	48	3
NMSI_	96	48	3	96	48	6
BRTAP	96	144	2
BRTAP	96	144	3
NMTAP	96	240	0
NMTAP	96	240	5
NMTAP	96	288	0
NMTAP	96	288	5
NMTAP	97	0	2
NMTAP	97	0	3
NMTAP	97	96	4
NMTAP	97	96	5
NMTAP	97	192	6
NMSTR	97	240	6
NMSCL	97	240	6	96	144	3
NMSTR	97	240	7
NMSSL	97	240	7	96	144	3
NMSTR	98	192	2
BRSI_	98	192	2	96	48	0
NMSTR	98	192	3
NMSV_	98	192	3	96	48	5
NMTTP	98	288	2	A	0	M1
NMTTP	98	288	3	A	0	M1
NMTTP	98	288	3	D	0	M1
EXTAP	99	0	0
NMTAP	99	48	1
NMSTR	99	96	2
NMSI_	99	96	2	96	48	5
NMSTR	99	96	6
NMSI_	99	96	6	96	48	3
NMTAP	99	192	2
NMTAP	99	192	6
NMTAP	99	288	1
NMTAP	99	288	7
NMTAP	100	0	7
NMTAP	100	48	6
NMSTR	100	96	1
NMSI_	100	96	1	96	48	4
NMSTR	100	96	5
NMSI_	100	96	5	96	48	2
NMTAP	100	192	1
NMTAP	100	192	5
NMSTR	100	288	0
NMSCR	100	288	0	96	24	1
NMSTR	100	288	6
NMSCL	100	288	6	96	24	5
BRTAP	101	0	0
BRTAP	101	0	6
CNSI_	101	24	1	0	24	3
CNSI_	101	24	5	0	24	3
NMTAP	101	96	6
NMTAP	101	96	7
NMTAP	101	144	0
NMTAP	101	144	5
NMTAP	101	240	0
NMTAP	101	240	1
NMTAP	101	288	2
NMTAP	101	288	7
NMTAP	101	336	3
BRHLD	101	336	6	96
BRTAP	102	48	7
BRTAP	102	96	0
BRTAP	102	96	5
NMTAP	102	192	3
NMTAP	102	192	6
NMTAP	102	240	3
NMSTR	102	240	6
NMSI_	102	240	6	96	48	0
NMSTR	102	336	2
NMSI_	102	336	2	96	48	4
NMTAP	102	336	6
NMTAP	103	48	2
NMSTR	103	48	6
NMSCR	103	48	6	96	48	0
NMSTR	103	144	2
NMSCR	103	144	2	96	48	4
NMTAP	103	144	6
NMTAP	103	240	2
NMTAP	103	240	4
NMHLD	103	336	6	96
NMTAP	104	48	4
NMTAP	104	96	3
NMHLD	104	144	2	96
NMTAP	104	240	0
NMTAP	104	288	7
BXTAP	104	336	0
BXHLD	104	336	6	96
NMTAP	105	48	2
NMTAP	105	96	0
BXHLD	105	144	1	96
BXTAP	105	144	7
NMTAP	105	240	0
NMTAP	105	288	1
NMTAP	105	288	7
BXHLD	105	336	0	96
BXHLD	105	336	6	96
NMTAP	106	96	0
NMTAP	106	96	6
NMTAP	106	192	2
NMTAP	106	240	3
NMTAP	106	288	4
NMHLD	106	336	5	96
NMTAP	107	48	4
NMTAP	107	96	3
NMHLD	107	144	2	96
NMTTP	107	240	4	B	0	M1
NMTTP	107	288	3	B	0	M1
NMTHO	107	336	0	144	C	0	M1
NMSTR	108	192	0
NMSCL	108	192	0	96	24	7
NMSCR	108	192	0	96	24	1
BRTAP	108	288	0
CNSV_	108	312	1	0	24	4
CNSV_	108	312	7	0	24	4

T_REC_TAP	302
T_REC_BRK	36
T_REC_XTP	60
T_REC_BXX	15
T_REC_HLD	63
T_REC_XHO	3
T_REC_BHO	6
T_REC_BXH	9
T_REC_STR	78
T_REC_BST	3
T_REC_XST	5
T_REC_XBS	0
T_REC_TTP	65
T_REC_THO	2
T_REC_SLD	87
T_REC_BSL	4
T_REC_ALL	738
T_NUM_TAP	510
T_NUM_BRK	73
T_NUM_HLD	68
T_NUM_SLD	87
T_NUM_ALL	738
T_JUDGE_TAP	564
T_JUDGE_HLD	247
T_JUDGE_SLD	91
T_JUDGE_ALL	902
TTM_EACHPAIRS	182
TTM_SCR_TAP	255000
TTM_SCR_BRK	189800
TTM_SCR_HLD	68000
TTM_SCR_SLD	130500
TTM_SCR_ALL	643300
TTM_SCR_S	616950
TTM_SCR_SS	636000
TTM_RAT_ACV	10114

