VERSION	0.00.00	1.04.00
FES_MODE	0
BPM_DEF	185.000	185.000	185.000	185.000
MET_DEF	4	4
RESOLUTION	384
CLK_DEF	384
COMPATIBLE_CODE	MA2

BPM	0	0	185.000
MET	0	0	4	4

NMHLD	2	0	2	336
NMSTR	2	0	3
NMSUL	2	0	3	96	240	6
NMSTR	4	0	4
NMSUR	4	0	4	96	240	1
NMHLD	4	0	5	336
EXTAP	5	144	2
EXTAP	5	144	4
NMHLD	6	0	2	144
NMTAP	6	144	3
NMTAP	6	288	3
NMTAP	6	288	4
NMHLD	7	0	5	144
NMTAP	7	144	4
NMSTR	7	288	3
NMSXR	7	288	3	96	288	1
NMSTR	7	288	4
NMSXL	7	288	4	96	288	6
NMTAP	9	192	0
NMTAP	9	192	7
BRTAP	9	288	0
BRTAP	9	288	7
NMTAP	10	0	6
NMTAP	10	96	6
NMTAP	10	96	7
NMTAP	10	192	5
NMTAP	10	288	4
NMTAP	10	288	5
NMTAP	11	0	2
NMTAP	11	96	2
NMTAP	11	96	3
NMTAP	11	192	1
NMTAP	11	240	1
NMTAP	11	288	0
NMTAP	12	0	1
NMTAP	12	96	0
NMTAP	12	96	1
NMTAP	12	192	2
NMTAP	12	288	3
NMTAP	12	288	4
NMTAP	13	0	5
NMTAP	13	96	6
NMTAP	13	96	7
NMTAP	13	192	0
NMTAP	13	240	0
NMHLD	13	336	1	192
NMTAP	14	48	0
NMHLD	14	144	6	192
NMTAP	14	240	7
NMHLD	14	336	2	192
NMTAP	15	48	0
NMHLD	15	144	5	96
NMSTR	15	240	7
NMSCL	15	240	7	96	240	0
NMTAP	16	336	0
NMTAP	16	336	7
NMSTR	17	48	1
NMSI_	17	48	1	96	48	4
NMSTR	17	48	6
NMSI_	17	48	6	96	48	3
NMTAP	18	0	2
NMHLD	18	96	2	576
NMTAP	18	288	3
NMTAP	19	96	1
NMTAP	19	288	3
NMTAP	20	0	5
NMHLD	20	96	5	576
NMTAP	20	288	4
NMTAP	21	96	6
NMSTR	21	288	4
NMSLL	21	288	4	96	192	0
NMTAP	22	288	0
NMSTR	22	288	3
NMSLR	22	288	3	96	192	7
NMTAP	23	288	4
NMTAP	23	288	7
NMHLD	24	0	3	96
NMHLD	24	0	6	96
NMHLD	24	192	1	96
NMHLD	24	192	4	96
NMTAP	25	0	2
NMTAP	25	48	2
NMTAP	25	96	4
NMTAP	25	144	4
BRTAP	25	192	0
NMTAP	26	0	5
NMTAP	26	96	6
NMTAP	26	96	7
NMTAP	26	192	0
NMTAP	26	288	1
NMTAP	26	288	7
NMTAP	27	0	2
NMTAP	27	96	2
NMTAP	27	96	3
NMTAP	27	192	2
NMTAP	27	240	2
NMTAP	27	288	3
NMTAP	28	0	2
NMTAP	28	96	0
NMTAP	28	96	1
NMTAP	28	192	7
NMTAP	28	288	0
NMTAP	28	288	6
NMTAP	29	0	5
NMTAP	29	96	4
NMTAP	29	96	5
NMTAP	29	192	5
NMTAP	29	240	5
NMTAP	29	288	4
BXHLD	30	0	3	96
BXHLD	30	0	5	96
BXHLD	30	144	2	96
BXHLD	30	144	6	96
BXTAP	30	288	1
BXTAP	30	288	7
BXSTR	31	0	0
BRSF_	31	0	0	96	96	4
BXTAP	31	288	3
BXTAP	31	288	5
NMHLD	32	0	6	96
NMHLD	32	96	4	96
NMHLD	32	192	3	96
NMHLD	32	288	1	96
NMTAP	33	0	7
NMTAP	33	96	3
NMTAP	33	96	4
BRTAP	33	192	1
BRTAP	33	192	5
NMSTR	34	0	2
NMSCR	34	0	2	96	96	5
NMSTR	34	192	6
NMSI_	34	192	6	96	96	2
NMSTR	35	0	0
NMSI_	35	0	0	96	96	4
BRTAP	35	192	7
BRTAP	35	288	7
NMSTR	36	0	6
NMSCR	36	0	6	96	96	1
NMSTR	36	192	2
NMSI_	36	192	2	96	96	6
NMSTR	37	0	4
NMSI_	37	0	4	96	96	0
BRTAP	37	192	1
BRTAP	37	288	1
NMHLD	38	0	1	96
NMTAP	38	96	3
NMTAP	38	144	3
NMTAP	38	288	2
NMTAP	38	288	4
NMHLD	39	0	6	96
NMTAP	39	96	4
NMSTR	39	144	4
NMSUR	39	144	4	96	288	5
CNSCR	40	144	5	0	336	3
NMTAP	41	288	4
NMTAP	41	288	5
BRHLD	42	0	2	96
BRTAP	42	0	7
NMTAP	42	96	0
NMTAP	42	144	0
NMTAP	42	240	1
NMTAP	42	240	7
NMTAP	42	288	1
NMTAP	42	288	7
NMHLD	43	0	5	96
NMTAP	43	96	7
NMTAP	43	144	7
NMTAP	43	240	0
NMTAP	43	240	6
NMTAP	43	288	0
NMTAP	43	288	6
NMHLD	44	0	1	96
NMTAP	44	96	3
NMTAP	44	144	3
NMTAP	44	240	2
NMTAP	44	240	4
NMTAP	44	336	0
NMTAP	44	336	7
NMTAP	45	48	2
NMTAP	45	48	6
NMTAP	45	96	2
NMTAP	45	96	6
NMTAP	45	192	1
NMHLD	45	240	1	96
BXTAP	45	336	3
NMTAP	46	48	0
NMTAP	46	48	1
NMTAP	46	144	2
NMTAP	46	144	3
NMTAP	46	240	4
NMSTR	46	240	5
BRSI_	46	240	5	96	192	2
BRSCL	46	240	5	96	192	2
NMTAP	47	240	1
NMTAP	47	288	1
NMTAP	47	336	0
NMTAP	48	48	6
NMTAP	48	96	6
NMTAP	48	144	7
NMSTR	48	240	0
NMSXL	48	240	0	96	336	3
NMSTR	48	240	7
NMSXR	48	240	7	96	336	4
EXTAP	50	0	2
EXTAP	50	0	3
BRTAP	50	96	6
BRTAP	50	96	7
NMTAP	50	144	6
NMTAP	50	144	7
NMTAP	50	240	0
NMTAP	50	288	0
NMHLD	51	0	2	96
NMTAP	51	96	0
NMTAP	51	144	0
NMTAP	51	240	1
NMTAP	51	240	7
NMTAP	51	288	1
NMTAP	51	288	7
NMTAP	52	0	0
NMTAP	52	0	6
NMTAP	52	96	1
NMTAP	52	96	7
NMSTR	52	144	1
BRSXL	52	144	1	96	240	1
NMSTR	52	144	7
BRSXR	52	144	7	96	240	7
NMTAP	53	192	0
NMTAP	53	240	0
NMTAP	53	336	0
NMTAP	53	336	1
NMTAP	54	48	2
NMTAP	54	48	3
NMTAP	54	144	4
NMTAP	54	144	5
NMTAP	54	240	6
NMTAP	54	240	7
NMTAP	54	336	0
NMTAP	54	336	1
NMTAP	55	48	2
NMTAP	55	48	3
NMTAP	55	144	1
NMTAP	55	144	4
NMTAP	55	240	5
NMTAP	55	288	5
NMTAP	55	336	4
NMTAP	55	336	6
NMTAP	56	48	2
NMTAP	56	96	2
NMTAP	56	144	1
NMTAP	56	144	3
NMTAP	56	240	0
NMTAP	56	288	7
BRSTR	56	336	1
NMSXL	56	336	1	96	144	3
BRSTR	56	336	6
NMSXR	56	336	6	96	144	4
NMTAP	57	288	2
NMTAP	57	288	5
EXSTR	58	0	2
NMSI_	58	0	2	96	160	6
EXTAP	58	0	5
CNSCR	58	256	6	0	160	1
CNSI_	59	32	1	0	160	4
NMSTR	60	0	5
NMSCL	60	0	5	96	160	3
CNSUR	60	256	3	0	160	7
CNSV_	61	32	7	0	160	2
NMSTR	62	0	1
NMSSR	62	0	1	96	160	5
CNSCL	62	256	5	0	160	3
CNSUL	63	32	3	0	160	7
NMSTR	64	0	6
NMSI_	64	0	6	96	160	3
CNSCL	64	256	3	0	160	0
CNSSR	65	32	0	0	160	4
EXHLD	66	0	1	768
NMTTP	66	192	2	B	0	M1
NMTTP	66	192	3	B	0	M1
NMTTP	67	0	0	B	0	M1
NMTTP	67	96	0	C	0	M1
NMTTP	67	192	3	B	0	M1
NMHLD	68	0	6	576
NMTTP	68	192	4	B	0	M1
NMTTP	68	192	5	B	0	M1
NMTTP	69	0	7	B	0	M1
NMTTP	69	96	0	C	0	M1
NMTTP	69	192	4	B	0	M1
NMHLD	70	0	1	192
NMTAP	70	96	0
NMHLD	70	192	6	192
NMTAP	70	288	7
NMHLD	71	0	2	192
NMTAP	71	96	0
NMHLD	71	192	5	96
NMTAP	71	288	7
NMHLD	72	0	0	96
NMHLD	72	0	6	96
NMHLD	72	192	1	96
NMHLD	72	192	7	96
NMTAP	73	0	4
NMTAP	73	0	6
NMTAP	73	96	1
NMTAP	73	96	3
NMTAP	73	192	2
NMTAP	73	192	5
BRTAP	73	288	0
BRTAP	73	288	7
NMSTR	74	0	6
NMSCL	74	0	6	96	96	3
NMSTR	74	192	2
NMSI_	74	192	2	96	96	6
NMTAP	75	0	5
NMTAP	75	96	5
NMTAP	75	192	6
NMTAP	75	192	7
NMTAP	75	288	6
NMTAP	75	288	7
NMSTR	76	0	0
NMSUR	76	0	0	96	96	4
NMSTR	76	192	5
NMSI_	76	192	5	96	96	1
NMTAP	77	0	2
NMTAP	77	96	2
NMTAP	77	192	0
NMTAP	77	192	1
NMTAP	77	288	0
NMTAP	77	288	1
NMHLD	78	0	1	96
NMTAP	78	96	7
NMTAP	78	144	7
NMTAP	78	240	0
NMTAP	78	240	6
NMTAP	78	288	0
NMTAP	78	288	6
NMHLD	79	0	5	96
NMTAP	79	96	7
NMSTR	79	144	7
NMSUR	79	144	7	96	288	0
CNSCR	80	144	0	0	336	6
NMTAP	81	288	0
NMTAP	81	288	7
BRHLD	82	0	2	384
BRTAP	82	0	5
NMHLD	83	0	3	384
NMHLD	84	0	4	384
NMHLD	85	0	5	192
NMTAP	85	192	4
NMHLD	85	336	3	96
NMHLD	85	336	5	96
NMHLD	86	144	2	96
NMHLD	86	144	4	96
NMHLD	86	336	3	96
NMHLD	86	336	6	96
NMHLD	87	144	1	96
NMHLD	87	144	4	96
NMTAP	87	288	1
NMTAP	87	288	4
NMTHO	88	0	0	336	C	1	M1
NMTTP	89	336	0	C	1	M1
NMTTP	89	336	2	B	0	M1
NMTTP	89	336	5	B	0	M1
EXTAP	90	288	0
EXTAP	90	288	7
BRHLD	91	0	6	96
BRTAP	91	0	7
NMTAP	91	96	4
NMTAP	91	144	4
NMTAP	91	240	3
NMTAP	91	240	7
NMTAP	91	288	3
NMTAP	91	288	7
NMTAP	92	0	0
NMHLD	92	0	1	96
NMTAP	92	96	3
NMTAP	92	144	3
NMTAP	92	240	0
NMTAP	92	240	4
NMTAP	92	288	0
NMTAP	92	288	4
NMHLD	93	0	5	96
NMTAP	93	0	7
NMTAP	93	96	4
NMTAP	93	144	4
NMTAP	93	240	2
NMTAP	93	240	3
NMTAP	93	336	0
NMTAP	93	336	7
NMTAP	94	48	2
NMTAP	94	48	6
NMTAP	94	96	2
NMTAP	94	96	6
NMTAP	94	192	5
NMHLD	94	240	5	96
BXTAP	94	336	4
NMTAP	95	48	1
NMTAP	95	48	3
NMTAP	95	144	0
NMTAP	95	144	7
NMSTR	95	240	2
BRSCR	95	240	2	96	192	5
NMSTR	95	240	6
BRSUL	95	240	6	96	192	1
NMTAP	96	240	0
NMTAP	96	288	0
NMTAP	96	336	1
NMTAP	96	336	7
NMTAP	97	48	6
NMTAP	97	96	6
NMTAP	97	144	5
NMTAP	97	144	7
NMSTR	97	240	0
NMSXL	97	240	0	96	336	3
NMSTR	97	240	6
NMSXR	97	240	6	96	336	3
NMTAP	99	0	2
NMTAP	99	0	4
BRTAP	99	96	6
BRTAP	99	96	7
NMTAP	99	144	6
NMTAP	99	144	7
NMTAP	99	240	0
NMTAP	99	240	5
NMTAP	99	288	0
NMTAP	99	288	5
NMHLD	100	0	2	96
NMTAP	100	0	3
NMTAP	100	96	0
NMTAP	100	144	0
NMTAP	100	240	1
NMTAP	100	240	7
NMTAP	100	288	1
NMTAP	100	288	7
NMTAP	101	0	3
NMTAP	101	0	4
NMTAP	101	96	0
NMTAP	101	96	6
NMSTR	101	144	0
BRSXL	101	144	0	96	240	0
NMSTR	101	144	6
BRSXR	101	144	6	96	240	6
NMTAP	102	192	7
NMTAP	102	240	7
NMTAP	102	336	4
NMTAP	102	336	6
NMTAP	103	48	0
NMTAP	103	48	7
NMTAP	103	144	1
NMTAP	103	144	3
NMTAP	103	240	3
NMTAP	103	240	4
NMTAP	103	336	4
NMTAP	103	336	6
NMTAP	104	48	0
NMTAP	104	48	7
NMTAP	104	144	1
NMTAP	104	144	5
NMTAP	104	240	6
NMTAP	104	288	7
BRTAP	104	336	0
BRTAP	104	336	5
NMTAP	105	48	1
NMTAP	105	96	0
BRTAP	105	144	2
BRTAP	105	144	7
NMTAP	105	240	0
NMTAP	105	240	7
NMTAP	105	288	0
NMTAP	105	288	7
BRSTR	105	336	1
NMSV_	105	336	1	96	144	3
BRSTR	105	336	6
NMSV_	105	336	6	96	144	4
NMTTP	106	336	3	E	0	M1
NMTTP	107	144	5	E	0	M1
NMTHO	107	336	0	336	C	1	M1
NMTTP	108	288	1	B	0	M1
NMTTP	108	288	2	B	0	M1
NMTTP	108	288	5	B	0	M1
NMTTP	108	288	6	B	0	M1

T_REC_TAP	272
T_REC_BRK	22
T_REC_XTP	7
T_REC_BXX	6
T_REC_HLD	50
T_REC_XHO	1
T_REC_BHO	3
T_REC_BXH	4
T_REC_STR	35
T_REC_BST	4
T_REC_XST	1
T_REC_XBS	1
T_REC_TTP	19
T_REC_THO	2
T_REC_SLD	33
T_REC_BSL	9
T_REC_ALL	469
T_NUM_TAP	334
T_NUM_BRK	49
T_NUM_HLD	53
T_NUM_SLD	33
T_NUM_ALL	469
T_JUDGE_TAP	367
T_JUDGE_HLD	218
T_JUDGE_SLD	42
T_JUDGE_ALL	627
TTM_EACHPAIRS	126
TTM_SCR_TAP	167000
TTM_SCR_BRK	127400
TTM_SCR_HLD	53000
TTM_SCR_SLD	49500
TTM_SCR_ALL	396900
TTM_SCR_S	380250
TTM_SCR_SS	392000
TTM_RAT_ACV	10125

