VERSION	0.00.00	1.04.00
FES_MODE	0
BPM_DEF	185.000	185.000	185.000	185.000
MET_DEF	4	4
RESOLUTION	384
CLK_DEF	384
COMPATIBLE_CODE	MA2

BPM	0	0	185.000
MET	0	0	4	4

NMSTR	2	0	6
NMSI_	2	0	6	96	288	3
NMSTR	4	0	1
NMSI_	4	0	1	96	288	4
NMSTR	6	0	6
NMSI_	6	0	6	96	288	2
NMSTR	8	0	0
NMSI_	8	0	0	96	288	4
NMTAP	10	0	5
NMTAP	10	96	5
NMTAP	10	192	5
NMTAP	11	0	6
NMTAP	11	96	6
NMTAP	11	192	6
NMTAP	12	0	7
NMTAP	12	96	7
NMTAP	12	192	7
NMTAP	13	0	0
NMTAP	13	0	1
NMTAP	13	192	0
NMTAP	13	192	1
NMTAP	14	0	2
NMTAP	14	96	2
NMTAP	14	192	2
NMTAP	15	0	1
NMTAP	15	96	1
NMTAP	15	192	1
NMTAP	16	0	0
NMTAP	16	96	0
NMTAP	16	192	0
NMTAP	17	0	6
NMTAP	17	0	7
NMTAP	17	192	6
NMTAP	17	192	7
NMHLD	18	0	6	192
NMTAP	18	192	7
NMTAP	19	0	6
NMTAP	19	96	6
NMTAP	19	192	6
NMTAP	19	192	7
NMHLD	20	0	5	192
NMTAP	20	192	4
NMTAP	21	0	5
NMTAP	21	96	5
NMTAP	21	192	4
NMTAP	21	192	5
NMHLD	22	0	2	192
NMTAP	22	192	3
NMTAP	23	0	2
NMTAP	23	96	2
NMTAP	23	192	2
NMTAP	23	192	3
NMHLD	24	0	1	192
NMTAP	24	192	0
NMTAP	25	0	1
NMTAP	25	96	1
NMTAP	25	192	0
NMTAP	25	192	1
NMTAP	26	0	1
NMTAP	26	96	1
NMTAP	26	192	0
NMTAP	26	192	1
NMTAP	27	0	2
NMTAP	27	96	2
NMTAP	27	192	2
NMTAP	27	192	3
NMTAP	28	0	4
NMTAP	28	96	4
NMTAP	28	192	4
NMTAP	28	192	5
NMTAP	29	0	6
NMTAP	29	0	7
NMTAP	29	96	6
NMTAP	29	96	7
NMTAP	29	192	6
NMTAP	29	192	7
NMTAP	30	0	6
NMTAP	30	96	6
NMTAP	30	192	5
NMTAP	30	288	5
NMTAP	31	0	4
NMTAP	31	96	4
NMTAP	31	192	2
NMTAP	31	192	3
NMTAP	32	0	1
NMTAP	32	96	1
NMTAP	32	192	2
NMTAP	32	288	2
NMTAP	33	0	3
NMTAP	33	96	3
NMTAP	33	192	4
NMTAP	33	192	5
NMTTP	34	0	2	B	0	L1
NMTTP	34	0	3	B	0	L1
NMTTP	34	192	0	B	0	L1
NMTTP	34	192	1	B	0	L1
NMTTP	35	0	6	B	0	L1
NMTTP	35	0	7	B	0	L1
NMTTP	35	192	4	B	0	L1
NMTTP	35	192	5	B	0	L1
NMTTP	36	0	1	B	0	L1
NMTTP	36	0	2	E	0	L1
NMTTP	36	192	3	B	0	L1
NMTTP	36	192	4	E	0	L1
NMTTP	37	0	5	B	0	L1
NMTTP	37	0	6	E	0	L1
NMTTP	37	192	0	C	0	L1
NMTAP	38	0	0
NMTAP	38	96	0
NMTAP	38	192	0
NMTAP	39	0	0
NMTAP	39	0	7
NMTAP	39	96	0
NMTAP	39	96	7
NMSTR	39	192	0
NMSXL	39	192	0	96	480	3
NMSTR	39	192	7
NMSXR	39	192	7	96	480	4
BXTAP	42	0	2
NMTAP	42	96	2
NMTAP	42	192	1
NMTAP	42	288	1
NMTAP	43	0	0
NMTAP	43	96	0
NMTAP	43	192	6
NMTAP	43	192	7
NMTAP	44	0	5
NMTAP	44	96	5
NMTAP	44	192	6
NMTAP	44	288	6
NMTAP	45	0	7
NMTAP	45	96	7
NMTAP	45	192	0
NMTAP	45	192	1
NMTAP	46	0	1
NMTAP	46	96	1
NMTAP	46	192	2
NMTAP	46	288	2
NMTAP	47	0	3
NMTAP	47	96	3
NMTAP	47	192	4
NMTAP	47	192	5
NMTAP	48	0	6
NMTAP	48	96	6
NMTAP	48	192	5
NMTAP	48	288	5
NMTAP	49	0	4
NMTAP	49	96	4
NMTAP	49	192	2
NMTAP	49	192	3
NMTAP	50	0	2
BRTAP	50	96	2
NMTAP	50	192	1
NMTAP	50	288	1
NMTAP	51	0	0
NMTAP	51	96	0
NMTAP	51	192	6
NMTAP	51	192	7
NMTAP	52	0	5
NMTAP	52	96	5
NMTAP	52	192	6
NMTAP	52	288	6
NMTAP	53	0	7
NMTAP	53	96	7
NMTAP	53	192	0
NMTAP	53	192	1
NMTAP	54	0	1
NMTAP	54	96	1
NMTAP	54	192	2
NMTAP	54	288	2
NMTAP	55	0	3
NMTAP	55	96	3
NMTAP	55	192	4
NMTAP	55	192	5
NMTAP	56	0	6
NMTAP	56	96	6
NMTAP	56	192	5
NMTAP	56	288	5
NMTAP	57	0	4
NMTAP	57	96	4
NMTAP	57	192	2
NMTAP	57	192	3
NMHLD	58	0	2	192
NMHLD	58	192	3	192
NMHLD	59	0	4	192
NMTAP	59	192	5
NMHLD	60	0	5	192
NMHLD	60	192	4	192
NMHLD	61	0	3	192
NMTAP	61	192	2
NMHLD	62	0	1	192
NMHLD	62	192	2	192
NMHLD	63	0	3	192
NMTAP	63	192	4
NMHLD	64	0	6	192
NMHLD	64	192	5	192
NMHLD	65	0	4	192
NMTAP	65	192	3
NMTAP	66	0	4
NMTAP	66	96	4
NMTAP	66	192	5
NMTAP	67	0	6
NMTAP	67	96	6
NMTAP	67	192	7
NMTAP	68	0	0
NMTAP	68	96	0
NMTAP	68	192	1
NMTAP	69	0	2
NMTAP	69	96	2
NMTAP	69	192	2
NMTAP	69	192	3
NMTAP	70	0	3
NMTAP	70	96	3
NMTAP	70	192	2
NMTAP	71	0	1
NMTAP	71	96	1
NMTAP	71	192	0
NMTAP	72	0	7
NMTAP	72	96	7
NMTAP	72	192	6
NMTAP	73	0	5
NMTAP	73	96	5
NMTAP	73	192	4
NMTAP	73	192	5
NMTAP	74	0	6
NMTAP	74	0	7
NMTAP	74	192	6
NMTAP	74	192	7
NMTAP	75	0	5
NMTAP	75	96	5
NMTAP	75	192	5
NMTAP	76	0	3
NMTAP	76	0	4
NMTAP	76	192	3
NMTAP	76	192	4
NMTAP	77	0	2
NMTAP	77	96	2
NMTAP	77	192	2
NMTAP	78	0	0
NMTAP	78	0	1
NMTAP	78	192	0
NMTAP	78	192	1
NMTAP	79	0	2
NMTAP	79	96	2
NMTAP	79	192	2
NMHLD	80	0	3	384
NMHLD	80	0	4	384
NMTTP	82	0	4	B	0	L1
NMTTP	82	96	5	B	0	L1
NMTTP	82	192	6	B	0	L1
NMTTP	83	0	3	B	0	L1
NMTTP	83	96	2	B	0	L1
NMTTP	83	192	1	B	0	L1
NMTTP	84	0	4	B	0	L1
NMTTP	84	96	5	B	0	L1
NMTTP	84	192	6	B	0	L1
NMTTP	84	288	7	B	0	L1
NMTTP	85	0	0	B	0	L1
NMTTP	85	96	1	B	0	L1
NMTTP	85	192	2	B	0	L1
NMTTP	85	192	3	B	0	L1
NMSTR	86	0	0
NMSI_	86	0	0	96	192	4
NMSTR	87	0	5
NMSI_	87	0	5	96	192	2
NMSTR	88	0	1
NMSI_	88	0	1	96	192	4
NMTAP	89	0	5
NMTAP	89	192	4
NMTAP	89	192	5
NMTAP	90	0	2
NMTAP	90	192	2
NMTAP	90	192	3
BRTAP	91	0	2
NMTAP	91	96	2
NMTAP	91	192	0
NMTAP	91	192	1
NMTAP	91	288	0
NMTAP	91	288	1
NMTAP	92	0	7
NMTAP	92	96	7
NMTAP	92	192	6
NMTAP	92	192	7
NMTAP	93	0	5
NMTAP	93	96	5
NMTAP	93	192	6
NMTAP	93	192	7
NMTAP	93	288	6
NMTAP	93	288	7
NMTAP	94	0	0
NMTAP	94	96	0
NMTAP	94	192	0
NMTAP	94	192	1
NMTAP	95	0	1
NMTAP	95	96	1
NMTAP	95	192	2
NMTAP	95	192	3
NMTAP	95	288	2
NMTAP	95	288	3
NMTAP	96	0	4
NMTAP	96	96	4
NMTAP	96	192	4
NMTAP	96	192	5
NMTAP	97	0	6
NMTAP	97	96	6
NMTAP	97	192	4
NMTAP	97	192	5
NMTAP	97	288	4
NMTAP	97	288	5
NMTAP	98	0	3
NMTAP	98	96	3
NMTAP	98	192	2
NMTAP	98	192	3
NMTAP	99	0	2
NMTAP	99	96	2
NMTAP	99	192	0
NMTAP	99	192	1
NMTAP	99	288	0
NMTAP	99	288	1
NMTAP	100	0	7
NMTAP	100	96	7
NMTAP	100	192	6
NMTAP	100	192	7
NMTAP	100	288	6
NMTAP	100	288	7
NMTAP	101	0	5
NMTAP	101	96	5
NMTAP	101	192	6
NMTAP	101	192	7
NMTAP	101	288	6
NMTAP	101	288	7
NMTAP	102	0	0
NMTAP	102	96	0
NMTAP	102	192	0
NMTAP	102	192	1
NMTAP	103	0	1
NMTAP	103	96	1
NMTAP	103	192	2
NMTAP	103	192	3
NMTAP	103	288	2
NMTAP	103	288	3
NMTAP	104	0	4
NMTAP	104	96	4
NMTAP	104	192	4
NMTAP	104	192	5
NMTAP	104	288	4
NMTAP	104	288	5
NMTAP	105	0	6
NMTAP	105	96	6
NMTAP	105	192	4
NMTAP	105	192	5
NMTAP	105	288	4
NMTAP	105	288	5
NMTAP	106	0	3
NMTAP	106	96	3
NMTAP	106	192	2
NMTAP	106	192	3
NMTAP	107	0	4
NMTAP	107	96	4
NMTAP	107	192	4
NMTAP	107	192	5
NMTAP	108	0	3
NMTAP	108	0	4
NMTAP	108	96	3
NMTAP	108	96	4
NMTAP	108	192	2
NMTAP	108	192	5
BXTAP	108	288	1
BXTAP	108	288	6

T_REC_TAP	299
T_REC_BRK	2
T_REC_XTP	0
T_REC_BXX	3
T_REC_HLD	18
T_REC_XHO	0
T_REC_BHO	0
T_REC_BXH	0
T_REC_STR	9
T_REC_BST	0
T_REC_XST	0
T_REC_XBS	0
T_REC_TTP	29
T_REC_THO	0
T_REC_SLD	9
T_REC_BSL	0
T_REC_ALL	369
T_NUM_TAP	337
T_NUM_BRK	5
T_NUM_HLD	18
T_NUM_SLD	9
T_NUM_ALL	369
T_JUDGE_TAP	342
T_JUDGE_HLD	80
T_JUDGE_SLD	9
T_JUDGE_ALL	431
TTM_EACHPAIRS	69
TTM_SCR_TAP	168500
TTM_SCR_BRK	13000
TTM_SCR_HLD	18000
TTM_SCR_SLD	13500
TTM_SCR_ALL	213000
TTM_SCR_S	206150
TTM_SCR_SS	212500
TTM_RAT_ACV	10023

