VERSION	0.00.00	1.05.00
FES_MODE	0
BPM_DEF	175.000	175.000	175.000	175.000
MET_DEF	4	4
RESOLUTION	384
CLK_DEF	384
COMPATIBLE_CODE	MA2

BPM	0	0	175.000
MET	0	0	4	4

NMTAP	2	240	4
NMTAP	2	264	3
NMTAP	2	288	4
NMTAP	2	336	2
NMTAP	2	336	5
NMTAP	3	0	6
NMSTR	3	48	6
NMSCR	3	48	6	96	48	0
NMSTR	3	144	2
NMSCR	3	144	2	96	48	4
NMSTR	3	240	6
NMSCR	3	240	6	96	48	0
NMSTR	3	336	2
NMSCR	3	336	2	96	48	4
NMSTR	4	48	7
NMSCR	4	48	7	96	48	1
NMSTR	4	144	3
NMSCR	4	144	3	96	48	5
NMSTR	4	240	7
NMSCR	4	240	7	96	48	1
NMSTR	4	336	3
NMSCR	4	336	3	96	48	5
NMSTR	5	48	0
NMSCR	5	48	0	96	48	2
NMSTR	5	144	4
NMSCR	5	144	4	96	48	6
NMSTR	5	240	0
NMSCR	5	240	0	96	48	2
NMTAP	5	336	4
NMSTR	6	48	1
NMSLL	6	48	1	96	96	5
NMTAP	6	144	3
NMTAP	6	240	3
NMTAP	6	288	2
NMTAP	6	288	4
NMTAP	7	0	5
NMSTR	7	48	5
NMSCR	7	48	5	96	48	0
NMSTR	7	144	3
NMSUL	7	144	3	96	48	6
NMSTR	7	240	4
NMSUR	7	240	4	96	48	1
NMSTR	7	336	2
NMSCL	7	336	2	96	48	7
NMSTR	8	48	5
NMSCR	8	48	5	96	48	0
NMSTR	8	144	3
NMSLR	8	144	3	96	96	0
NMTAP	8	240	7
NMTAP	8	288	7
NMSTR	9	0	6
NMSI_	9	0	6	96	48	2
NMTAP	9	48	6
NMSTR	9	96	7
NMSI_	9	96	7	96	48	3
NMTAP	9	144	7
NMSTR	9	192	0
NMSI_	9	192	0	96	48	4
NMTAP	9	240	0
NMTAP	9	288	1
NMTAP	9	336	1
NMTAP	10	0	7
NMTAP	10	24	0
NMTAP	10	72	5
NMTAP	10	96	4
NMTAP	10	144	2
NMSTR	10	168	3
NMSI_	10	168	3	96	48	7
NMTTP	10	288	0	C	0	M1
NMSTR	11	0	0
NMSCR	11	0	0	96	1344	7
NMTAP	11	288	6
NMHLD	11	336	6	240
NMTAP	12	288	7
NMHLD	12	336	7	240
NMTAP	13	288	0
NMHLD	13	336	0	192
NMTAP	14	288	1
NMSTR	15	0	7
NMSCL	15	0	7	96	1344	0
NMTAP	15	288	1
NMHLD	15	336	1	240
NMTAP	16	288	0
NMHLD	16	336	0	240
NMTAP	17	288	7
NMHLD	17	336	7	192
NMTAP	18	288	6
NMSTR	19	0	5
NMSI_	19	0	5	96	96	7
NMTAP	19	96	3
NMTAP	19	192	4
CNSLR	19	192	7	0	192	3
NMTAP	19	288	5
NMSTR	19	336	5
NMSI_	19	336	5	96	96	7
NMTAP	20	96	3
CNSLR	20	144	7	0	192	3
NMTAP	20	192	4
NMTAP	20	288	5
NMSTR	20	336	5
NMSI_	20	336	5	96	96	7
NMTAP	21	96	3
CNSLR	21	144	7	0	192	3
NMTAP	21	192	4
NMTAP	21	288	5
NMSTR	21	336	5
NMSI_	21	336	5	96	96	7
NMTAP	22	96	3
CNSLR	22	144	7	0	192	3
NMTAP	22	192	4
NMTAP	22	288	5
NMTAP	23	0	4
NMTAP	23	0	6
NMTAP	23	48	5
NMTAP	23	96	5
NMTAP	23	144	1
NMTAP	23	144	3
NMTAP	23	192	2
NMTAP	23	240	2
NMTAP	23	288	4
NMTAP	23	288	7
NMTAP	23	336	6
NMTAP	24	0	4
NMTAP	24	24	5
NMTAP	24	48	4
NMTAP	24	72	5
NMTAP	24	96	3
NMTAP	24	120	4
NMTAP	24	144	3
NMTAP	24	168	4
NMTAP	24	192	2
NMTAP	24	216	3
NMTAP	24	240	2
NMTAP	24	264	3
BRTAP	24	288	1
BRTAP	24	288	4
NMTAP	25	0	3
NMTAP	25	48	2
NMTTP	25	96	0	C	0	M1
NMTAP	25	144	2
NMTAP	25	192	3
NMTTP	25	240	2	E	0	M1
NMTAP	25	288	4
NMTAP	25	336	3
NMTTP	26	0	6	E	0	M1
NMTAP	26	48	4
NMTAP	26	96	5
NMTTP	26	144	0	C	0	M1
NMTAP	26	240	1
NMTAP	26	240	7
NMTAP	26	288	2
NMTAP	26	288	6
NMTAP	26	336	3
NMTAP	26	336	5
NMSTR	27	0	2
NMSUL	27	0	2	96	48	6
NMSTR	27	0	6
NMSUL	27	0	6	96	48	2
NMSTR	27	96	6
NMSLR	27	96	6	96	96	2
NMSTR	27	240	4
NMSCR	27	240	4	96	96	0
CNSI_	27	288	2	0	48	4
NMSTR	27	336	0
NMSCR	27	336	0	96	96	4
NMSTR	28	48	4
NMSUR	28	48	4	96	144	6
NMTAP	28	144	6
NMTAP	28	192	6
NMTAP	28	240	7
NMTAP	28	288	7
NMTAP	28	336	0
NMHLD	29	0	0	96
NMTAP	29	96	1
NMSTR	29	144	2
NMSCL	29	144	2	96	48	7
NMTAP	29	168	3
NMTAP	29	216	3
NMTAP	29	240	2
NMTAP	29	288	4
NMSTR	29	336	5
NMSI_	29	336	5	96	48	3
NMHLD	30	0	6	192
CNSI_	30	96	3	0	48	6
CNSI_	30	144	6	0	48	2
CNSI_	30	192	2	0	48	7
NMTAP	30	288	1
NMTAP	30	288	5
NMSTR	31	0	0
NMSUR	31	0	0	96	48	4
EXSTR	31	0	4
NMSUR	31	0	4	96	48	0
NMSTR	31	96	4
NMSLL	31	96	4	96	96	0
NMSTR	31	240	6
NMSCL	31	240	6	96	96	2
CNSI_	31	288	0	0	48	6
NMSTR	31	336	2
NMSCL	31	336	2	96	48	0
NMTAP	32	48	7
CNSXL	32	96	0	0	192	3
NMTAP	32	96	6
NMTAP	32	144	5
NMTAP	32	192	4
NMTAP	32	240	5
NMSTR	32	288	6
NMSI_	32	288	6	96	48	2
BRTAP	33	0	6
NMTAP	33	0	7
NMHLD	33	96	1	72
NMHLD	33	168	3	72
NMTAP	33	240	4
NMTAP	33	288	4
NMTAP	33	288	5
NMTAP	34	0	6
NMTAP	34	24	7
NMTAP	34	48	6
NMTAP	34	72	7
NMTAP	34	96	6
NMTAP	34	144	1
NMTAP	34	168	0
NMTAP	34	192	1
NMTAP	34	216	0
NMTAP	34	240	1
NMTAP	34	288	2
NMTAP	34	288	7
NMSTR	35	0	2
NMSUL	35	0	2	96	48	6
NMSTR	35	0	6
NMSUL	35	0	6	96	48	2
NMSTR	35	96	2
NMSLR	35	96	2	96	96	6
NMSTR	35	240	0
NMSCR	35	240	0	96	96	4
CNSI_	35	288	6	0	48	0
NMSTR	35	336	4
NMSCR	35	336	4	96	96	0
NMSTR	36	48	0
NMSUR	36	48	0	96	144	2
NMTAP	36	144	2
NMTAP	36	192	2
NMTAP	36	240	3
NMTAP	36	288	3
NMTAP	36	336	4
NMHLD	37	0	4	96
NMTAP	37	96	5
NMSTR	37	144	6
NMSCL	37	144	6	96	48	3
NMTAP	37	168	7
NMTAP	37	216	7
NMTAP	37	240	6
NMTAP	37	288	0
NMSTR	37	336	1
NMSI_	37	336	1	96	48	4
NMHLD	38	0	2	192
CNSI_	38	96	4	0	48	2
CNSI_	38	144	2	0	48	5
CNSI_	38	192	5	0	48	0
NMTAP	38	288	1
NMTAP	38	288	6
NMSTR	39	0	3
NMSUL	39	0	3	96	48	7
NMSTR	39	0	7
NMSUL	39	0	7	96	48	3
NMSTR	39	96	3
NMSLR	39	96	3	96	96	7
NMSTR	39	240	1
NMSCR	39	240	1	96	96	5
CNSI_	39	288	7	0	48	1
NMSTR	39	336	5
NMSUR	39	336	5	96	120	6
NMTAP	40	48	0
NMTAP	40	96	1
NMTAP	40	144	2
CNSCR	40	168	6	0	72	1
NMTAP	40	192	3
NMTAP	40	240	4
NMSTR	40	288	4
NMSI_	40	288	4	96	48	1
NMSTR	41	0	4
NMSI_	41	0	4	96	48	6
NMTAP	41	0	6
NMTAP	41	96	2
NMSTR	41	96	4
NMSI_	41	96	4	96	48	2
NMSTR	41	192	4
NMSI_	41	192	4	96	48	7
NMTAP	41	192	7
NMTAP	41	288	1
NMSTR	41	288	4
BRSUL	41	288	4	96	48	0
BRSTR	42	0	4
BRSUR	42	0	4	96	48	0
NMTAP	42	0	6
NMTAP	42	96	2
BRSTR	42	96	4
NMSF_	42	96	4	96	48	0
BRTAP	42	192	4
NMTTP	42	288	2	B	0	M1
NMTTP	42	288	2	A	0	M1
NMTTP	42	288	3	E	0	M1
NMTTP	42	288	6	B	0	M1
NMTTP	42	288	6	E	0	M1
NMTTP	42	288	6	A	0	M1
NMSTR	43	0	4
NMSCR	43	0	4	96	1344	3
NMTAP	43	288	2
NMHLD	43	336	2	240
NMTAP	44	288	3
NMHLD	44	336	3	240
NMTAP	45	288	4
NMHLD	45	336	4	192
NMTAP	46	288	5
NMSTR	47	0	3
NMSCL	47	0	3	96	1344	4
NMTAP	47	288	5
NMHLD	47	336	5	240
NMTAP	48	288	4
NMHLD	48	336	4	240
NMTAP	49	288	3
NMHLD	49	336	3	192
NMTAP	50	288	2
NMSTR	51	0	1
NMSI_	51	0	1	96	96	7
NMTAP	51	96	3
NMTAP	51	192	2
CNSLL	51	192	7	0	192	3
NMTAP	51	288	1
NMSTR	51	336	1
NMSI_	51	336	1	96	96	7
NMTAP	52	96	3
CNSLL	52	144	7	0	192	3
NMTAP	52	192	2
NMTAP	52	288	1
NMSTR	52	336	1
NMSI_	52	336	1	96	96	7
NMTAP	53	96	3
CNSLL	53	144	7	0	192	3
NMTAP	53	192	2
NMTAP	53	288	1
NMSTR	53	336	1
NMSI_	53	336	1	96	96	7
NMTAP	54	96	3
CNSLL	54	144	7	0	192	3
NMTAP	54	192	2
NMTAP	54	288	1
BRTAP	55	0	0
NMTTP	55	0	2	B	0	M1
NMTTP	55	0	2	E	0	M1
NMTTP	55	0	2	A	0	M1
NMTAP	55	48	0
NMTAP	55	96	0
BRTAP	55	144	0
NMTTP	55	144	7	B	0	M1
NMTTP	55	144	7	E	0	M1
NMTTP	55	144	7	A	0	M1
NMTAP	55	192	0
NMTAP	55	240	0
BRTAP	55	288	1
NMTTP	55	288	5	B	0	M1
NMTTP	55	288	5	E	0	M1
NMTTP	55	288	5	A	0	M1
NMTAP	55	336	1
NMTAP	56	0	3
NMTAP	56	24	2
NMTAP	56	48	3
NMTAP	56	72	2
NMTAP	56	96	4
NMTAP	56	120	3
NMTAP	56	144	4
NMTAP	56	168	3
NMTAP	56	192	5
NMTAP	56	216	4
NMTAP	56	240	5
NMTAP	56	264	4
BRTAP	56	288	3
BRTAP	56	288	6
NMTAP	57	0	5
NMTAP	57	48	4
NMTTP	57	96	0	C	0	M1
NMTAP	57	144	4
NMTAP	57	192	5
NMTTP	57	240	6	E	0	M1
NMTAP	57	288	4
NMTAP	57	336	3
NMTTP	58	0	0	C	0	M1
NMTAP	58	48	2
NMTAP	58	96	3
NMTTP	58	144	2	E	0	M1
NMTAP	58	240	0
NMTAP	58	240	6
NMTAP	58	288	1
NMTAP	58	288	5
NMTAP	58	336	2
NMTAP	58	336	4
NMSTR	59	0	1
NMSUR	59	0	1	96	48	5
NMSTR	59	0	5
NMSUR	59	0	5	96	48	1
NMSTR	59	96	5
NMSLL	59	96	5	96	96	1
NMSTR	59	240	7
NMSCL	59	240	7	96	96	3
CNSI_	59	288	1	0	48	7
NMSTR	59	336	3
NMSCL	59	336	3	96	96	7
NMSTR	60	48	7
NMSUL	60	48	7	96	144	5
NMTAP	60	144	5
NMTAP	60	192	5
NMTAP	60	240	4
NMTAP	60	288	4
NMTAP	60	336	3
NMHLD	61	0	3	96
NMTAP	61	96	0
NMSTR	61	144	1
NMSI_	61	144	1	96	48	5
NMTAP	61	168	2
NMTAP	61	216	2
NMTAP	61	240	1
NMTAP	61	288	4
NMSTR	61	336	6
NMSI_	61	336	6	96	48	0
NMHLD	62	0	0	192
CNSI_	62	96	0	0	48	5
CNSI_	62	144	5	0	48	1
CNSI_	62	192	1	0	48	4
NMTAP	62	288	2
NMTAP	62	288	6
NMSTR	63	0	3
NMSUL	63	0	3	96	48	7
NMSTR	63	0	7
NMSUL	63	0	7	96	48	3
NMSTR	63	96	7
NMSLR	63	96	7	96	96	3
NMSTR	63	240	5
NMSCR	63	240	5	96	96	1
CNSI_	63	288	3	0	48	5
NMSTR	63	336	1
NMSCR	63	336	1	96	48	3
NMTAP	64	48	4
CNSXR	64	96	3	0	192	0
NMTAP	64	96	5
NMTAP	64	144	6
NMTAP	64	192	7
NMTAP	64	240	6
NMSTR	64	288	5
NMSI_	64	288	5	96	48	1
NMTAP	65	0	4
BRTAP	65	0	5
NMHLD	65	96	2	72
NMHLD	65	168	0	72
NMTAP	65	240	7
NMTAP	65	288	6
NMTAP	65	288	7
NMTAP	66	0	5
NMTAP	66	24	4
NMTAP	66	48	6
NMTAP	66	72	4
NMTAP	66	96	7
NMTAP	66	144	2
NMTAP	66	168	3
NMTAP	66	192	1
NMTAP	66	216	3
NMTAP	66	240	0
NMTAP	66	288	6
NMTAP	66	288	7
NMSTR	67	0	1
NMSUR	67	0	1	96	48	5
NMSTR	67	0	5
NMSUR	67	0	5	96	48	1
NMSTR	67	96	1
NMSLL	67	96	1	96	96	5
NMSTR	67	240	3
NMSCL	67	240	3	96	96	7
CNSI_	67	288	5	0	48	3
NMSTR	67	336	7
NMSCL	67	336	7	96	96	3
NMSTR	68	48	3
NMSUL	68	48	3	96	144	1
NMTAP	68	144	1
NMTAP	68	192	1
NMTAP	68	240	0
NMTAP	68	288	0
NMTAP	68	336	7
NMHLD	69	0	7	96
NMTAP	69	96	4
NMSTR	69	144	5
NMSI_	69	144	5	96	48	1
NMTAP	69	168	6
NMTAP	69	216	6
NMTAP	69	240	5
NMTAP	69	288	0
NMSTR	69	336	2
NMSI_	69	336	2	96	48	7
NMHLD	70	0	4	192
CNSI_	70	96	7	0	48	3
CNSI_	70	144	3	0	48	5
CNSI_	70	192	5	0	48	0
NMTAP	70	288	1
NMTAP	70	288	5
NMSTR	71	0	0
NMSUR	71	0	0	96	48	4
NMSTR	71	0	4
NMSUR	71	0	4	96	48	0
NMSTR	71	96	0
NMSLL	71	96	0	96	96	4
NMSTR	71	240	2
NMSCL	71	240	2	96	96	6
CNSI_	71	288	4	0	48	2
NMSTR	71	336	6
NMSUL	71	336	6	96	120	5
NMTAP	72	48	3
NMTAP	72	96	2
NMTAP	72	144	1
CNSCL	72	168	5	0	72	2
NMTAP	72	192	0
NMTAP	72	240	7
NMSTR	72	288	7
NMSCR	72	288	7	96	48	2
NMSTR	73	0	7
NMSCL	73	0	7	96	48	4
NMSTR	73	96	7
BRSUR	73	96	7	96	48	3
NMSTR	73	192	7
BRSUL	73	192	7	96	48	3
NMTAP	73	288	7
NMHLD	74	0	0	48
EXHLD	74	0	2	48
EXHLD	74	96	5	48
NMHLD	74	96	7	48
EXHLD	74	192	3	48
EXHLD	74	192	4	48
NMTAP	74	288	2
NMTAP	74	288	5
NMSTR	75	0	1
NMSCL	75	0	1	96	48	7
EXTAP	75	48	6
NMTAP	75	64	5
NMTAP	75	80	4
NMSTR	75	96	1
NMSCR	75	96	1	96	48	3
EXTAP	75	144	3
NMTAP	75	160	4
NMTAP	75	176	5
NMTAP	75	192	1
EXTAP	75	240	7
NMTAP	75	256	6
NMTAP	75	272	5
NMTAP	75	288	1
NMSTR	76	0	5
NMSCR	76	0	5	96	48	7
EXTAP	76	48	0
NMTAP	76	64	1
NMTAP	76	80	2
NMSTR	76	96	5
NMSCL	76	96	5	96	48	3
EXTAP	76	144	3
NMTAP	76	160	2
NMTAP	76	176	1
NMTAP	76	192	5
EXTAP	76	240	7
NMTAP	76	256	0
NMTAP	76	272	1
NMTAP	76	288	5
NMSTR	77	0	2
NMSCR	77	0	2	96	48	4
EXTAP	77	48	5
NMTAP	77	64	6
NMTAP	77	80	7
NMSTR	77	96	2
NMSCL	77	96	2	96	48	0
EXTAP	77	144	0
NMTAP	77	160	7
NMTAP	77	176	6
NMTAP	77	192	2
EXTAP	77	240	4
NMTAP	77	256	5
NMTAP	77	272	6
NMTAP	77	288	2
NMSTR	78	0	5
NMSV_	78	0	5	96	48	2
NMSTR	78	48	1
NMSCL	78	48	1	96	48	6
NMTAP	78	96	5
NMTAP	78	144	1
NMSTR	78	192	3
NMSI_	78	192	3	96	48	7
NMTAP	78	240	0
NMTAP	78	288	3
NMTAP	79	0	1
NMTAP	79	0	6
NMTAP	79	96	2
NMTAP	79	96	4
NMTAP	79	144	3
NMSTR	79	192	5
NMSI_	79	192	5	96	48	7
NMTAP	79	240	4
NMTAP	79	288	3
NMTAP	79	288	5
NMSTR	79	336	1
NMSI_	79	336	1	96	48	3
NMTAP	80	0	0
NMTAP	80	48	1
NMTAP	80	48	7
NMSTR	80	96	5
NMSI_	80	96	5	96	48	1
NMTAP	80	144	4
NMTAP	80	192	3
NMTAP	80	192	5
NMSTR	80	240	2
NMSI_	80	240	2	96	48	6
NMTAP	80	288	0
NMTAP	80	336	2
NMTAP	80	336	4
NMTAP	81	48	7
NMTAP	81	72	3
NMTAP	81	96	0
NMTAP	81	120	4
NMTAP	81	144	1
NMTAP	81	168	5
NMTAP	81	192	2
NMTAP	81	216	6
NMTAP	81	240	3
NMTAP	81	264	7
NMTAP	81	288	4
NMTAP	81	300	5
NMTAP	81	312	6
NMTAP	81	324	7
NMTAP	81	336	0
NMTAP	81	348	1
NMTAP	81	360	2
NMTAP	81	372	3
NMSTR	82	0	4
NMSUL	82	0	4	96	96	2
NMSTR	82	96	2
NMSCL	82	96	2	96	96	4
EXSTR	82	288	3
NMSF_	82	288	3	96	48	7
NMTTP	83	0	3	A	1	M1

T_REC_TAP	304
T_REC_BRK	10
T_REC_XTP	9
T_REC_BXX	0
T_REC_HLD	26
T_REC_XHO	4
T_REC_BHO	0
T_REC_BXH	0
T_REC_STR	111
T_REC_BST	2
T_REC_XST	2
T_REC_XBS	0
T_REC_TTP	25
T_REC_THO	0
T_REC_SLD	111
T_REC_BSL	4
T_REC_ALL	608
T_NUM_TAP	451
T_NUM_BRK	16
T_NUM_HLD	30
T_NUM_SLD	111
T_NUM_ALL	608
T_JUDGE_TAP	463
T_JUDGE_HLD	94
T_JUDGE_SLD	115
T_JUDGE_ALL	672
TTM_EACHPAIRS	47
TTM_SCR_TAP	225500
TTM_SCR_BRK	41600
TTM_SCR_HLD	30000
TTM_SCR_SLD	166500
TTM_SCR_ALL	463600
TTM_SCR_S	448150
TTM_SCR_SS	462000
TTM_RAT_ACV	10034

