VERSION	0.00.00	1.05.00
FES_MODE	0
BPM_DEF	175.000	175.000	175.000	175.000
MET_DEF	4	4
RESOLUTION	384
CLK_DEF	384
COMPATIBLE_CODE	MA2

BPM	0	0	175.000
MET	0	0	4	4

NMTAP	3	0	2
NMTAP	3	48	2
NMTAP	3	144	4
NMTAP	3	240	5
NMTAP	3	336	3
NMTAP	3	336	6
NMTAP	4	48	5
NMTAP	4	96	5
NMTAP	4	144	4
NMTAP	4	240	2
NMTAP	4	336	1
NMTAP	4	336	4
NMTAP	5	48	2
NMTAP	5	96	2
NMTAP	5	144	3
NMTAP	5	240	5
NMTAP	5	336	3
NMTAP	5	336	6
NMTAP	6	48	5
NMSTR	6	96	5
NMSCL	6	96	5	96	96	2
NMTAP	7	0	1
NMTAP	7	0	3
NMTAP	7	48	1
NMTAP	7	48	3
NMTAP	7	144	2
NMTAP	7	144	4
NMTAP	7	240	3
NMTAP	7	240	5
NMTAP	7	336	4
NMTAP	7	336	6
NMTAP	8	48	3
NMTAP	8	48	5
NMTAP	8	144	2
NMTAP	8	144	4
NMTAP	8	240	1
NMTAP	8	240	3
NMTAP	8	288	1
NMTAP	8	288	3
NMTAP	9	0	0
NMTAP	9	48	0
NMTAP	9	96	2
NMTAP	9	144	2
NMTAP	9	192	3
NMTAP	9	240	3
NMTAP	9	288	5
NMTAP	9	336	5
NMSTR	10	0	4
NMSCL	10	0	4	96	120	1
NMSCR	10	0	4	96	120	7
NMTAP	10	288	1
NMTAP	10	288	7
BRHLD	11	0	2	288
BRTAP	11	0	6
NMTAP	11	288	0
NMHLD	11	336	0	336
NMTAP	12	288	7
NMHLD	12	336	7	336
NMTAP	13	288	5
NMHLD	13	336	5	192
NMTAP	14	144	7
NMTAP	14	288	0
NMTAP	14	288	6
NMHLD	15	0	5	288
NMTAP	15	288	7
NMHLD	15	336	7	336
NMTAP	16	288	0
NMHLD	16	336	0	336
NMTAP	17	288	2
NMHLD	17	336	2	192
NMTAP	18	144	0
NMTAP	18	288	1
NMTAP	18	288	7
NMHLD	19	0	6	288
NMTAP	19	96	7
NMTAP	19	192	7
NMTAP	19	288	1
NMHLD	19	336	1	336
NMTAP	20	96	0
NMTAP	20	192	0
NMTAP	20	288	5
NMHLD	20	336	5	336
NMTAP	21	96	7
NMTAP	21	192	7
NMTAP	21	288	2
NMHLD	21	336	2	144
NMTAP	22	96	7
NMTAP	22	144	7
NMTAP	22	288	0
NMTAP	22	288	1
NMTAP	23	0	6
NMTAP	23	0	7
NMTAP	23	96	5
NMTAP	23	144	5
NMTAP	23	144	7
NMTAP	23	240	2
NMTAP	23	288	0
NMTAP	23	288	2
NMTAP	24	0	3
NMTAP	24	48	3
NMTAP	24	96	4
NMTAP	24	144	4
NMSTR	24	192	1
BRSI_	24	192	1	96	48	4
NMTTP	25	0	5	E	0	M1
NMTTP	25	96	6	E	0	M1
NMTTP	25	192	7	E	0	M1
NMTTP	25	288	0	E	0	M1
NMTTP	26	0	1	E	0	M1
NMTTP	26	96	2	E	0	M1
NMTTP	26	192	3	E	0	M1
NMTTP	26	192	5	E	0	M1
BRSTR	27	0	3
NMSI_	27	0	3	96	96	0
NMHLD	27	96	7	288
CNSI_	27	192	0	0	96	5
NMTAP	28	0	4
NMTAP	28	96	2
NMTAP	28	96	6
NMTAP	28	144	2
NMTAP	28	144	6
NMTAP	28	240	0
NMTAP	28	240	4
NMTAP	28	288	0
NMSTR	28	288	4
NMSXL	28	288	4	96	192	2
NMHLD	29	0	1	288
NMTAP	29	288	0
NMTAP	29	336	0
NMTAP	30	48	2
NMTAP	30	48	3
NMSTR	30	96	2
NMSI_	30	96	2	96	48	7
NMSTR	30	96	3
NMSI_	30	96	3	96	48	6
NMTAP	30	288	0
NMTAP	30	288	5
NMSTR	31	0	4
NMSI_	31	0	4	96	96	7
NMHLD	31	96	0	192
CNSI_	31	192	7	0	96	2
NMTAP	32	0	3
NMTAP	32	48	3
NMTAP	32	96	1
NMTAP	32	144	4
NMTAP	32	192	2
NMTAP	32	240	7
NMSTR	32	288	7
NMSI_	32	288	7	96	48	3
NMSTR	33	96	2
NMSI_	33	96	2	96	48	5
NMTAP	33	288	6
NMTAP	33	288	7
NMTAP	34	0	1
NMTAP	34	24	0
NMTAP	34	48	1
NMTAP	34	144	6
NMTAP	34	168	7
NMTAP	34	192	6
NMTAP	34	288	0
NMTAP	34	288	5
BRSTR	35	0	1
NMSI_	35	0	1	96	96	3
NMHLD	35	96	4	288
CNSI_	35	192	3	0	96	6
NMTAP	36	0	7
NMTAP	36	96	1
NMTAP	36	96	5
NMTAP	36	144	1
NMTAP	36	144	5
NMTAP	36	240	3
NMTAP	36	240	7
NMTAP	36	288	3
NMSTR	36	288	7
NMSXR	36	288	7	96	192	1
NMHLD	37	0	2	288
NMTAP	37	288	3
NMTAP	37	336	3
NMTAP	38	48	0
NMTAP	38	48	1
NMSTR	38	96	0
NMSI_	38	96	0	96	48	5
NMSTR	38	96	1
NMSI_	38	96	1	96	48	4
NMTAP	38	288	3
NMTAP	38	288	6
NMSTR	39	0	7
NMSI_	39	0	7	96	96	4
NMHLD	39	96	3	192
CNSI_	39	192	4	0	96	1
NMTAP	40	0	0
NMTAP	40	48	0
NMTAP	40	96	2
NMTAP	40	144	7
NMTAP	40	192	1
NMTAP	40	240	4
NMTAP	40	288	4
NMTAP	41	0	6
NMHLD	41	0	7	96
NMHLD	41	96	0	72
NMHLD	41	168	1	72
NMTAP	41	240	2
NMTAP	41	288	2
NMTAP	42	0	2
NMTAP	42	0	3
NMTAP	42	48	2
NMTAP	42	48	3
NMTAP	42	96	2
NMTAP	42	96	3
NMSTR	42	192	3
BRSI_	42	192	3	96	48	7
NMTAP	42	192	4
BRTAP	43	0	0
BRHLD	43	0	5	288
NMTAP	43	288	7
NMHLD	43	336	7	336
NMTAP	44	288	0
NMHLD	44	336	0	336
NMTAP	45	288	2
NMHLD	45	336	2	192
NMTAP	46	144	0
NMTAP	46	288	1
NMTAP	46	288	7
NMHLD	47	0	2	288
NMTAP	47	288	0
NMHLD	47	336	0	336
NMTAP	48	288	7
NMHLD	48	336	7	336
NMTAP	49	288	5
NMHLD	49	336	5	192
NMTAP	50	144	7
NMTAP	50	288	0
NMTAP	50	288	6
NMHLD	51	0	1	288
NMTAP	51	96	2
NMTAP	51	192	0
NMTAP	51	288	6
NMHLD	51	336	6	336
NMTAP	52	96	5
NMTAP	52	192	7
NMTAP	52	288	2
NMHLD	52	336	2	336
NMTAP	53	96	1
NMTAP	53	192	3
NMTAP	53	288	5
NMHLD	53	336	5	144
NMTAP	54	96	4
NMTAP	54	144	4
NMTAP	54	240	4
NMTAP	54	240	5
NMTAP	54	288	4
NMTAP	54	288	5
NMTAP	55	0	6
NMTAP	55	0	7
NMTAP	55	96	5
NMTAP	55	144	5
NMTAP	55	144	7
NMTAP	55	240	2
NMTAP	55	288	0
NMTAP	55	288	2
NMTAP	56	0	7
NMTAP	56	48	7
NMTAP	56	96	0
NMTAP	56	144	0
NMSTR	56	192	6
BRSI_	56	192	6	96	48	2
NMTTP	57	0	2	D	0	M1
NMTTP	57	96	1	D	0	M1
NMTTP	57	192	0	D	0	M1
NMTTP	57	288	7	D	0	M1
NMTTP	58	0	6	D	0	M1
NMTTP	58	96	5	D	0	M1
NMTTP	58	192	3	A	0	M1
NMTTP	58	192	4	A	0	M1
NMTTP	58	192	4	D	0	M1
BRSTR	59	0	3
NMSI_	59	0	3	96	64	0
NMTAP	59	96	7
CNSXR	59	160	0	0	128	6
NMTAP	59	192	7
NMTAP	59	288	7
NMTAP	60	0	4
NMTAP	60	0	7
NMTAP	60	96	7
NMTAP	60	144	4
NMTAP	60	192	7
NMSTR	60	288	7
NMSI_	60	288	7	96	72	4
NMTAP	61	0	2
CNSI_	61	72	4	0	48	0
NMTAP	61	96	2
CNSI_	61	120	0	0	72	3
NMTAP	61	192	2
NMTAP	61	288	2
NMTAP	61	288	4
NMTAP	61	336	2
NMTAP	61	336	4
NMTAP	62	48	1
NMTAP	62	48	5
NMSTR	62	96	1
NMSCL	62	96	1	96	48	7
NMSTR	62	96	5
NMSCL	62	96	5	96	48	3
NMTAP	62	288	0
NMTAP	62	288	4
BRSTR	63	0	5
NMSI_	63	0	5	96	48	7
NMTAP	63	96	0
CNSV_	63	144	7	0	72	1
NMTAP	63	192	0
CNSI_	63	216	1	0	72	3
NMTAP	63	288	0
NMTAP	64	0	0
NMTAP	64	48	4
NMTAP	64	96	0
NMTAP	64	144	4
NMTAP	64	192	0
NMSTR	64	288	1
NMSI_	64	288	1	96	48	3
NMSTR	65	0	5
NMSI_	65	0	5	96	48	7
NMSTR	65	96	0
NMSI_	65	96	0	96	48	4
NMTAP	65	192	6
NMTAP	65	288	3
NMTAP	65	288	6
NMTAP	66	0	1
NMTAP	66	24	0
NMTAP	66	48	1
NMTAP	66	72	0
NMTAP	66	96	1
NMTAP	66	144	6
NMTAP	66	168	7
NMTAP	66	192	6
NMTAP	66	216	7
NMTAP	66	240	6
NMTAP	66	288	0
NMTAP	66	288	5
BRSTR	67	0	1
NMSCR	67	0	1	96	72	3
NMTAP	67	96	4
CNSI_	67	168	3	0	72	7
NMTAP	67	192	4
CNSCL	67	240	7	0	48	5
NMTAP	67	288	4
NMTAP	68	0	4
NMTAP	68	0	6
NMTAP	68	96	4
NMTAP	68	144	6
NMTAP	68	192	4
NMSTR	68	288	4
NMSCR	68	288	4	96	48	7
NMTAP	69	0	1
CNSUL	69	48	7	0	72	3
NMTAP	69	96	1
CNSI_	69	120	3	0	72	0
NMTAP	69	192	1
NMTAP	69	288	1
NMTAP	69	288	7
NMTAP	69	336	1
NMTAP	69	336	7
NMTAP	70	48	2
NMTAP	70	48	6
NMSTR	70	96	2
NMSCR	70	96	2	96	48	4
NMSTR	70	96	6
NMSCR	70	96	6	96	48	0
NMTAP	70	288	3
NMTAP	70	288	7
BRSTR	71	0	6
NMSCL	71	0	6	96	72	4
NMTAP	71	96	3
CNSI_	71	168	4	0	72	0
NMTAP	71	192	3
CNSCR	71	240	0	0	48	2
NMTAP	71	288	3
NMTAP	72	0	3
NMTAP	72	48	1
NMTAP	72	96	3
NMTAP	72	144	1
NMTAP	72	192	3
NMTAP	72	288	0
NMTAP	72	288	3
NMHLD	73	0	6	96
NMHLD	73	96	7	72
NMHLD	73	168	0	72
NMTAP	73	240	1
NMTAP	73	288	1
NMTAP	74	0	0
NMTAP	74	0	1
NMTAP	74	48	0
NMTAP	74	48	1
NMTAP	74	96	2
NMTAP	74	96	7
NMTAP	74	144	2
NMTAP	74	144	7
NMSTR	74	192	3
NMSI_	74	192	3	96	48	0
NMSTR	74	192	6
NMSI_	74	192	6	96	48	2
BRTAP	75	0	1
BRHLD	75	0	3	192
NMTAP	75	96	5
NMTAP	75	192	1
NMTAP	75	288	5
NMTAP	75	288	7
NMTAP	75	336	5
NMHLD	75	336	7	240
NMTAP	76	48	1
NMTAP	76	96	1
NMTAP	76	192	5
NMTAP	76	288	4
NMTAP	76	288	6
NMHLD	76	336	4	240
NMTAP	76	336	6
NMTAP	77	48	2
NMTAP	77	96	2
NMTAP	77	192	6
NMTAP	77	288	3
NMTAP	77	288	7
NMTAP	77	336	3
NMTAP	77	336	7
NMTAP	78	48	1
NMTAP	78	48	5
NMSTR	78	96	1
NMSI_	78	96	1	96	48	4
NMSTR	78	96	5
NMSI_	78	96	5	96	48	0
NMTAP	78	288	2
NMTAP	78	288	6
NMTAP	79	0	0
NMHLD	79	48	0	48
NMTAP	79	96	1
NMHLD	79	144	1	48
NMTAP	79	192	3
NMHLD	79	240	3	48
NMTAP	79	288	4
NMHLD	79	336	4	48
NMTAP	80	0	5
NMHLD	80	48	5	48
NMTAP	80	96	7
NMHLD	80	144	7	48
NMTAP	80	192	2
NMHLD	80	240	2	48
NMTAP	80	288	6
NMHLD	80	336	6	48
NMTAP	81	0	1
NMTAP	81	24	5
NMTAP	81	48	1
NMTAP	81	72	5
NMTAP	81	96	1
NMTAP	81	120	5
NMTAP	81	144	1
NMTAP	81	168	5
NMTAP	81	192	0
NMTAP	81	216	6
NMTAP	81	240	0
NMTAP	81	264	6
NMTAP	81	288	0
NMTAP	81	312	6
NMTAP	81	336	0
NMTAP	81	360	6
NMSTR	82	0	7
NMSUR	82	0	7	96	48	3
NMSTR	82	144	5
NMSCR	82	144	5	96	48	0
NMSTR	82	288	1
BRSF_	82	288	1	96	48	5

T_REC_TAP	311
T_REC_BRK	3
T_REC_XTP	0
T_REC_BXX	0
T_REC_HLD	44
T_REC_XHO	0
T_REC_BHO	3
T_REC_BXH	0
T_REC_STR	31
T_REC_BST	6
T_REC_XST	0
T_REC_XBS	0
T_REC_TTP	17
T_REC_THO	0
T_REC_SLD	34
T_REC_BSL	4
T_REC_ALL	453
T_NUM_TAP	359
T_NUM_BRK	16
T_NUM_HLD	44
T_NUM_SLD	34
T_NUM_ALL	453
T_JUDGE_TAP	368
T_JUDGE_HLD	208
T_JUDGE_SLD	38
T_JUDGE_ALL	614
TTM_EACHPAIRS	79
TTM_SCR_TAP	179500
TTM_SCR_BRK	41600
TTM_SCR_HLD	44000
TTM_SCR_SLD	51000
TTM_SCR_ALL	316100
TTM_SCR_S	305100
TTM_SCR_SS	314500
TTM_RAT_ACV	10050

