VERSION	0.00.00	1.05.00
FES_MODE	0
BPM_DEF	175.000	175.000	175.000	175.000
MET_DEF	4	4
RESOLUTION	384
CLK_DEF	384
COMPATIBLE_CODE	MA2

BPM	0	0	175.000
MET	0	0	4	4

NMTAP	3	0	1
NMTAP	3	96	1
NMTAP	3	192	0
NMTAP	3	192	1
NMTAP	4	0	2
NMTAP	4	96	2
NMTAP	4	192	2
NMTAP	4	192	3
NMTAP	5	0	4
NMTAP	5	96	4
NMTAP	5	192	4
NMTAP	5	192	5
NMTAP	6	0	6
NMTAP	6	0	7
NMTAP	6	96	6
NMTAP	6	96	7
NMTAP	6	192	6
NMTAP	6	192	7
NMTAP	7	0	6
NMTAP	7	96	6
NMTAP	7	192	6
NMTAP	7	192	7
NMTAP	8	0	5
NMTAP	8	96	5
NMTAP	8	192	4
NMTAP	8	192	5
NMTAP	9	0	3
NMTAP	9	96	3
NMTAP	9	192	2
NMTAP	9	192	3
NMTAP	10	0	0
NMTAP	10	0	1
NMTAP	10	96	0
NMTAP	10	96	1
NMTAP	10	192	0
NMTAP	10	192	1
NMSTR	11	0	1
NMSI_	11	0	1	96	192	4
NMSTR	12	0	6
NMSI_	12	0	6	96	192	3
NMSTR	13	0	1
NMSI_	13	0	1	96	192	5
NMTAP	14	0	6
NMTAP	14	192	6
NMTAP	14	192	7
NMSTR	15	0	6
NMSI_	15	0	6	96	192	2
NMSTR	16	0	1
NMSV_	16	0	1	96	192	4
NMSTR	17	0	6
NMSUL	17	0	6	96	192	2
NMTAP	18	0	1
NMTAP	18	192	0
NMTAP	18	192	1
NMTTP	19	0	1	B	0	L1
NMTTP	19	96	2	B	0	L1
NMTTP	19	192	3	B	0	L1
NMTTP	20	0	6	B	0	L1
NMTTP	20	96	5	B	0	L1
NMTTP	20	192	4	B	0	L1
NMTTP	21	0	1	B	0	L1
NMTTP	21	96	2	B	0	L1
NMTTP	21	192	3	B	0	L1
NMTTP	21	288	4	B	0	L1
NMTTP	22	0	5	B	0	L1
NMTTP	22	96	6	B	0	L1
NMTTP	22	192	0	C	0	L1
NMTTP	23	0	7	E	0	L1
NMTTP	23	96	6	E	0	L1
NMTTP	23	192	5	E	0	L1
NMTTP	23	288	4	E	0	L1
NMTTP	24	0	3	E	0	L1
NMTTP	24	96	2	E	0	L1
NMTTP	24	192	1	E	0	L1
NMTTP	24	288	0	C	1	L1
NMTAP	27	0	5
NMTAP	27	96	5
NMTAP	27	192	6
NMTAP	27	288	6
NMTAP	28	0	7
NMTAP	28	96	7
NMTAP	28	192	0
NMTAP	28	192	1
NMTAP	29	0	2
NMTAP	29	96	2
NMTAP	29	192	1
NMTAP	29	288	1
NMTAP	30	0	0
NMTAP	30	96	0
NMTAP	30	192	6
NMTAP	30	192	7
NMTAP	31	0	6
NMTAP	31	96	6
NMTAP	31	192	5
NMTAP	31	288	5
NMTAP	32	0	4
NMTAP	32	96	4
NMTAP	32	192	2
NMTAP	32	192	3
NMTAP	33	0	1
NMTAP	33	96	1
NMTAP	33	192	2
NMTAP	33	288	2
NMTAP	34	0	3
NMTAP	34	96	3
NMTAP	34	192	4
NMTAP	34	192	5
NMTAP	35	0	5
NMTAP	35	96	5
NMTAP	35	192	6
NMTAP	35	192	7
NMTAP	35	288	6
NMTAP	35	288	7
NMTAP	36	0	0
NMTAP	36	96	0
NMTAP	36	192	0
NMTAP	36	192	1
NMTAP	37	0	2
NMTAP	37	96	2
NMTAP	37	192	0
NMTAP	37	192	1
NMTAP	37	288	0
NMTAP	37	288	1
NMTAP	38	0	7
NMTAP	38	96	7
BRTAP	38	192	6
BRTAP	38	192	7
NMTAP	39	0	6
NMTAP	39	96	6
NMTAP	39	192	4
NMTAP	39	192	5
NMTAP	39	288	4
NMTAP	39	288	5
NMTAP	40	0	3
NMTAP	40	96	3
NMTAP	40	192	2
NMTAP	40	192	3
NMTAP	41	0	1
NMTAP	41	96	1
NMTAP	41	192	2
NMTAP	41	192	3
NMTAP	41	288	2
NMTAP	41	288	3
NMTAP	42	0	4
NMTAP	42	96	4
NMTAP	42	192	4
NMTAP	42	192	5
NMHLD	43	0	5	192
NMHLD	43	192	4	192
NMHLD	44	0	3	192
NMTAP	44	192	2
NMHLD	45	0	2	192
NMHLD	45	192	3	192
NMHLD	46	0	4	192
NMTAP	46	192	5
NMHLD	47	0	6	192
NMHLD	47	192	5	192
NMHLD	48	0	4	192
NMTAP	48	192	3
NMHLD	49	0	1	192
NMHLD	49	192	2	192
NMHLD	50	0	3	192
NMTAP	50	192	4
NMSTR	51	0	5
NMSI_	51	0	5	96	192	2
NMSTR	52	0	1
NMSI_	52	0	1	96	192	4
NMSTR	53	0	6
NMSI_	53	0	6	96	192	2
NMSTR	54	0	0
NMSI_	54	0	0	96	192	4
NMSTR	55	0	6
NMSI_	55	0	6	96	192	3
NMSTR	56	0	1
NMSI_	56	0	1	96	192	4
NMSTR	57	0	6
NMSSL	57	0	6	96	480	2
EXTAP	59	0	1
EXTAP	59	48	1
EXTAP	59	96	1
NMTAP	59	192	0
NMTAP	59	288	0
NMTAP	60	0	7
NMTAP	60	48	7
NMTAP	60	96	7
NMTAP	60	192	6
NMTAP	60	192	7
NMTAP	61	0	5
NMTAP	61	48	5
NMTAP	61	96	5
NMTAP	61	192	6
NMTAP	61	288	6
NMTAP	62	0	7
NMTAP	62	48	7
NMTAP	62	96	7
NMTAP	62	192	0
NMTAP	62	192	1
NMTAP	63	0	1
NMTAP	63	48	1
NMTAP	63	96	1
NMTAP	63	192	2
NMTAP	63	288	2
NMTAP	64	0	3
NMTAP	64	48	3
NMTAP	64	96	3
NMTAP	64	192	4
NMTAP	64	192	5
NMTAP	65	0	6
NMTAP	65	48	6
NMTAP	65	96	6
NMTAP	65	192	5
NMTAP	65	288	5
NMTAP	66	0	4
NMTAP	66	48	4
NMTAP	66	96	4
NMTAP	66	192	2
NMTAP	66	192	3
NMTAP	67	0	2
NMTAP	67	48	2
NMTAP	67	96	2
NMTAP	67	192	0
NMTAP	67	192	1
NMTAP	67	288	0
NMTAP	67	288	1
NMTAP	68	0	7
NMTAP	68	48	7
NMTAP	68	96	7
NMTAP	68	192	6
NMTAP	68	192	7
NMTAP	69	0	5
NMTAP	69	48	5
NMTAP	69	96	5
NMTAP	69	192	6
NMTAP	69	192	7
NMTAP	69	288	6
NMTAP	69	288	7
NMTAP	70	0	0
NMTAP	70	48	0
NMTAP	70	96	0
BXTAP	70	192	0
BXTAP	70	192	1
NMTAP	71	0	1
NMTAP	71	48	1
NMTAP	71	96	1
NMTAP	71	192	2
NMTAP	71	192	3
NMTAP	71	288	2
NMTAP	71	288	3
NMTAP	72	0	4
NMTAP	72	48	4
NMTAP	72	96	4
NMTAP	72	192	4
NMTAP	72	192	5
NMTAP	73	0	6
NMTAP	73	48	6
NMTAP	73	96	6
NMTAP	73	192	4
NMTAP	73	192	5
NMTAP	73	288	4
NMTAP	73	288	5
NMTAP	74	0	3
NMTAP	74	48	3
NMTAP	74	96	3
NMTAP	74	192	2
NMTAP	74	192	3
NMTAP	75	0	1
NMTAP	75	48	1
NMTAP	75	96	1
NMTAP	75	192	2
NMTAP	75	192	3
NMTAP	75	288	2
NMTAP	75	288	3
NMTAP	76	0	1
NMTAP	76	0	4
NMTAP	76	96	0
NMTAP	76	96	5
NMTAP	76	192	6
NMTAP	76	192	7
NMTAP	77	0	6
NMTAP	77	48	6
NMTAP	77	96	6
NMTAP	77	192	4
NMTAP	77	192	5
NMTAP	77	288	4
NMTAP	77	288	5
NMTAP	78	0	3
NMTAP	78	0	6
NMTAP	78	96	2
NMTAP	78	96	7
NMTAP	78	192	0
NMTAP	78	192	1
NMTAP	79	0	0
NMTAP	79	96	1
NMTAP	79	192	2
NMTAP	79	288	3
NMTAP	80	0	4
NMTAP	80	96	5
NMTAP	80	192	6
NMTAP	80	288	7
NMTAP	81	0	0
NMTAP	81	0	7
NMTAP	81	96	0
NMTAP	81	96	7
NMTAP	81	192	1
NMTAP	81	192	6
NMTAP	81	288	1
NMTAP	81	288	6
NMTAP	82	0	2
NMTAP	82	0	5
NMTAP	82	96	2
NMTAP	82	96	5
NMTAP	82	192	3
NMTAP	82	192	4
BRTAP	83	0	2
BRTAP	83	0	5

T_REC_TAP	247
T_REC_BRK	4
T_REC_XTP	3
T_REC_BXX	2
T_REC_HLD	12
T_REC_XHO	0
T_REC_BHO	0
T_REC_BXH	0
T_REC_STR	13
T_REC_BST	0
T_REC_XST	0
T_REC_XBS	0
T_REC_TTP	21
T_REC_THO	0
T_REC_SLD	13
T_REC_BSL	0
T_REC_ALL	315
T_NUM_TAP	284
T_NUM_BRK	6
T_NUM_HLD	12
T_NUM_SLD	13
T_NUM_ALL	315
T_JUDGE_TAP	290
T_JUDGE_HLD	48
T_JUDGE_SLD	13
T_JUDGE_ALL	351
TTM_EACHPAIRS	64
TTM_SCR_TAP	142000
TTM_SCR_BRK	15600
TTM_SCR_HLD	12000
TTM_SCR_SLD	19500
TTM_SCR_ALL	189100
TTM_SCR_S	182850
TTM_SCR_SS	188500
TTM_RAT_ACV	10031

