VERSION	0.00.00	1.05.00
FES_MODE	0
BPM_DEF	175.000	175.000	175.000	175.000
MET_DEF	4	4
RESOLUTION	384
CLK_DEF	384
COMPATIBLE_CODE	MA2

BPM	0	0	175.000
MET	0	0	4	4

NMTAP	3	0	3
NMTAP	3	192	3
NMTAP	4	0	2
NMTAP	4	192	2
NMTAP	5	0	1
NMTAP	5	192	1
NMTAP	6	0	0
NMTAP	6	0	7
NMTAP	7	0	7
NMTAP	7	192	7
NMTAP	8	0	6
NMTAP	8	192	6
NMTAP	9	0	5
NMTAP	9	192	5
NMTAP	10	0	3
NMTAP	10	0	4
NMHLD	11	0	4	192
NMHLD	11	0	5	192
NMTAP	12	0	4
NMTAP	12	0	5
NMHLD	13	0	6	192
NMHLD	13	0	7	192
NMTAP	14	0	6
NMTAP	14	0	7
NMHLD	15	0	0	192
NMHLD	15	0	1	192
NMTAP	16	0	0
NMTAP	16	0	1
NMHLD	17	0	2	192
NMHLD	17	0	3	192
NMTAP	18	0	2
NMTAP	18	0	3
NMTTP	19	0	2	B	0	L1
NMTTP	20	0	1	B	0	L1
NMTTP	21	0	0	B	0	L1
NMTTP	22	0	7	B	0	L1
NMTTP	23	0	6	B	0	L1
NMTTP	24	0	5	B	0	L1
NMTHO	25	0	0	384	C	0	L1
BRTAP	27	0	0
NMTAP	27	96	0
NMTAP	27	192	0
NMTAP	28	0	1
NMTAP	28	96	1
NMTAP	28	192	1
NMTAP	29	0	2
NMTAP	29	96	2
NMTAP	29	192	2
NMTAP	30	0	2
NMTAP	30	0	3
NMTAP	30	192	2
NMTAP	30	192	3
NMTAP	31	0	4
NMTAP	31	96	4
NMTAP	31	192	4
NMTAP	32	0	5
NMTAP	32	96	5
NMTAP	32	192	5
NMTAP	33	0	6
NMTAP	33	96	6
NMTAP	33	192	6
NMTAP	34	0	6
NMTAP	34	0	7
EXTAP	34	192	6
EXTAP	34	192	7
NMTAP	35	0	7
NMTAP	35	96	7
NMTAP	35	192	7
NMTAP	36	0	6
NMTAP	36	96	6
NMTAP	36	192	6
NMTAP	37	0	5
NMTAP	37	96	5
NMTAP	37	192	5
NMTAP	38	0	3
NMTAP	38	0	4
NMTAP	38	192	3
NMTAP	38	192	4
NMTAP	39	0	3
NMTAP	39	96	3
NMTAP	39	192	3
NMTAP	40	0	2
NMTAP	40	96	2
NMTAP	40	192	2
NMTAP	41	0	1
NMTAP	41	96	1
NMTAP	41	192	1
NMTAP	42	0	0
NMTAP	42	0	7
NMSTR	43	0	0
NMSI_	43	0	0	96	288	4
NMSTR	45	0	5
NMSI_	45	0	5	96	288	0
NMSTR	47	0	1
NMSI_	47	0	1	96	288	5
NMSTR	49	0	6
NMSI_	49	0	6	96	288	2
NMTTP	51	0	0	B	0	L1
NMTTP	51	0	1	B	0	L1
NMTTP	52	0	2	B	0	L1
NMTTP	52	0	3	B	0	L1
NMTTP	53	0	4	B	0	L1
NMTTP	53	0	5	B	0	L1
NMTTP	54	0	6	B	0	L1
NMTTP	54	0	7	B	0	L1
NMTTP	55	0	4	B	0	L1
NMTTP	55	0	5	B	0	L1
NMTTP	55	0	5	E	0	L1
NMTTP	56	0	2	B	0	L1
NMTTP	56	0	3	B	0	L1
NMTTP	56	0	3	E	0	L1
NMTHO	57	0	0	384	C	0	L1
BRTAP	59	0	7
NMTAP	59	96	7
NMTAP	59	192	7
NMTAP	59	288	7
NMTAP	60	0	6
NMTAP	60	96	6
NMTAP	60	192	6
NMTAP	60	192	7
NMTAP	61	0	5
NMTAP	61	96	5
NMTAP	61	192	5
NMTAP	61	288	5
NMTAP	62	0	4
NMTAP	62	96	4
NMTAP	62	192	3
NMTAP	62	192	4
NMTAP	63	0	3
NMTAP	63	96	3
NMTAP	63	192	3
NMTAP	63	288	3
NMTAP	64	0	2
NMTAP	64	96	2
NMTAP	64	192	2
NMTAP	64	192	3
NMTAP	65	0	1
NMTAP	65	96	1
NMTAP	65	192	1
NMTAP	65	288	1
NMTAP	66	0	0
NMTAP	66	96	0
NMTAP	66	192	0
NMTAP	66	192	7
NMTAP	67	0	0
NMTAP	67	96	0
NMTAP	67	192	0
NMTAP	67	288	0
NMTAP	68	0	1
NMTAP	68	96	1
NMTAP	68	192	0
NMTAP	68	192	1
NMTAP	69	0	2
NMTAP	69	96	2
NMTAP	69	192	2
NMTAP	69	288	2
NMTAP	70	0	3
NMTAP	70	96	3
NMTAP	70	192	3
NMTAP	70	192	4
NMTAP	71	0	4
NMTAP	71	96	4
NMTAP	71	192	4
NMTAP	71	288	4
NMTAP	72	0	5
NMTAP	72	96	5
NMTAP	72	192	4
NMTAP	72	192	5
NMTAP	73	0	6
NMTAP	73	96	6
NMTAP	73	192	6
NMTAP	73	288	6
NMTAP	74	0	7
NMTAP	74	96	7
NMTAP	74	192	0
NMTAP	74	192	7
BRTAP	75	0	7
NMTAP	75	96	7
NMTAP	75	192	6
NMTAP	75	288	6
NMTAP	76	0	5
NMTAP	76	96	5
NMTAP	76	192	4
NMTAP	76	192	5
NMTAP	77	0	3
NMTAP	77	96	3
NMTAP	77	192	2
NMTAP	77	288	2
NMTAP	78	0	1
NMTAP	78	96	1
NMTAP	78	192	0
NMTAP	78	192	1
NMTAP	79	0	1
NMTAP	79	96	1
NMTAP	79	192	2
NMTAP	79	288	2
NMTAP	80	0	3
NMTAP	80	96	3
NMTAP	80	192	4
NMTAP	80	288	4
NMTAP	81	0	5
NMTAP	81	96	5
NMTAP	81	192	6
NMTAP	81	288	6
NMTAP	82	0	0
NMTAP	82	0	7
NMTAP	82	96	0
NMTAP	82	96	7
NMTAP	82	192	0
NMTAP	82	192	7
BXTAP	83	0	1
BXTAP	83	0	6

T_REC_TAP	167
T_REC_BRK	3
T_REC_XTP	2
T_REC_BXX	2
T_REC_HLD	8
T_REC_XHO	0
T_REC_BHO	0
T_REC_BXH	0
T_REC_STR	4
T_REC_BST	0
T_REC_XST	0
T_REC_XBS	0
T_REC_TTP	20
T_REC_THO	2
T_REC_SLD	4
T_REC_BSL	0
T_REC_ALL	212
T_NUM_TAP	193
T_NUM_BRK	5
T_NUM_HLD	10
T_NUM_SLD	4
T_NUM_ALL	212
T_JUDGE_TAP	198
T_JUDGE_HLD	48
T_JUDGE_SLD	4
T_JUDGE_ALL	250
TTM_EACHPAIRS	31
TTM_SCR_TAP	96500
TTM_SCR_BRK	13000
TTM_SCR_HLD	10000
TTM_SCR_SLD	6000
TTM_SCR_ALL	125500
TTM_SCR_S	121250
TTM_SCR_SS	125000
TTM_RAT_ACV	10040

