VERSION	0.00.00	1.05.00
FES_MODE	0
BPM_DEF	182.000	182.000	182.000	182.000
MET_DEF	4	4
RESOLUTION	384
CLK_DEF	384
COMPATIBLE_CODE	MA2

BPM	0	0	182.000
MET	0	0	4	4

NMSTR	1	0	1
NMSLL	1	0	1	96	192	3
NMTAP	1	96	7
NMTAP	1	192	6
NMTAP	1	288	5
NMSTR	2	0	4
NMSLL	2	0	4	96	192	6
NMTAP	2	96	2
NMTAP	2	192	1
NMTAP	2	288	0
NMSTR	3	0	7
NMSLL	3	0	7	96	192	1
NMTAP	3	96	5
NMTAP	3	192	4
NMTAP	3	288	3
NMTAP	4	0	0
NMHLD	4	0	4	192
NMTAP	4	96	7
NMSTR	4	192	5
NMSCR	4	192	5	96	48	0
NMSTR	5	0	6
NMSLR	5	0	6	96	192	4
NMTAP	5	96	0
NMTAP	5	192	1
NMTAP	5	288	2
NMSTR	6	0	3
NMSLR	6	0	3	96	192	1
NMTAP	6	96	5
NMTAP	6	192	6
NMTAP	6	288	7
NMSTR	7	0	0
NMSLR	7	0	0	96	192	6
NMTAP	7	96	2
NMTAP	7	192	3
NMTAP	7	288	4
NMTAP	8	0	3
NMTAP	8	0	5
NMTAP	8	96	1
NMTAP	8	96	3
NMTAP	8	192	0
NMTAP	8	192	7
NMTAP	8	240	0
NMTAP	8	240	7
NMTAP	8	288	2
NMTAP	8	288	5
NMHLD	9	0	4	288
NMTAP	9	0	5
NMTAP	9	48	5
NMTAP	9	96	5
NMTAP	9	144	5
NMTAP	9	192	6
NMTAP	9	240	6
EXHLD	9	288	6	384
NMTAP	10	0	4
NMTAP	10	48	4
NMTAP	10	96	4
NMTAP	10	144	4
NMTAP	10	192	5
NMTAP	10	240	5
EXHLD	10	288	5	384
NMTAP	11	0	7
NMTAP	11	48	7
NMTAP	11	96	7
NMTAP	11	144	7
NMTAP	11	192	0
NMTAP	11	240	0
EXHLD	11	288	0	288
NMTAP	12	0	1
NMTAP	12	48	1
NMTAP	12	96	1
NMTAP	12	144	1
NMTAP	12	192	2
NMTAP	12	240	2
EXTAP	12	288	0
EXTAP	12	288	2
NMTAP	13	0	1
EXHLD	13	0	7	96
NMTAP	13	48	1
NMTAP	13	96	1
NMTAP	13	144	1
NMTAP	13	192	1
EXHLD	13	192	5	96
NMTAP	13	240	1
NMTAP	13	288	1
NMTAP	13	336	1
NMTAP	14	0	1
EXHLD	14	0	3	96
NMTAP	14	48	1
NMTAP	14	96	1
NMTAP	14	144	1
NMTAP	14	192	1
EXHLD	14	192	2	96
NMTAP	14	240	1
NMTAP	14	288	1
EXTAP	15	0	0
EXTAP	15	0	4
NMTAP	15	48	0
NMTAP	15	48	4
EXTAP	15	96	1
EXTAP	15	96	5
NMTAP	15	144	1
NMTAP	15	144	5
EXTAP	15	192	2
EXTAP	15	192	6
NMTAP	15	240	2
NMTAP	15	240	6
EXTAP	15	288	3
EXTAP	15	288	7
NMTAP	15	336	3
NMTAP	15	336	7
BXSTR	16	0	0
NMSI_	16	0	0	96	48	5
BXSTR	16	0	4
NMSI_	16	0	4	96	48	1
CNSI_	16	144	1	0	48	6
CNSI_	16	144	5	0	48	2
NMTAP	16	288	1
NMTAP	16	288	5
NMTAP	17	0	0
NMHLD	17	0	7	96
NMHLD	17	96	6	96
NMTAP	17	192	5
NMHLD	17	240	5	96
NMHLD	17	336	4	96
NMTAP	18	48	6
NMSTR	18	96	6
NMSV_	18	96	6	96	48	5
BRHLD	18	192	1	96
CNSI_	18	240	5	0	48	3
NMHLD	19	0	0	96
NMHLD	19	96	1	96
NMTAP	19	192	2
NMHLD	19	240	2	96
NMHLD	19	336	3	96
NMTAP	20	48	1
NMSTR	20	96	1
NMSI_	20	96	1	96	48	4
EXTAP	20	192	4
CNSI_	20	240	4	0	48	1
NMHLD	21	0	2	96
NMTAP	21	0	3
NMHLD	21	96	1	96
NMTAP	21	192	0
NMHLD	21	240	0	96
NMHLD	21	336	7	96
NMTAP	22	48	6
NMSTR	22	96	6
NMSSL	22	96	6	96	96	2
BRHLD	22	192	5	96
NMHLD	23	0	6	96
NMHLD	23	96	0	96
NMTAP	23	192	1
NMHLD	23	240	1	96
NMHLD	23	336	3	96
NMTAP	24	48	4
NMTAP	24	96	4
NMTAP	24	192	1
NMTAP	24	192	5
NMTAP	24	240	6
NMTAP	24	264	7
NMTAP	24	288	6
NMTAP	24	312	7
BRTAP	24	336	6
NMHLD	25	0	4	48
NMHLD	25	0	5	48
NMHLD	25	96	2	48
NMHLD	25	96	3	48
EXTAP	25	192	0
EXHLD	25	192	7	384
NMSTR	25	288	2
NMSI_	25	288	2	96	48	5
NMTAP	25	336	2
NMSTR	26	96	6
NMSI_	26	96	6	96	48	2
NMTAP	26	144	6
EXTAP	26	288	0
EXTAP	26	288	1
NMHLD	27	0	2	48
NMHLD	27	0	4	48
NMHLD	27	96	4	48
NMHLD	27	96	6	48
NMSTR	27	192	0
NMSI_	27	192	0	96	48	3
NMTAP	27	192	7
NMTAP	27	288	5
NMTAP	27	336	5
NMTTP	28	0	3	A	0	M1
NMTTP	28	0	4	E	0	M1
NMTTP	28	0	4	A	0	M1
NMTTP	28	0	4	D	0	M1
NMTTP	28	96	1	B	0	M1
NMTTP	28	96	2	B	0	M1
NMTTP	28	96	5	B	0	M1
NMTTP	28	96	6	B	0	M1
NMTTP	28	192	0	A	0	M1
NMTTP	28	192	0	D	1	M1
NMTTP	28	192	7	A	0	M1
NMHLD	29	0	0	48
NMHLD	29	0	1	48
NMHLD	29	96	6	48
NMHLD	29	96	7	48
EXHLD	29	192	3	384
EXTAP	29	192	4
NMSTR	29	288	5
NMSI_	29	288	5	96	48	2
NMTAP	29	336	5
NMSTR	30	96	1
NMSI_	30	96	1	96	48	5
NMTAP	30	144	1
EXTAP	30	288	4
EXTAP	30	288	5
NMHLD	31	0	4	48
NMHLD	31	0	6	48
NMHLD	31	96	1	48
NMHLD	31	96	3	48
NMSTR	31	192	0
NMSI_	31	192	0	96	48	3
NMSTR	31	192	7
NMSI_	31	192	7	96	48	4
NMTAP	31	288	0
NMTAP	31	288	7
NMTAP	32	0	2
NMTAP	32	0	5
NMTAP	32	48	3
NMTAP	32	48	4
NMTAP	32	96	5
NMTAP	32	144	4
NMTAP	32	144	6
EXHLD	32	192	4	48
EXHLD	32	192	6	48
EXHLD	32	264	1	48
EXHLD	32	264	3	48
BXTAP	32	336	0
BXTAP	32	336	4
NMSTR	33	0	2
NMSI_	33	0	2	96	48	4
NMTAP	33	96	5
NMTAP	33	144	5
NMTAP	33	240	6
NMTAP	33	288	5
NMTAP	33	288	7
NMSTR	33	336	6
NMSI_	33	336	6	96	48	0
NMTAP	34	48	0
NMTAP	34	96	1
NMSTR	34	144	2
NMSI_	34	144	2	96	48	5
NMTAP	34	240	7
NMTAP	34	288	7
NMSTR	35	0	6
NMSI_	35	0	6	96	48	4
NMTAP	35	96	3
NMTAP	35	144	3
NMTAP	35	240	2
NMTAP	35	288	1
NMTAP	35	288	3
NMSTR	35	336	2
NMSI_	35	336	2	96	48	0
NMTAP	36	48	0
NMTAP	36	96	7
NMSTR	36	144	6
NMSI_	36	144	6	96	48	2
NMTAP	36	240	0
BRTAP	36	288	0
NMSTR	37	0	1
NMSI_	37	0	1	96	48	4
NMTAP	37	96	5
NMHLD	37	144	5	96
NMTAP	37	240	4
NMTAP	37	288	5
NMSTR	37	336	4
NMSI_	37	336	4	96	48	0
NMTAP	38	48	7
NMTAP	38	96	7
NMSTR	38	144	6
NMSI_	38	144	6	96	48	2
NMTAP	38	240	3
NMTAP	38	288	3
NMSTR	39	0	1
NMSI_	39	0	1	96	48	4
NMTAP	39	96	5
NMHLD	39	144	6	96
NMTAP	39	240	7
NMTAP	39	288	7
NMTAP	40	0	0
NMTAP	40	0	1
NMTAP	40	48	2
NMTAP	40	48	7
NMTAP	40	96	3
NMTAP	40	96	6
NMTAP	40	144	4
NMTAP	40	144	5
NMTAP	40	240	0
NMTAP	40	240	7
BRTAP	40	288	0
BRTAP	40	288	7
NMSTR	41	0	1
NMSCL	41	0	1	96	96	6
NMSTR	41	96	6
NMSCL	41	96	6	96	96	3
NMSTR	41	192	3
NMSCL	41	192	3	96	96	0
NMTAP	41	288	7
NMHLD	41	336	7	240
NMSTR	42	96	5
NMSUL	42	96	5	96	96	1
NMTAP	42	288	7
NMSTR	43	0	2
NMSI_	43	0	2	96	48	4
NMTAP	43	96	5
NMTAP	43	192	6
NMSTR	43	240	6
NMSI_	43	240	6	96	48	0
NMHLD	43	336	1	96
NMTAP	44	48	3
NMTAP	44	96	3
NMTAP	44	192	5
NMTAP	44	240	4
NMTAP	44	288	3
NMTAP	44	288	6
NMSTR	45	0	5
NMSCR	45	0	5	96	96	0
NMSTR	45	96	0
NMSCR	45	96	0	96	96	3
NMSTR	45	192	3
NMSCR	45	192	3	96	96	6
NMSTR	45	288	6
NMSUR	45	288	6	96	192	1
NMTAP	45	336	6
NMTHO	46	192	0	672	C	0	M1
NMHLD	47	0	7	96
NMTAP	47	192	6
NMTAP	47	240	6
NMTAP	47	336	5
NMTAP	48	48	4
NMTAP	48	96	4
NMTTP	48	192	2	A	0	M1
NMTTP	48	192	3	A	0	M1
NMTTP	48	192	3	D	0	M1
NMTTP	48	192	4	A	0	M1
NMTTP	48	192	4	D	0	M1
BRSTR	49	0	3
NMSF_	49	0	3	96	48	7
BRSTR	49	192	1
NMSI_	49	192	1	96	48	6
BRSTR	49	192	5
NMSI_	49	192	5	96	48	2
NMTAP	49	288	1
NMTAP	49	288	5
BRSTR	50	0	0
NMSUL	50	0	0	96	48	3
BRSTR	50	0	6
NMSI_	50	0	6	96	48	3
NMTAP	50	96	0
NMTAP	50	96	6
NMTAP	50	192	2
NMTAP	50	240	0
NMTAP	50	240	1
NMTAP	50	288	6
NMTAP	50	288	7
NMHLD	50	336	5	96
NMSTR	51	48	4
NMSI_	51	48	4	96	48	0
NMTAP	51	144	4
NMSTR	51	192	5
NMSCR	51	192	5	96	48	1
NMTAP	51	288	5
NMSTR	52	0	2
NMSUL	52	0	2	96	48	6
NMSLL	52	0	2	96	48	6
NMTAP	52	96	2
NMTAP	52	192	5
NMTAP	52	240	3
NMTAP	52	240	4
NMTAP	52	288	2
NMTAP	52	336	0
NMTAP	52	336	1
NMTAP	53	48	0
NMSTR	53	48	7
NMSUL	53	48	7	96	48	3
NMTAP	53	144	7
NMTAP	53	192	1
NMTAP	53	240	2
NMTAP	53	264	3
NMSTR	53	288	2
NMSCL	53	288	2	96	96	6
NMTAP	53	336	5
NMHLD	54	0	5	192
NMTAP	54	192	7
NMTAP	54	288	1
EXTAP	54	336	2
EXTAP	54	336	6
EXTAP	54	360	3
EXTAP	54	360	7
EXSTR	55	0	0
NMSI_	55	0	0	96	48	6
EXSTR	55	0	4
NMSI_	55	0	4	96	48	2
EXHLD	55	192	2	96
EXHLD	55	192	6	96
EXTAP	55	336	1
EXTAP	55	336	5
EXTAP	55	360	0
EXTAP	55	360	4
BXHLD	56	0	3	96
BXHLD	56	0	7	96
EXTAP	56	144	0
EXTAP	56	144	4
EXTAP	56	168	1
EXTAP	56	168	5
BXHLD	56	192	2	96
BXHLD	56	192	6	96
EXTAP	56	336	1
EXTAP	56	336	5
EXTAP	56	360	0
EXTAP	56	360	4
BXTAP	57	0	3
BXTAP	57	0	7
NMSTR	57	96	3
NMSI_	57	96	3	96	48	6
NMSTR	57	96	7
NMSI_	57	96	7	96	48	2
BRTAP	57	192	3
BRTAP	57	192	7
NMTAP	57	288	1
NMTAP	57	288	5
BRSTR	58	0	3
NMSUR	58	0	3	96	48	0
BRSTR	58	0	5
NMSI_	58	0	5	96	48	0
NMTAP	58	96	3
NMTAP	58	96	5
NMTAP	58	192	1
NMTAP	58	240	2
NMTAP	58	240	3
NMTAP	58	288	4
NMTAP	58	288	5
NMHLD	58	336	6	96
NMSTR	59	48	7
NMSI_	59	48	7	96	48	3
NMTAP	59	144	7
NMSTR	59	192	6
NMSCL	59	192	6	96	48	2
NMTAP	59	288	6
NMSTR	60	0	0
NMSUR	60	0	0	96	48	4
NMSV_	60	0	0	96	48	5
NMTAP	60	96	0
NMTAP	60	192	6
NMTAP	60	240	0
NMTAP	60	240	7
NMTAP	60	288	1
NMHLD	60	336	2	96
NMTAP	60	336	3
NMHLD	61	48	1	96
NMTAP	61	144	0
NMHLD	61	192	0	72
NMHLD	61	264	6	72
NMTAP	61	336	4
NMSTR	62	0	4
NMSI_	62	0	4	96	96	1
NMTAP	62	96	0
CNSUL	62	192	1	0	96	5
NMTAP	62	192	6
NMTAP	62	240	5
NMHLD	62	288	4	384
NMTAP	63	0	5
NMTAP	63	96	7
NMTAP	63	192	1
NMTAP	63	240	2
NMTAP	63	288	3
NMTAP	64	0	1
NMTAP	64	24	5
NMTAP	64	48	1
NMTAP	64	72	5
NMTAP	64	96	2
NMTAP	64	120	6
NMTAP	64	144	2
NMTAP	64	168	6
NMTAP	64	192	3
NMTAP	64	216	7
NMTAP	64	240	3
NMTAP	64	264	7
NMSTR	64	288	4
BRSCL	64	288	4	96	144	5
NMTAP	64	312	0
NMTAP	64	336	4
NMTAP	64	360	0
BRTAP	65	0	4
NMTTP	65	192	0	C	1	M1
NMSTR	66	0	7
NMSF_	66	0	7	96	48	3
NMTAP	66	96	7
NMTAP	66	192	5
NMTAP	66	240	6
NMTAP	66	288	3
NMTAP	66	336	2
EXTAP	67	0	0
EXTAP	67	0	1
EXTAP	67	72	6
EXTAP	67	72	7
EXTAP	67	144	4
EXTAP	67	144	5
NMSTR	67	192	5
NMSI_	67	192	5	96	48	2
NMTAP	67	288	1
NMTAP	67	336	1
NMTAP	68	48	0
NMTAP	68	48	6
NMTAP	68	96	1
NMTAP	68	120	7
NMTAP	68	144	1
NMTAP	68	168	6
NMTAP	68	192	0
NMTAP	68	216	6
NMTAP	68	240	1
NMTAP	68	264	7
NMTAP	68	288	1
NMTAP	68	312	6
NMTAP	68	336	0
NMTAP	68	360	6
EXTAP	69	0	1
EXTAP	69	32	2
EXTAP	69	64	3
EXTAP	69	96	6
EXTAP	69	128	5
EXTAP	69	160	4
EXTAP	69	192	2
EXTAP	69	192	3
NMTAP	69	264	2
NMTAP	69	264	3
NMTAP	69	336	2
NMTAP	69	336	3
BRTAP	70	0	0
BRTAP	70	0	5
NMTAP	70	96	4
NMTAP	70	96	6
NMTAP	70	144	4
NMTAP	70	144	6
NMSTR	70	240	7
NMSI_	70	240	7	96	48	3
NMTAP	70	288	0
NMTAP	70	336	1
NMTAP	70	336	7
NMTAP	71	48	1
NMTAP	71	96	2
NMTAP	71	144	3
EXTAP	71	192	4
EXTAP	71	192	5
NMTAP	71	264	4
NMTAP	71	264	5
NMTAP	71	336	4
NMTAP	71	336	5
EXHLD	72	0	3	96
EXTAP	72	96	7
NMTAP	72	112	6
NMTAP	72	128	5
NMTAP	72	144	4
EXHLD	72	192	1	96
EXTAP	72	288	6
NMTAP	72	304	5
NMTAP	72	320	4
NMTAP	72	336	3
EXHLD	73	0	0	72
NMHLD	73	72	2	72
NMHLD	73	144	7	96
EXTAP	73	192	6
NMTAP	73	208	5
NMTAP	73	224	4
NMTAP	73	240	3
NMTAP	73	256	2
NMTAP	73	272	1
BXTAP	73	288	0
NMTAP	74	0	0
NMTAP	74	0	7
NMTAP	74	48	1
NMTAP	74	48	6
NMHLD	74	96	2	192
NMTTP	74	144	1	E	0	M1
NMTTP	74	168	1	B	0	M1
NMTTP	74	192	2	B	0	M1
NMTTP	74	240	7	B	0	M1
NMTTP	74	264	6	B	0	M1
NMTTP	74	288	6	E	0	M1
NMTAP	75	0	3
NMTAP	75	0	4
NMTTP	75	96	1	B	0	M1
NMTTP	75	96	1	E	0	M1
NMTTP	75	128	0	E	0	M1
NMTTP	75	160	2	D	0	M1
NMTTP	75	192	5	B	0	M1
NMTTP	75	192	5	E	0	M1
NMTTP	75	224	4	E	0	M1
NMTTP	75	256	6	D	0	M1
NMTTP	75	288	1	B	0	M1
NMTTP	75	288	1	E	0	M1
NMTTP	75	320	0	E	0	M1
NMTTP	75	352	2	D	0	M1
NMTTP	76	0	6	A	0	M1
NMTTP	76	24	6	D	0	M1
NMTTP	76	48	5	A	0	M1
NMTTP	76	72	5	D	0	M1
NMTTP	76	96	1	A	0	M1
NMTTP	76	120	2	D	0	M1
NMTTP	76	144	2	A	0	M1
NMTTP	76	168	3	D	0	M1
NMTAP	76	192	5
NMSTR	76	240	5
NMSI_	76	240	5	96	48	1
NMTAP	76	336	3
NMSTR	77	0	3
NMSI_	77	0	3	96	48	7
NMSTR	77	96	6
NMSCL	77	96	6	96	96	2
NMTAP	77	144	6
BXTAP	77	192	6
NMTAP	77	288	0
EXTAP	78	0	1
NMTAP	78	32	3
NMTAP	78	64	3
EXSTR	78	96	0
NMSI_	78	96	0	96	48	4
NMTAP	78	128	5
NMTAP	78	160	5
NMTAP	78	192	0
EXSTR	78	288	5
NMSLR	78	288	5	96	96	1
NMTAP	78	336	5
BRTAP	79	0	1
EXSTR	79	96	2
NMSLL	79	96	2	96	96	6
NMTAP	79	144	2
BRTAP	79	192	6
EXSTR	79	288	5
NMSCR	79	288	5	96	96	1
NMTAP	79	336	5
BRTAP	80	0	1
EXTAP	80	96	2
NMTAP	80	144	2
NMTAP	80	240	0
NMTAP	80	240	1
NMTAP	80	288	2
NMTAP	80	288	7
NMTAP	80	336	3
NMTAP	80	336	6
NMTAP	81	0	4
NMTAP	81	0	5
NMTAP	81	48	2
NMTAP	81	72	3
NMTAP	81	96	2
BRHLD	81	144	0	144
BRHLD	81	144	4	144
NMTAP	82	0	1
NMTAP	82	0	5
NMSTR	82	96	1
NMSI_	82	96	1	96	48	3
NMSTR	82	96	5
NMSI_	82	96	5	96	48	3
EXTAP	82	192	1
EXTAP	82	192	5
NMHLD	82	288	2	48
NMHLD	82	288	4	48
NMHLD	83	0	3	48
NMHLD	83	0	5	48
NMSTR	83	96	4
NMSLL	83	96	4	96	96	5
NMSTR	83	96	6
NMSLR	83	96	6	96	96	5
NMTAP	84	0	2
NMTAP	84	0	6
NMSTR	84	96	1
NMSI_	84	96	1	96	48	3
NMSTR	84	96	5
NMSI_	84	96	5	96	48	7
EXTAP	84	192	1
EXTAP	84	192	5
NMHLD	84	288	2	48
NMHLD	84	288	6	48
NMHLD	85	0	1	48
NMHLD	85	0	5	48
NMSTR	85	96	0
NMSV_	85	96	0	96	48	1
NMSTR	85	96	4
NMSV_	85	96	4	96	48	5
CNSI_	85	240	1	0	48	3
CNSI_	85	240	5	0	48	7
EXHLD	86	0	6	192
EXTAP	86	96	5
NMTAP	86	112	4
NMTAP	86	128	3
NMTAP	86	144	2
EXHLD	86	192	0	192
EXTAP	86	288	2
NMTAP	86	304	3
NMTAP	86	320	4
NMTAP	86	336	5
EXHLD	87	0	7	192
EXTAP	87	96	5
NMTAP	87	112	4
NMTAP	87	128	3
NMTAP	87	144	2
EXSTR	87	192	0
NMSI_	87	192	0	96	48	3
NMSI_	87	192	0	96	48	4
BRTAP	87	288	0
EXHLD	88	0	5	192
EXTAP	88	96	6
NMTAP	88	112	7
NMTAP	88	128	0
NMTAP	88	144	1
EXHLD	88	192	3	192
EXTAP	88	288	1
NMTAP	88	304	0
NMTAP	88	320	7
NMTAP	88	336	6
EXHLD	89	0	4	192
EXTAP	89	96	6
NMTAP	89	112	7
NMTAP	89	128	0
NMTAP	89	144	1
EXSTR	89	192	2
NMSI_	89	192	2	96	48	5
NMSI_	89	192	2	96	48	6
BRTAP	89	288	2
NMTAP	90	0	4
NMTAP	90	0	7
NMSTR	90	96	5
NMSI_	90	96	5	96	48	3
NMSTR	90	96	6
NMSI_	90	96	6	96	48	0
EXTAP	90	192	5
EXTAP	90	192	6
NMHLD	90	288	1	48
NMHLD	90	288	2	48
NMHLD	91	0	0	48
NMHLD	91	0	3	48
NMSTR	91	96	4
NMSV_	91	96	4	96	48	5
NMSTR	91	96	7
NMSLR	91	96	7	96	96	3
CNSI_	91	240	5	0	48	7
NMTAP	92	0	4
NMTAP	92	0	6
NMSTR	92	96	1
NMSI_	92	96	1	96	48	3
NMSTR	92	96	3
NMSI_	92	96	3	96	48	7
EXTAP	92	192	1
EXTAP	92	192	3
NMHLD	92	288	2	48
NMHLD	92	288	6	48
NMHLD	93	0	1	48
NMHLD	93	0	5	48
NMSTR	93	96	0
NMSLL	93	96	0	96	96	2
NMSTR	93	96	4
NMSCR	93	96	4	96	48	5
CNSI_	93	240	5	0	48	3
NMSTR	94	0	0
NMSI_	94	0	0	96	48	5
NMTAP	94	0	1
NMTAP	94	48	2
NMTAP	94	96	3
NMSTR	94	144	4
NMSCL	94	144	4	96	48	1
NMTAP	94	240	6
NMSTR	94	288	6
NMSUL	94	288	6	96	48	2
NMTAP	95	0	7
NMSTR	95	48	7
NMSI_	95	48	7	96	48	3
NMTAP	95	144	4
NMSTR	95	192	5
NMSI_	95	192	5	96	48	2
NMTAP	95	288	1
NMSTR	96	0	0
NMSUR	96	0	0	96	48	4
NMTAP	96	48	7
NMTAP	96	96	6
NMSTR	96	144	5
NMSI_	96	144	5	96	48	1
NMTAP	96	240	4
NMTAP	96	288	3
NMTAP	96	336	2
BRTAP	97	48	0
BRTAP	97	48	7
NMTAP	97	144	4
NMTAP	97	144	6
NMTAP	97	192	3
NMTAP	97	192	4
NMTAP	97	240	1
NMTAP	97	240	3
NMSTR	97	288	0
BRSCL	97	288	0	96	1440	1
BRSCR	97	288	0	96	1440	7
BRTAP	98	0	0

T_REC_TAP	357
T_REC_BRK	17
T_REC_XTP	68
T_REC_BXX	6
T_REC_HLD	66
T_REC_XHO	24
T_REC_BHO	4
T_REC_BXH	4
T_REC_STR	79
T_REC_BST	7
T_REC_XST	8
T_REC_XBS	2
T_REC_TTP	43
T_REC_THO	1
T_REC_SLD	98
T_REC_BSL	3
T_REC_ALL	787
T_NUM_TAP	555
T_NUM_BRK	43
T_NUM_HLD	91
T_NUM_SLD	98
T_NUM_ALL	787
T_JUDGE_TAP	587
T_JUDGE_HLD	235
T_JUDGE_SLD	101
T_JUDGE_ALL	923
TTM_EACHPAIRS	137
TTM_SCR_TAP	277500
TTM_SCR_BRK	111800
TTM_SCR_HLD	91000
TTM_SCR_SLD	147000
TTM_SCR_ALL	627300
TTM_SCR_S	604350
TTM_SCR_SS	623000
TTM_RAT_ACV	10069

