VERSION	0.00.00	1.05.00
FES_MODE	0
BPM_DEF	182.000	182.000	182.000	182.000
MET_DEF	4	4
RESOLUTION	384
CLK_DEF	384
COMPATIBLE_CODE	MA2

BPM	0	0	182.000
MET	0	0	4	4

NMHLD	1	0	2	384
NMTAP	1	192	3
NMTAP	1	288	3
NMHLD	2	0	3	384
NMTAP	2	192	4
NMTAP	2	288	4
NMHLD	3	0	4	288
NMTAP	3	192	5
NMTAP	3	288	5
NMTAP	4	0	3
NMTAP	4	96	2
NMTAP	4	96	4
NMTAP	4	192	4
NMTAP	4	288	3
NMTAP	4	288	5
NMHLD	5	0	5	384
NMTAP	5	192	4
NMTAP	5	288	4
NMHLD	6	0	4	384
NMTAP	6	192	3
NMTAP	6	288	3
NMHLD	7	0	3	288
NMTAP	7	192	2
NMTAP	7	288	2
NMTAP	8	0	4
NMTAP	8	96	3
NMTAP	8	96	5
NMTAP	8	192	3
NMTAP	8	288	2
NMTAP	8	288	4
NMHLD	9	0	1	768
NMTTP	9	96	6	E	0	M1
NMTTP	9	192	7	E	0	M1
NMTTP	9	288	0	E	0	M1
NMTTP	10	0	1	E	0	M1
NMTTP	10	96	2	E	0	M1
NMTTP	10	192	3	E	0	M1
NMTTP	10	288	4	E	0	M1
NMHLD	11	0	4	576
NMTTP	11	96	1	E	0	M1
NMTTP	11	192	0	E	0	M1
NMTTP	11	288	7	E	0	M1
NMTTP	12	0	6	E	0	M1
NMTTP	12	96	5	E	0	M1
NMTTP	12	192	4	E	0	M1
EXTAP	12	288	3
EXTAP	12	288	4
NMHLD	13	0	1	384
NMTTP	13	96	2	A	0	M1
NMTTP	13	192	3	E	0	M1
NMTTP	13	288	4	E	0	M1
NMHLD	14	0	6	384
NMTTP	14	96	5	A	0	M1
NMTTP	14	192	5	E	0	M1
NMTTP	14	288	4	E	0	M1
NMHLD	15	0	2	192
NMTTP	15	96	3	E	0	M1
NMHLD	15	192	5	192
NMTTP	15	288	5	E	0	M1
NMHLD	16	0	3	96
NMTAP	16	96	4
BRHLD	16	192	1	96
BRHLD	16	192	6	96
NMSTR	17	0	2
NMSCR	17	0	2	96	96	5
NMTAP	17	192	6
NMHLD	17	240	6	96
NMTAP	17	336	7
NMTAP	18	48	0
NMTAP	18	48	6
NMSTR	18	96	0
NMSSL	18	96	0	96	144	4
NMTAP	18	96	6
NMSTR	19	0	5
NMSCL	19	0	5	96	96	2
NMTAP	19	192	1
NMHLD	19	240	1	96
NMTAP	19	336	0
NMTAP	20	48	1
NMTAP	20	48	7
NMSTR	20	96	1
NMSSL	20	96	1	96	144	5
NMTAP	20	96	7
NMSTR	21	0	6
NMSCR	21	0	6	96	96	1
NMTAP	21	192	2
NMHLD	21	240	2	96
NMTAP	21	336	3
NMTAP	22	48	2
NMTAP	22	48	4
NMTAP	22	96	2
NMSTR	22	96	4
NMSSL	22	96	4	96	144	0
NMSTR	23	0	1
NMSCL	23	0	1	96	96	6
NMTAP	23	192	5
NMHLD	23	240	5	96
NMTAP	23	336	4
NMTAP	24	48	3
NMTAP	24	48	5
NMSTR	24	96	3
NMSV_	24	96	3	96	96	4
NMSTR	24	96	5
NMSV_	24	96	5	96	96	4
CNSI_	24	288	4	0	96	2
CNSI_	24	288	4	0	96	6
NMTAP	25	192	1
NMTAP	25	192	7
NMTAP	25	288	2
NMTAP	25	336	2
NMTAP	26	0	0
NMTAP	26	48	0
NMTAP	26	96	1
NMTAP	26	144	1
NMTAP	26	192	3
NMTAP	26	240	3
NMSTR	26	288	2
NMSUR	26	288	2	96	120	7
NMTAP	27	192	0
NMTAP	27	192	6
NMTAP	27	288	5
NMTAP	27	336	5
NMTAP	28	0	7
NMTAP	28	48	7
NMSTR	28	96	6
NMSCR	28	96	6	96	96	1
NMSTR	28	288	2
NMSUL	28	288	2	96	120	4
NMTAP	29	192	3
NMTAP	29	192	5
NMTAP	29	288	6
NMTAP	29	336	6
NMTAP	30	0	4
NMTAP	30	48	4
NMTAP	30	96	5
NMTAP	30	144	5
NMTAP	30	192	7
NMTAP	30	240	7
NMSTR	30	288	6
NMSUR	30	288	6	96	120	3
NMTAP	31	192	2
NMTAP	31	192	4
NMTAP	31	288	1
NMTAP	31	336	1
NMTAP	32	0	3
NMTAP	32	48	3
NMTAP	32	96	2
NMTAP	32	96	3
BRTAP	32	192	0
BRTAP	32	192	6
NMTAP	33	0	5
NMTAP	33	48	5
NMHLD	33	96	5	192
NMTAP	33	168	4
NMTAP	33	240	3
NMHLD	33	288	3	192
NMTAP	33	360	4
NMTAP	34	48	5
NMHLD	34	96	5	144
NMTAP	34	168	4
NMTAP	34	240	3
NMTAP	34	288	3
NMTAP	34	288	5
NMTAP	35	0	2
NMTAP	35	48	2
NMHLD	35	96	2	192
NMTAP	35	168	3
NMTAP	35	240	4
NMHLD	35	288	4	192
NMTAP	35	360	3
NMTAP	36	48	2
NMHLD	36	96	2	144
NMTAP	36	168	3
NMTAP	36	240	4
NMTAP	36	288	2
NMTAP	36	288	4
NMTAP	37	0	6
NMTAP	37	48	6
NMHLD	37	96	6	192
NMTAP	37	168	7
NMTAP	37	240	0
NMHLD	37	288	0	192
NMTAP	37	360	7
NMTAP	38	48	6
NMHLD	38	96	6	144
NMTAP	38	168	7
NMTAP	38	240	0
NMTAP	38	288	0
NMTAP	38	288	6
NMTAP	39	0	1
NMTAP	39	48	1
NMHLD	39	96	1	192
NMTAP	39	168	0
NMTAP	39	240	7
NMHLD	39	288	7	192
NMTAP	39	360	0
NMTAP	40	48	1
NMHLD	40	96	1	72
NMTAP	40	168	0
NMTAP	40	240	2
NMTAP	40	240	7
NMTAP	40	288	2
NMTAP	40	288	7
NMTAP	41	0	0
NMTAP	41	48	0
NMTAP	41	96	1
NMTAP	41	96	7
NMHLD	41	168	6	72
NMTAP	41	240	7
NMTAP	41	288	0
NMTAP	41	288	6
NMHLD	41	360	1	72
NMTAP	42	48	0
NMTAP	42	96	1
NMTAP	42	96	7
NMHLD	42	168	6	72
NMTAP	42	240	7
NMTAP	42	288	0
NMTAP	42	288	6
NMTAP	43	0	3
NMTAP	43	48	3
NMTAP	43	96	2
NMTAP	43	96	4
NMHLD	43	168	5	72
NMTAP	43	240	4
NMTAP	43	288	3
NMTAP	43	288	5
NMHLD	43	360	2	72
NMTAP	44	48	3
NMTAP	44	96	2
NMTAP	44	96	4
NMHLD	44	168	5	72
NMTAP	44	240	4
NMTAP	44	288	3
NMTAP	44	288	5
NMTAP	45	0	2
NMSTR	45	0	6
NMSUL	45	0	6	96	288	3
NMSTR	46	0	1
NMSXR	46	0	1	96	288	4
NMSTR	47	0	7
NMSXL	47	0	7	96	288	3
NMSTR	48	0	1
NMSCL	48	0	1	96	288	2
NMTTP	49	0	0	E	1	M1
NMSTR	49	288	2
NMSI_	49	288	2	96	48	7
NMTAP	49	288	3
NMSTR	50	0	4
NMSI_	50	0	4	96	48	0
NMTAP	50	192	1
NMTAP	50	240	1
NMTAP	50	288	7
NMTAP	50	336	7
NMTAP	51	48	0
NMTAP	51	48	6
NMTAP	51	144	2
NMTAP	51	144	3
NMTAP	51	192	2
NMTAP	51	192	3
NMTAP	51	288	4
NMSTR	51	288	5
NMSI_	51	288	5	96	48	0
NMSTR	52	0	3
NMSI_	52	0	3	96	48	7
NMTAP	52	192	6
NMTAP	52	240	6
NMTAP	52	288	0
NMHLD	52	336	0	96
NMTAP	53	48	5
NMTAP	53	144	6
NMTAP	53	144	7
NMTAP	53	192	6
NMTAP	53	192	7
NMTAP	53	264	0
NMTAP	53	264	5
NMTAP	53	336	1
NMTAP	53	336	4
NMHLD	54	0	1	288
NMSTR	54	0	4
NMSCL	54	0	4	96	144	0
NMTAP	54	336	6
NMSTR	55	0	3
NMSCR	55	0	3	96	144	7
NMHLD	55	0	6	288
NMTAP	55	336	1
NMHLD	56	0	1	192
NMTAP	56	96	3
NMTAP	56	144	4
NMHLD	56	192	5	192
NMTAP	56	288	7
NMTAP	56	336	0
NMHLD	57	0	1	192
NMTAP	57	96	3
NMTAP	57	144	4
NMTAP	57	192	5
NMTAP	57	288	2
NMSTR	57	288	5
NMSI_	57	288	5	96	48	0
NMSTR	58	0	3
NMSI_	58	0	3	96	48	7
NMTAP	58	192	6
NMTAP	58	240	6
NMTAP	58	288	0
NMTAP	58	336	0
NMTAP	59	48	1
NMTAP	59	48	7
NMTAP	59	144	4
NMTAP	59	144	5
NMTAP	59	192	4
NMTAP	59	192	5
NMSTR	59	288	2
NMSI_	59	288	2	96	48	7
NMTAP	59	288	3
NMSTR	60	0	4
NMSI_	60	0	4	96	48	0
NMTAP	60	192	1
NMTAP	60	240	1
NMTAP	60	288	7
NMHLD	60	336	7	96
NMTAP	61	48	0
NMTAP	61	144	0
NMTAP	61	144	6
NMTAP	61	192	0
NMTAP	61	192	6
NMTAP	61	264	1
NMTAP	61	264	5
NMTAP	61	336	2
NMTAP	61	336	4
BRTAP	62	0	2
BRTAP	62	0	4
NMTAP	62	96	6
NMTAP	62	144	6
NMTAP	62	192	4
NMTAP	62	240	4
NMTAP	62	288	5
NMTAP	62	336	5
NMTAP	63	0	2
NMTAP	63	48	2
NMTAP	63	96	3
NMTAP	63	144	3
NMTAP	63	192	1
NMTAP	63	240	1
NMTAP	63	288	5
NMTAP	63	336	5
NMTAP	64	0	0
NMTAP	64	24	6
NMTAP	64	48	0
NMTAP	64	72	6
NMTAP	64	96	0
NMTAP	64	120	6
NMTAP	64	144	0
NMTAP	64	168	6
NMTAP	64	192	0
NMTAP	64	216	6
NMTAP	64	240	0
NMTAP	64	264	6
NMSTR	64	288	7
NMSF_	64	288	7	96	192	3
NMTAP	65	288	2
NMTAP	65	288	4
NMTTP	66	0	1	B	0	M1
NMTTP	66	0	1	E	0	M1
NMTTP	66	0	2	E	0	M1
NMTTP	66	0	5	B	0	M1
NMTTP	66	0	5	E	0	M1
NMTTP	66	0	6	E	1	M1
NMTAP	66	192	0
NMTAP	66	240	0
NMTAP	66	288	7
NMTAP	66	336	1
NMHLD	67	0	1	72
NMHLD	67	72	2	72
NMTAP	67	144	3
NMTAP	67	192	3
NMTAP	67	288	4
NMTAP	67	288	5
NMTAP	67	336	4
NMHLD	67	336	5	96
NMTAP	68	48	7
NMTAP	68	96	7
NMTAP	68	144	6
NMTAP	68	192	0
NMTAP	68	240	7
NMTAP	68	288	1
NMTAP	68	336	0
NMTAP	69	0	2
NMTAP	69	48	2
NMTAP	69	96	4
NMTAP	69	144	4
NMTAP	69	192	3
NMTAP	69	192	5
NMTAP	69	264	2
NMTAP	69	264	6
NMTAP	69	336	1
NMTAP	69	336	7
BRTAP	70	0	1
BRTAP	70	0	7
NMTAP	70	96	0
NMTAP	70	96	6
NMTAP	70	144	0
NMTAP	70	144	6
NMTAP	70	240	4
NMTAP	70	240	5
NMTAP	70	336	2
NMTAP	70	336	3
NMTAP	71	48	1
NMTAP	71	96	1
NMTAP	71	144	0
NMHLD	71	192	0	72
NMHLD	71	264	7	72
NMTAP	71	336	6
NMSTR	72	0	0
NMSV_	72	0	0	96	48	3
NMSTR	72	0	6
NMSV_	72	0	6	96	48	3
NMSTR	72	192	1
NMSV_	72	192	1	96	48	4
NMSTR	72	192	7
NMSV_	72	192	7	96	48	4
NMHLD	73	0	5	72
NMHLD	73	72	6	72
NMTAP	73	144	7
NMSTR	73	192	7
NMSUL	73	192	7	96	96	2
BRTAP	74	0	0
NMTAP	74	96	1
NMTAP	74	144	1
NMTAP	74	192	3
NMTAP	74	240	3
NMTAP	74	288	7
NMTAP	74	336	7
NMTAP	75	0	6
NMTAP	75	48	6
NMTAP	75	96	4
NMTAP	75	144	4
NMTAP	75	192	0
NMTAP	75	240	0
NMSTR	75	288	1
NMSI_	75	288	1	96	48	3
NMSTR	76	0	7
NMSI_	76	0	7	96	48	5
NMSTR	76	96	0
NMSI_	76	96	0	96	48	4
NMSTR	76	192	7
NMSI_	76	192	7	96	48	3
NMSTR	76	288	0
NMSI_	76	288	0	96	48	2
NMSTR	77	0	6
NMSI_	77	0	6	96	48	4
NMSTR	77	96	1
NMSXR	77	96	1	96	192	5
NMHLD	78	0	6	96
NMHLD	78	96	4	96
NMHLD	78	192	3	96
NMHLD	78	288	1	96
NMHLD	79	0	7	96
NMHLD	79	96	5	96
NMHLD	79	192	3	96
NMSTR	79	288	1
NMSI_	79	288	1	96	48	5
NMSCL	79	288	1	96	48	7
NMSTR	80	96	6
NMSCL	80	96	6	96	48	4
NMSUL	80	96	6	96	48	2
NMTAP	80	288	1
NMTAP	80	288	3
NMTAP	81	0	2
NMTAP	81	0	4
NMSTR	81	48	2
NMSXR	81	48	2	96	168	7
NMSTR	81	48	4
NMSXL	81	48	4	96	168	7
BRHLD	82	0	0	672
BRTAP	82	0	6
NMSTR	82	192	5
NMSI_	82	192	5	96	96	7
CNSI_	83	0	7	0	96	3
CNSI_	83	96	3	0	96	1
NMTAP	83	288	7
NMTAP	84	0	1
NMHLD	84	0	7	672
NMSTR	84	192	2
NMSCL	84	192	2	96	96	0
CNSUR	85	0	0	0	96	4
CNSCR	85	96	4	0	96	6
NMTAP	85	288	0
NMTAP	86	0	0
NMTAP	86	0	6
NMTAP	86	96	2
NMTAP	86	120	3
NMTAP	86	144	2
NMTAP	86	192	1
NMTAP	86	192	7
NMTAP	86	288	5
NMTAP	86	312	4
NMTAP	86	336	5
NMTAP	87	0	0
NMTAP	87	0	6
NMTAP	87	96	2
NMTAP	87	120	3
NMTAP	87	144	2
NMSTR	87	192	1
NMSI_	87	192	1	96	48	4
NMSTR	87	192	4
NMSI_	87	192	4	96	48	7
NMTAP	88	0	3
NMTAP	88	0	6
NMTAP	88	96	1
NMTAP	88	120	0
NMTAP	88	144	1
NMTAP	88	192	2
NMTAP	88	192	4
NMTAP	88	288	6
NMTAP	88	312	7
NMTAP	88	336	6
NMTAP	89	0	3
NMTAP	89	0	5
NMTAP	89	96	1
NMTAP	89	120	0
NMTAP	89	144	1
NMSTR	89	192	2
NMSCL	89	192	2	96	48	7
NMSTR	89	192	7
NMSI_	89	192	7	96	48	3
BRTAP	90	0	0
BRHLD	90	0	4	672
NMSTR	90	192	2
NMSI_	90	192	2	96	96	0
CNSV_	91	0	0	0	96	7
CNSI_	91	96	7	0	96	5
NMTAP	91	288	3
NMHLD	92	0	3	672
NMTAP	92	0	6
NMSTR	92	192	5
NMSCR	92	192	5	96	96	7
CNSUL	93	0	7	0	96	0
CNSCR	93	96	0	0	96	2
NMTAP	93	288	4
NMTAP	94	0	6
NMTAP	94	0	7
NMTAP	94	96	0
NMTAP	94	96	5
NMHLD	94	168	1	72
NMTAP	94	240	0
NMTAP	94	288	2
NMTAP	94	288	7
NMHLD	94	360	6	72
NMTAP	95	48	7
NMTAP	95	96	0
NMTAP	95	96	5
NMHLD	95	168	1	72
NMTAP	95	240	0
NMTAP	95	288	3
NMTAP	95	288	7
NMTAP	96	0	4
NMTAP	96	0	5
NMTAP	96	96	3
NMTAP	96	96	6
NMHLD	96	168	2	72
NMTAP	96	240	3
NMTAP	96	288	1
NMTAP	96	288	4
NMHLD	96	360	5	72
NMTAP	97	48	4
NMTAP	97	96	3
NMTAP	97	96	6
NMHLD	97	168	2	72
NMTAP	97	240	3
NMTAP	97	288	0
NMTAP	97	288	4
BRSTR	98	0	2
BRSI_	98	0	2	96	416	0
BRSTR	98	0	6
NMSI_	98	0	6	96	416	4
CNSV_	99	128	0	0	512	3
CNSV_	99	128	4	0	512	7
CNSLL	100	256	3	0	512	7
CNSLL	100	256	7	0	512	3

T_REC_TAP	348
T_REC_BRK	9
T_REC_XTP	2
T_REC_BXX	0
T_REC_HLD	64
T_REC_XHO	0
T_REC_BHO	4
T_REC_BXH	0
T_REC_STR	52
T_REC_BST	2
T_REC_XST	0
T_REC_XBS	0
T_REC_TTP	28
T_REC_THO	0
T_REC_SLD	55
T_REC_BSL	1
T_REC_ALL	565
T_NUM_TAP	430
T_NUM_BRK	16
T_NUM_HLD	64
T_NUM_SLD	55
T_NUM_ALL	565
T_JUDGE_TAP	441
T_JUDGE_HLD	289
T_JUDGE_SLD	56
T_JUDGE_ALL	786
TTM_EACHPAIRS	94
TTM_SCR_TAP	215000
TTM_SCR_BRK	41600
TTM_SCR_HLD	64000
TTM_SCR_SLD	82500
TTM_SCR_ALL	403100
TTM_SCR_S	389500
TTM_SCR_SS	401500
TTM_RAT_ACV	10039

