VERSION	0.00.00	1.05.00
FES_MODE	0
BPM_DEF	182.000	182.000	182.000	182.000
MET_DEF	4	4
RESOLUTION	384
CLK_DEF	384
COMPATIBLE_CODE	MA2

BPM	0	0	182.000
MET	0	0	4	4

NMTAP	1	0	1
NMTAP	1	96	1
NMTAP	1	192	1
NMTAP	2	0	2
NMTAP	2	96	2
NMTAP	2	192	2
NMTAP	3	0	3
NMTAP	3	96	3
NMTAP	3	192	3
NMTAP	4	0	4
NMTAP	4	0	5
NMTAP	4	192	4
NMTAP	4	192	5
NMTAP	5	0	6
NMTAP	5	96	6
NMTAP	5	192	6
NMTAP	6	0	5
NMTAP	6	96	5
NMTAP	6	192	5
NMTAP	7	0	4
NMTAP	7	96	4
NMTAP	7	192	4
NMTAP	8	0	2
NMTAP	8	0	3
NMTAP	9	0	3
NMTAP	9	96	3
NMTAP	9	192	2
NMTAP	10	0	1
NMTAP	10	96	1
NMTAP	10	192	0
NMTAP	11	0	7
NMTAP	11	96	7
NMTAP	11	192	6
NMTAP	12	0	5
NMTAP	12	96	5
NMTAP	12	192	4
NMTAP	12	192	5
NMTAP	13	0	4
NMTAP	13	96	4
NMTAP	13	192	5
NMTAP	14	0	6
NMTAP	14	96	6
NMTAP	14	192	7
NMTAP	15	0	0
NMTAP	15	96	0
NMTAP	15	192	1
NMTAP	16	0	2
NMTAP	16	96	2
NMTAP	16	192	2
NMTAP	16	192	3
NMHLD	17	0	2	192
NMHLD	17	192	3	192
NMHLD	18	0	4	192
NMTAP	18	192	5
NMHLD	19	0	5	192
NMHLD	19	192	4	192
NMHLD	20	0	3	192
NMTAP	20	192	2
NMHLD	21	0	1	192
NMHLD	21	192	2	192
NMHLD	22	0	3	192
NMTAP	22	192	4
NMHLD	23	0	6	192
NMHLD	23	192	5	192
NMHLD	24	0	4	192
NMTAP	24	192	3
NMSTR	25	0	5
NMSI_	25	0	5	96	192	2
NMSTR	26	0	1
NMSI_	26	0	1	96	192	4
NMSTR	27	0	6
NMSI_	27	0	6	96	192	3
NMTAP	28	0	2
NMTAP	28	192	2
NMTAP	28	192	3
NMSTR	29	0	1
NMSI_	29	0	1	96	192	5
NMSTR	30	0	7
NMSI_	30	0	7	96	192	3
NMSTR	31	0	2
NMSI_	31	0	2	96	192	7
NMTAP	32	0	6
NMTAP	32	192	0
NMTAP	32	192	7
NMTAP	33	0	6
NMTAP	33	96	6
NMTAP	33	192	6
NMTAP	33	192	7
NMTAP	34	0	5
NMTAP	34	96	5
NMTAP	34	192	4
NMTAP	34	192	5
NMTAP	35	0	3
NMTAP	35	96	3
NMTAP	35	192	2
NMTAP	35	192	3
NMTAP	36	0	0
NMTAP	36	0	1
NMTAP	36	96	0
NMTAP	36	96	1
NMTAP	36	192	0
NMTAP	36	192	1
NMTAP	37	0	1
NMTAP	37	96	1
NMTAP	37	192	0
NMTAP	37	192	1
NMTAP	38	0	2
NMTAP	38	96	2
NMTAP	38	192	2
NMTAP	38	192	3
NMTAP	39	0	4
NMTAP	39	96	4
NMTAP	39	192	4
NMTAP	39	192	5
NMTAP	40	0	6
NMTAP	40	0	7
NMTAP	40	96	6
NMTAP	40	96	7
NMTAP	40	192	6
NMTAP	40	192	7
NMTTP	41	0	6	B	0	L1
NMTTP	41	96	5	B	0	L1
NMTTP	41	192	4	B	0	L1
NMTTP	42	0	1	B	0	L1
NMTTP	42	96	2	B	0	L1
NMTTP	42	192	3	B	0	L1
NMTTP	43	0	6	B	0	L1
NMTTP	43	96	5	B	0	L1
NMTTP	43	192	4	B	0	L1
NMTTP	43	288	3	B	0	L1
NMTTP	44	0	2	B	0	L1
NMTTP	44	96	1	B	0	L1
NMTTP	44	192	0	C	0	L1
NMTTP	45	0	6	B	0	L1
NMTTP	45	0	7	B	0	L1
NMTTP	45	192	0	B	0	L1
NMTTP	45	192	1	B	0	L1
NMTTP	46	0	2	B	0	L1
NMTTP	46	0	3	B	0	L1
NMTTP	46	192	4	B	0	L1
NMTTP	46	192	5	B	0	L1
NMTTP	47	0	7	B	0	L1
NMTTP	47	96	6	B	0	L1
NMTTP	47	192	5	B	0	L1
NMTTP	47	288	4	B	0	L1
NMTTP	48	0	3	B	0	L1
NMTTP	48	96	2	B	0	L1
NMTTP	48	192	1	B	0	L1
NMTTP	48	288	0	B	0	L1
NMTTP	49	0	0	C	1	L1
BXTAP	50	0	1
EXTAP	50	96	1
NMTAP	50	192	0
NMTAP	50	288	0
NMTAP	51	0	7
NMTAP	51	96	7
NMTAP	51	192	6
NMTAP	51	192	7
NMTAP	52	0	5
NMTAP	52	96	5
NMTAP	52	192	6
NMTAP	52	288	6
NMTAP	53	0	7
NMTAP	53	96	7
NMTAP	53	192	0
NMTAP	53	192	1
NMTAP	54	0	1
NMTAP	54	96	1
NMTAP	54	192	2
NMTAP	54	288	2
NMTAP	55	0	3
NMTAP	55	96	3
NMTAP	55	192	4
NMTAP	55	192	5
NMTAP	56	0	6
NMTAP	56	96	6
NMTAP	56	192	5
NMTAP	56	288	5
NMTAP	57	0	4
NMTAP	57	96	4
NMTAP	57	192	2
NMTAP	57	192	3
NMTAP	58	0	2
NMTAP	58	96	2
NMTAP	58	192	0
NMTAP	58	192	1
NMTAP	58	288	0
NMTAP	58	288	1
NMTAP	59	0	7
NMTAP	59	96	7
NMTAP	59	192	6
NMTAP	59	192	7
NMTAP	60	0	5
NMTAP	60	96	5
NMTAP	60	192	6
NMTAP	60	192	7
NMTAP	60	288	6
NMTAP	60	288	7
NMTAP	61	0	0
NMTAP	61	96	0
NMTAP	61	192	0
NMTAP	61	192	1
NMTAP	62	0	1
NMTAP	62	96	1
NMTAP	62	192	2
NMTAP	62	192	3
NMTAP	62	288	2
NMTAP	62	288	3
NMTAP	63	0	4
NMTAP	63	96	4
NMTAP	63	192	4
NMTAP	63	192	5
NMTAP	64	0	6
NMTAP	64	96	6
NMTAP	64	192	4
NMTAP	64	192	5
NMTAP	64	288	4
NMTAP	64	288	5
NMTAP	65	0	3
NMTAP	65	96	3
NMTAP	65	192	2
NMTAP	65	192	3
NMTAP	66	0	2
NMTAP	66	48	2
NMTAP	66	96	2
NMTAP	66	192	1
NMTAP	66	288	1
NMTAP	67	0	0
NMTAP	67	48	0
NMTAP	67	96	0
NMTAP	67	192	6
NMTAP	67	192	7
NMTAP	68	0	5
NMTAP	68	48	5
NMTAP	68	96	5
NMTAP	68	192	6
NMTAP	68	288	6
NMTAP	69	0	7
NMTAP	69	48	7
NMTAP	69	96	7
NMTAP	69	192	0
NMTAP	69	192	1
NMTAP	70	0	1
NMTAP	70	48	1
NMTAP	70	96	1
NMTAP	70	192	2
NMTAP	70	288	2
NMTAP	71	0	3
NMTAP	71	48	3
NMTAP	71	96	3
NMTAP	71	192	4
NMTAP	71	192	5
NMTAP	72	0	6
NMTAP	72	48	6
NMTAP	72	96	6
NMTAP	72	192	5
NMTAP	72	288	5
NMTAP	73	0	4
NMTAP	73	48	4
NMTAP	73	96	4
NMTAP	73	192	2
NMTAP	73	192	3
NMTAP	74	0	2
NMTAP	74	48	2
NMTAP	74	96	2
NMTAP	74	192	0
NMTAP	74	192	1
NMTAP	74	288	0
NMTAP	74	288	1
NMTAP	75	0	7
NMTAP	75	48	7
NMTAP	75	96	7
NMTAP	75	192	6
NMTAP	75	192	7
NMTAP	76	0	5
NMTAP	76	48	5
NMTAP	76	96	5
NMTAP	76	192	6
NMTAP	76	192	7
NMTAP	76	288	6
NMTAP	76	288	7
NMTAP	77	0	0
NMTAP	77	48	0
NMTAP	77	96	0
NMTAP	77	192	0
NMTAP	77	192	1
NMTAP	78	0	1
NMTAP	78	48	1
NMTAP	78	96	1
NMTAP	78	192	2
NMTAP	78	192	3
NMTAP	78	288	2
NMTAP	78	288	3
NMTAP	79	0	4
NMTAP	79	48	4
NMTAP	79	96	4
NMTAP	79	192	4
NMTAP	79	192	5
NMTAP	80	0	6
NMTAP	80	48	6
NMTAP	80	96	6
NMTAP	80	192	4
NMTAP	80	192	5
NMTAP	80	288	4
NMTAP	80	288	5
NMTAP	81	0	3
NMTAP	81	48	3
NMTAP	81	96	3
BRTAP	81	192	2
BRTAP	81	192	3
NMHLD	82	0	1	192
NMTAP	82	192	0
NMTAP	83	0	0
NMTAP	83	0	1
NMTAP	83	96	0
NMTAP	83	96	1
NMTAP	83	192	0
NMTAP	83	192	1
NMHLD	84	0	2	192
NMTAP	84	192	3
NMTAP	85	0	2
NMTAP	85	0	3
NMTAP	85	96	2
NMTAP	85	96	3
NMTAP	85	192	2
NMTAP	85	192	3
NMTAP	86	0	4
NMTAP	86	96	5
NMTAP	86	192	6
NMTAP	86	288	7
NMTAP	87	0	0
NMTAP	87	96	1
NMTAP	87	192	2
NMTAP	87	192	3
NMTAP	88	0	3
NMTAP	88	96	2
NMTAP	88	192	1
NMTAP	88	288	0
NMTAP	89	0	7
NMTAP	89	96	6
NMTAP	89	192	4
NMTAP	89	192	5
NMHLD	90	0	5	192
NMTAP	90	192	4
NMTAP	91	0	4
NMTAP	91	0	5
NMTAP	91	96	4
NMTAP	91	96	5
NMTAP	91	192	4
NMTAP	91	192	5
NMHLD	92	0	6	192
NMTAP	92	192	7
NMTAP	93	0	6
NMTAP	93	0	7
NMTAP	93	96	6
NMTAP	93	96	7
NMTAP	93	192	6
NMTAP	93	192	7
NMTAP	94	0	0
NMTAP	94	96	1
NMTAP	94	192	2
NMTAP	94	288	3
NMTAP	95	0	4
NMTAP	95	96	5
NMTAP	95	192	6
NMTAP	95	192	7
NMTAP	96	0	7
NMTAP	96	96	6
NMTAP	96	192	5
NMTAP	96	288	4
NMTAP	97	0	3
NMTAP	97	96	2
NMTAP	97	192	0
NMTAP	97	192	1
EXHLD	98	0	0	1536
EXHLD	98	0	7	1536

T_REC_TAP	312
T_REC_BRK	2
T_REC_XTP	1
T_REC_BXX	1
T_REC_HLD	16
T_REC_XHO	2
T_REC_BHO	0
T_REC_BXH	0
T_REC_STR	6
T_REC_BST	0
T_REC_XST	0
T_REC_XBS	0
T_REC_TTP	30
T_REC_THO	0
T_REC_SLD	6
T_REC_BSL	0
T_REC_ALL	376
T_NUM_TAP	349
T_NUM_BRK	3
T_NUM_HLD	18
T_NUM_SLD	6
T_NUM_ALL	376
T_JUDGE_TAP	352
T_JUDGE_HLD	128
T_JUDGE_SLD	6
T_JUDGE_ALL	486
TTM_EACHPAIRS	68
TTM_SCR_TAP	174500
TTM_SCR_BRK	7800
TTM_SCR_HLD	18000
TTM_SCR_SLD	9000
TTM_SCR_ALL	209300
TTM_SCR_S	202750
TTM_SCR_SS	209000
TTM_RAT_ACV	10014

