VERSION	0.00.00	1.05.00
FES_MODE	0
BPM_DEF	182.000	182.000	182.000	182.000
MET_DEF	4	4
RESOLUTION	384
CLK_DEF	384
COMPATIBLE_CODE	MA2

BPM	0	0	182.000
MET	0	0	4	4

NMTAP	1	0	7
NMTAP	2	0	7
NMTAP	3	0	7
NMTAP	4	0	7
NMTAP	5	0	0
NMTAP	6	0	0
NMTAP	7	0	0
NMTAP	8	0	0
NMTAP	8	0	7
NMTAP	9	0	0
NMTAP	9	192	0
NMTAP	10	0	1
NMTAP	11	0	2
NMTAP	11	192	2
NMTAP	12	0	3
NMTAP	13	0	4
NMTAP	13	192	4
NMTAP	14	0	5
NMTAP	15	0	6
NMTAP	15	192	6
NMTAP	16	0	0
NMTAP	16	0	7
NMTAP	17	0	7
NMTAP	17	192	7
NMTAP	18	0	6
NMTAP	18	192	6
NMTAP	19	0	5
NMTAP	19	192	5
NMTAP	20	0	4
NMTAP	20	0	5
NMTAP	21	0	3
NMTAP	21	192	3
NMTAP	22	0	2
NMTAP	22	192	2
NMTAP	23	0	1
NMTAP	23	192	1
NMTAP	24	0	0
NMTAP	24	0	1
NMTAP	25	0	1
NMTAP	25	192	1
NMTAP	26	0	0
NMTAP	26	0	1
NMTAP	27	0	2
NMTAP	27	192	2
NMTAP	28	0	3
NMTAP	28	0	4
NMTAP	29	0	5
NMTAP	29	192	5
NMTAP	30	0	4
NMTAP	30	0	5
NMTAP	31	0	6
NMTAP	31	192	6
NMTAP	32	0	0
NMTAP	32	0	7
NMHLD	33	0	6	192
NMHLD	33	0	7	192
NMTAP	34	0	6
NMTAP	34	0	7
NMHLD	35	0	4	192
NMHLD	35	0	5	192
NMTAP	36	0	4
NMTAP	36	0	5
NMHLD	37	0	2	192
NMHLD	37	0	3	192
NMTAP	38	0	2
NMTAP	38	0	3
NMHLD	39	0	0	192
NMHLD	39	0	1	192
NMTAP	40	0	0
NMTAP	40	0	1
NMTTP	41	0	0	B	0	L1
NMTTP	42	0	7	B	0	L1
NMTTP	43	0	1	B	0	L1
NMTTP	44	0	6	B	0	L1
NMTTP	45	0	2	B	0	L1
NMTTP	46	0	5	B	0	L1
NMTTP	47	0	3	B	0	L1
NMTHO	48	0	0	384	C	0	L1
BRTAP	50	0	7
NMTAP	50	96	7
NMTAP	50	192	7
NMTAP	51	0	6
NMTAP	51	192	6
NMTAP	52	0	5
NMTAP	52	96	5
NMTAP	52	192	5
NMTAP	53	0	4
NMTAP	53	0	5
NMTAP	54	0	3
NMTAP	54	96	3
NMTAP	54	192	3
NMTAP	55	0	2
NMTAP	55	192	2
NMTAP	56	0	1
NMTAP	56	96	1
NMTAP	56	192	1
NMTAP	57	0	0
NMTAP	57	0	1
NMTAP	58	0	0
NMTAP	58	96	0
NMTAP	58	192	0
NMTAP	59	0	1
NMTAP	59	192	1
NMTAP	60	0	2
NMTAP	60	96	2
NMTAP	60	192	2
NMTAP	61	0	2
NMTAP	61	0	3
NMTAP	62	0	4
NMTAP	62	96	4
NMTAP	62	192	4
NMTAP	63	0	5
NMTAP	63	192	5
NMTAP	64	0	6
NMTAP	64	96	6
NMTAP	64	192	6
NMTAP	65	0	6
NMTAP	65	0	7
BRTAP	66	0	7
NMTAP	66	96	7
NMTAP	66	192	7
NMTAP	67	0	6
NMTAP	67	96	6
NMTAP	67	192	6
NMTAP	68	0	5
NMTAP	68	96	5
NMTAP	68	192	5
NMTAP	69	0	4
NMTAP	69	0	5
NMTAP	69	192	4
NMTAP	69	192	5
NMTAP	70	0	3
NMTAP	70	96	3
NMTAP	70	192	3
NMTAP	71	0	2
NMTAP	71	96	2
NMTAP	71	192	2
NMTAP	72	0	1
NMTAP	72	96	1
NMTAP	72	192	1
NMTAP	73	0	0
NMTAP	73	0	1
NMTAP	73	192	0
NMTAP	73	192	1
NMTAP	74	0	0
NMTAP	74	96	0
NMTAP	74	192	0
NMTAP	75	0	1
NMTAP	75	96	1
NMTAP	75	192	1
NMTAP	76	0	2
NMTAP	76	96	2
NMTAP	76	192	2
NMTAP	77	0	3
NMTAP	77	0	4
NMTAP	77	192	3
NMTAP	77	192	4
NMTAP	78	0	4
NMTAP	78	96	4
NMTAP	78	192	4
NMTAP	79	0	5
NMTAP	79	96	5
NMTAP	79	192	5
NMTAP	80	0	6
NMTAP	80	96	6
NMTAP	80	192	6
BXTAP	81	0	0
BXTAP	81	0	7
NMSTR	82	0	7
NMSI_	82	0	7	96	288	3
NMSTR	84	0	2
NMSI_	84	0	2	96	288	5
NMTAP	86	0	6
NMTAP	86	96	6
NMTAP	86	192	6
NMTAP	86	192	7
NMTAP	87	0	1
NMTAP	87	96	1
NMTAP	87	192	0
NMTAP	87	192	1
NMTAP	88	0	7
NMTAP	88	96	7
NMTAP	88	192	0
NMTAP	88	192	7
NMTAP	89	0	0
NMTAP	89	0	7
NMTAP	89	96	0
NMTAP	89	96	7
NMTAP	89	192	0
NMTAP	89	192	7
NMSTR	90	0	0
NMSI_	90	0	0	96	288	4
NMSTR	92	0	5
NMSI_	92	0	5	96	288	2
NMTAP	94	0	1
NMTAP	94	96	1
NMTAP	94	192	0
NMTAP	94	192	1
NMTAP	95	0	6
NMTAP	95	96	6
NMTAP	95	192	6
NMTAP	95	192	7
NMTAP	96	0	0
NMTAP	96	96	0
NMTAP	96	192	0
NMTAP	96	192	7
NMTAP	97	0	0
NMTAP	97	0	7
NMTAP	97	96	0
NMTAP	97	96	7
NMTAP	97	192	0
NMTAP	97	192	7
BRTAP	98	0	0
BRTAP	98	0	7

T_REC_TAP	184
T_REC_BRK	4
T_REC_XTP	0
T_REC_BXX	2
T_REC_HLD	8
T_REC_XHO	0
T_REC_BHO	0
T_REC_BXH	0
T_REC_STR	4
T_REC_BST	0
T_REC_XST	0
T_REC_XBS	0
T_REC_TTP	7
T_REC_THO	1
T_REC_SLD	4
T_REC_BSL	0
T_REC_ALL	214
T_NUM_TAP	195
T_NUM_BRK	6
T_NUM_HLD	9
T_NUM_SLD	4
T_NUM_ALL	214
T_JUDGE_TAP	201
T_JUDGE_HLD	40
T_JUDGE_SLD	4
T_JUDGE_ALL	245
TTM_EACHPAIRS	40
TTM_SCR_TAP	97500
TTM_SCR_BRK	15600
TTM_SCR_HLD	9000
TTM_SCR_SLD	6000
TTM_SCR_ALL	128100
TTM_SCR_S	123700
TTM_SCR_SS	127500
TTM_RAT_ACV	10047

