VERSION	0.00.00	1.05.00
FES_MODE	0
BPM_DEF	145.000	145.000	145.000	145.000
MET_DEF	4	4
RESOLUTION	384
CLK_DEF	384
COMPATIBLE_CODE	MA2

BPM	0	0	145.000
MET	0	0	4	4

NMHLD	2	0	2	384
NMTAP	2	288	4
NMHLD	3	0	3	168
NMHLD	3	168	4	120
NMSTR	3	288	5
NMSUL	3	288	5	96	240	3
NMTAP	4	0	3
NMTTP	4	240	2	A	0	M1
NMTTP	4	256	2	D	0	M1
NMTTP	4	272	1	A	0	M1
NMTTP	4	288	1	D	0	M1
NMTTP	4	304	0	A	0	M1
NMTTP	4	320	0	D	0	M1
NMTTP	4	336	7	A	0	M1
NMTTP	4	352	7	D	0	M1
NMTTP	4	368	6	A	0	M1
NMHLD	5	0	4	168
NMTTP	5	0	6	D	0	M1
NMHLD	5	168	3	120
NMTAP	5	288	5
NMTAP	6	0	2
NMTAP	6	0	4
NMTAP	6	96	1
NMHLD	6	96	3	72
NMHLD	6	168	2	72
NMTAP	6	240	4
NMTAP	6	288	2
NMTAP	6	288	4
NMTAP	7	0	4
NMTAP	7	0	6
NMTAP	7	48	6
NMHLD	7	96	4	72
NMHLD	7	168	5	72
NMTAP	7	240	3
NMTAP	7	288	3
NMTAP	7	288	5
NMTAP	7	360	2
NMTAP	8	0	2
NMTAP	8	0	3
NMTAP	8	96	4
NMTAP	8	192	5
NMTAP	8	288	4
NMTAP	8	288	5
NMTAP	8	336	3
NMTAP	8	336	4
NMSTR	9	0	2
NMSCL	9	0	2	96	72	7
NMTAP	9	0	3
NMSTR	9	72	7
NMSCL	9	72	7	96	72	4
NMSTR	9	144	4
NMSCL	9	144	4	96	72	1
NMSTR	9	216	1
NMSCL	9	216	1	96	72	6
NMSTR	10	0	4
NMSF_	10	0	4	96	48	0
EXTAP	10	96	4
NMTAP	10	240	6
NMTAP	10	288	6
NMTAP	11	0	3
NMTAP	11	0	5
NMTAP	11	96	4
NMTAP	11	176	3
NMTAP	11	224	3
NMTAP	11	240	4
NMTAP	11	288	2
NMTAP	11	288	4
NMTAP	12	0	1
NMTAP	12	0	3
NMTAP	12	80	2
NMTAP	12	96	3
NMTAP	12	128	3
NMTAP	12	144	2
NMHLD	12	176	4	64
NMTAP	12	240	3
NMTAP	12	288	5
NMTAP	12	320	5
NMTAP	12	336	4
NMHLD	12	368	6	64
NMTAP	13	48	0
NMTAP	13	96	1
NMTAP	13	96	7
NMTAP	13	144	6
NMTAP	13	192	4
NMTAP	13	192	5
NMTAP	13	240	3
NMTAP	13	288	2
NMTAP	13	320	1
NMTAP	13	336	3
EXHLD	13	368	0	304
EXHLD	13	368	4	304
NMTAP	15	0	5
NMTAP	15	48	5
NMTAP	15	96	4
NMTAP	15	96	6
NMTAP	15	144	3
NMTAP	15	192	2
NMTAP	15	240	2
NMTAP	15	288	1
NMTAP	15	288	3
NMTAP	15	336	4
NMTAP	16	0	5
NMTAP	16	32	4
NMTAP	16	64	6
NMTAP	16	96	4
NMTAP	16	128	5
NMTAP	16	160	5
NMTAP	16	192	2
NMTAP	16	224	3
NMTAP	16	256	1
NMTAP	16	288	3
NMTAP	16	320	2
NMTAP	16	352	2
NMHLD	17	0	4	32
NMTAP	17	48	3
NMTAP	17	48	5
NMTAP	17	96	1
NMTAP	17	96	7
NMTAP	17	112	2
NMTAP	17	128	3
NMTAP	17	144	4
EXTAP	17	176	0
EXSTR	17	176	6
BRSI_	17	176	6	96	40	2
NMTTP	17	280	6	B	0	M1
NMTTP	17	288	0	C	1	M1
NMTTP	17	296	2	B	0	M1
NMTAP	18	288	2
NMTAP	18	288	6
NMTAP	18	336	2
NMTAP	18	336	6
BRTAP	19	0	0
NMTTP	19	0	3	A	0	M1
NMTTP	19	72	5	E	0	M1
BRTAP	19	72	6
BRTAP	19	144	2
NMTTP	19	144	4	E	0	M1
BRTAP	19	216	4
NMTTP	19	216	7	E	0	M1
NMTTP	19	288	0	C	1	M1
BRHLD	19	288	0	384
NMTTP	20	0	0	D	0	M1
NMTTP	20	16	7	D	0	M1
NMTTP	20	32	6	D	0	M1
NMTTP	20	48	5	D	0	M1
NMTTP	20	64	4	D	0	M1
NMTTP	20	80	3	D	0	M1
NMTTP	20	96	2	D	0	M1
NMTTP	20	112	1	D	0	M1
NMTTP	20	128	0	D	0	M1
NMTTP	20	144	7	E	0	M1
NMTTP	20	160	6	E	0	M1
NMTTP	20	176	5	E	0	M1
NMTTP	20	192	4	E	0	M1
NMTTP	20	208	3	E	0	M1
NMTTP	20	224	2	E	0	M1
NMTTP	20	240	1	E	0	M1
NMTTP	20	256	0	E	0	M1
NMTTP	20	272	7	E	0	M1
NMTTP	20	288	6	E	1	M1
NMTTP	21	0	4	A	0	M1
BRTAP	21	0	7
BRTAP	21	72	1
NMTTP	21	72	3	E	0	M1
NMTTP	21	144	4	E	0	M1
BRTAP	21	144	5
NMTTP	21	216	1	E	0	M1
BRTAP	21	216	3
NMTTP	21	288	0	C	1	M1
BRHLD	21	288	7	384
NMTTP	22	0	0	D	0	M1
NMTTP	22	16	1	D	0	M1
NMTTP	22	32	2	D	0	M1
NMTTP	22	48	3	D	0	M1
NMTTP	22	64	4	D	0	M1
NMTTP	22	80	5	D	0	M1
NMTTP	22	96	6	D	0	M1
NMTTP	22	112	7	D	0	M1
NMTTP	22	128	0	D	0	M1
NMTTP	22	144	1	E	0	M1
NMTTP	22	160	2	E	0	M1
NMTTP	22	176	3	E	0	M1
NMTTP	22	192	4	E	0	M1
NMTTP	22	208	5	E	0	M1
NMTTP	22	224	6	E	0	M1
NMTTP	22	240	7	E	0	M1
NMTTP	22	256	0	E	0	M1
NMTTP	22	272	1	E	0	M1
NMTTP	22	288	2	E	1	M1
NMTAP	23	0	0
NMSTR	23	0	5
NMSCR	23	0	5	96	32	0
NMTAP	23	72	4
NMTAP	23	72	5
NMSTR	23	144	1
NMSI_	23	144	1	96	32	5
NMTAP	23	216	0
NMTAP	23	216	1
NMSTR	23	288	7
NMSI_	23	288	7	96	32	2
NMSI_	23	288	7	96	32	4
BRTAP	23	360	7
NMSTR	24	96	1
NMSI_	24	96	1	96	32	4
NMSTR	24	96	5
NMSI_	24	96	5	96	32	0
BRTAP	24	168	1
BRTAP	24	168	5
NMTAP	24	288	2
NMSTR	24	288	6
NMSI_	24	288	6	96	32	2
NMTAP	24	360	6
BRTAP	24	360	7
NMTAP	25	48	0
NMSTR	25	96	1
NMSCR	25	96	1	96	32	4
NMTAP	25	96	7
BRTAP	25	168	0
NMTAP	25	168	1
NMTAP	25	240	5
NMTAP	25	288	4
NMTAP	25	288	5
NMTAP	25	336	3
NMHLD	25	360	4	600
NMTTP	26	96	6	D	0	M1
NMTTP	26	192	5	D	0	M1
NMTTP	26	288	4	D	0	M1
NMTTP	27	0	3	D	0	M1
NMTAP	27	96	2
NMHLD	27	144	2	240
NMTAP	27	240	3
NMTAP	27	288	4
NMHLD	27	336	5	816
NMTTP	28	96	2	D	0	M1
NMTTP	28	192	3	D	0	M1
NMTTP	28	288	4	D	0	M1
NMTTP	29	0	5	D	0	M1
NMTTP	29	48	6	E	0	M1
NMTTP	29	64	7	E	0	M1
NMTTP	29	80	0	E	0	M1
NMTTP	29	96	1	E	0	M1
NMTTP	29	112	2	E	0	M1
NMTTP	29	128	3	E	0	M1
NMTTP	29	144	4	E	0	M1
NMTTP	29	160	5	D	0	M1
NMTTP	29	176	6	D	0	M1
NMTTP	29	192	7	D	0	M1
NMTTP	29	208	0	D	0	M1
NMTTP	29	224	1	D	0	M1
NMTTP	29	240	2	D	0	M1
NMTTP	29	256	3	D	0	M1
NMTTP	29	272	4	D	0	M1
NMTTP	29	288	5	D	0	M1
EXTAP	30	0	4
NMTAP	30	96	4
NMTAP	30	192	5
EXTAP	30	240	4
NMTAP	30	288	5
NMTAP	31	0	2
EXTAP	31	48	4
NMTAP	31	96	2
EXTAP	31	168	4
NMTAP	31	192	3
EXTAP	31	240	4
NMTAP	31	288	3
NMTAP	32	0	1
EXTAP	32	0	3
NMTAP	32	48	2
EXTAP	32	96	4
NMTAP	32	96	6
NMTAP	32	144	5
NMHLD	32	192	1	32
EXHLD	32	192	3	32
NMHLD	32	240	2	32
EXHLD	32	240	4	32
EXHLD	32	288	3	32
NMHLD	32	288	5	32
EXHLD	32	336	4	32
NMHLD	32	336	6	32
BRSTR	33	0	7
NMSSR	33	0	7	96	72	3
EXTAP	33	216	1
EXTAP	33	216	5
NMTAP	33	288	6
NMSTR	33	336	0
NMSCL	33	336	0	96	72	2
NMTAP	33	360	0
BXTAP	34	96	0
NMHLD	34	192	1	48
NMTAP	34	240	3
NMHLD	34	288	2	48
NMTAP	34	336	3
NMTAP	35	0	1
NMTAP	35	0	4
NMSTR	35	48	0
NMSI_	35	48	0	96	48	3
NMTAP	35	96	3
NMHLD	35	192	6	48
NMTAP	35	240	7
NMHLD	35	288	5	48
NMTAP	35	336	4
NMTAP	36	0	3
NMTAP	36	0	6
NMTAP	36	48	7
NMTAP	36	96	0
NMTAP	36	96	1
NMTAP	36	144	2
NMTAP	36	168	3
NMTAP	36	216	3
NMTAP	36	240	1
NMTAP	36	288	7
NMTAP	36	336	5
NMSTR	37	0	0
NMSCR	37	0	0	96	48	3
NMHLD	37	0	3	48
NMHLD	37	96	6	48
NMHLD	37	192	4	48
NMSTR	37	192	7
NMSCL	37	192	7	96	48	4
NMHLD	37	288	1	48
NMSTR	38	0	0
NMSI_	38	0	0	96	48	4
NMSTR	38	0	3
NMSI_	38	0	3	96	48	6
NMTAP	38	96	0
NMTAP	38	96	3
NMHLD	38	192	7	48
NMTAP	38	240	5
NMHLD	38	288	1	48
NMTAP	38	336	0
NMTAP	39	0	2
NMTAP	39	0	7
NMHLD	39	48	6	48
NMTAP	39	96	4
NMSTR	39	144	1
NMSXR	39	144	1	96	72	2
NMSTR	39	144	5
NMSXR	39	144	5	96	72	6
EXTAP	39	168	1
EXTAP	39	168	5
EXHLD	39	368	3	160
BRHLD	40	0	4	144
NMTAP	40	192	3
NMTAP	40	224	3
NMTAP	40	240	4
NMTAP	40	272	4
NMTAP	40	288	3
NMTAP	40	320	3
NMTAP	40	336	4
NMTAP	40	368	4
NMHLD	41	0	2	96
NMTAP	41	48	3
NMHLD	41	96	5	96
NMTAP	41	144	4
NMHLD	41	192	3	96
NMTAP	41	240	4
NMTAP	41	288	5
NMTAP	41	336	3
NMSTR	42	0	1
NMSI_	42	0	1	96	48	4
NMSTR	42	0	5
NMSI_	42	0	5	96	48	0
BRTAP	42	96	1
BRTAP	42	96	5
NMTAP	42	168	2
NMTAP	42	168	6
NMTAP	42	216	5
NMTAP	42	240	4
NMTAP	42	288	6
NMTAP	42	288	7
NMTAP	42	336	6
NMTAP	42	336	7
NMTAP	43	0	0
NMTAP	43	0	5
NMTAP	43	96	2
NMTAP	43	120	3
NMTAP	43	168	1
NMTAP	43	168	4
NMTAP	43	216	6
NMTAP	43	240	7
NMTAP	43	288	4
NMTAP	43	288	5
NMTAP	43	336	4
NMTAP	43	336	5
NMTAP	44	0	3
NMTAP	44	0	7
NMTAP	44	80	1
NMTAP	44	96	0
NMTAP	44	128	0
NMTAP	44	144	1
NMHLD	44	176	7	64
NMTAP	44	240	0
NMTAP	44	288	6
NMTAP	44	320	6
NMTAP	44	336	7
NMHLD	44	368	5	64
NMTAP	45	48	0
NMTAP	45	96	4
NMTAP	45	96	6
NMTAP	45	144	0
NMTAP	45	192	4
NMTAP	45	192	5
NMTAP	45	240	0
NMSTR	45	288	3
NMSCL	45	288	3	96	48	0
NMSTR	45	288	6
NMSCL	45	288	6	96	48	3
NMSTR	46	0	3
NMSI_	46	0	3	96	48	7
NMTAP	46	0	6
BRTAP	46	96	0
NMTAP	46	168	1
NMTAP	46	168	5
NMTAP	46	216	2
NMTAP	46	240	3
NMTAP	46	288	0
NMTAP	46	288	1
NMTAP	46	336	0
NMTAP	46	336	1
NMTAP	47	0	2
NMTAP	47	0	7
NMTAP	47	96	5
NMTAP	47	120	4
NMTAP	47	168	3
NMTAP	47	168	6
NMTAP	47	216	1
NMTAP	47	240	0
NMTAP	47	288	2
NMTAP	47	288	3
NMTAP	47	336	2
NMTAP	47	336	3
NMSTR	48	0	0
NMSI_	48	0	0	96	48	4
NMTAP	48	0	4
NMTAP	48	144	7
NMTAP	48	160	6
NMTAP	48	176	5
NMTAP	48	192	3
NMTAP	48	208	2
NMTAP	48	224	1
NMTAP	48	240	6
NMTAP	48	256	5
NMTAP	48	272	4
NMTAP	48	288	2
NMTAP	48	304	1
NMTAP	48	320	0
NMTAP	48	336	5
NMTAP	48	352	4
NMTAP	48	368	3
EXSTR	49	0	2
NMSCL	49	0	2	96	72	7
NMSTR	49	72	7
NMSCL	49	72	7	96	72	4
NMSTR	49	144	4
NMSCL	49	144	4	96	72	1
NMSTR	49	216	1
NMSCL	49	216	1	96	72	6
NMHLD	50	24	5	72
NMTAP	50	96	4
NMTAP	50	144	6
NMTAP	50	176	6
NMTAP	50	224	2
NMTAP	50	240	3
NMTAP	50	288	1
NMTAP	50	320	1
EXTAP	50	368	0
EXTAP	50	368	7
NMHLD	51	48	6	48
NMHLD	51	96	5	48
NMTAP	51	144	4
NMTAP	51	176	4
EXHLD	51	240	3	48
NMTAP	51	288	4
EXTAP	51	320	4
NMTAP	51	368	3
NMTAP	51	368	5
NMHLD	52	48	1	48
NMHLD	52	96	2	48
NMTAP	52	144	3
NMTAP	52	176	3
EXHLD	52	240	4	48
NMTAP	52	288	3
NMTAP	52	320	3
NMTAP	52	368	2
NMTAP	52	368	4
NMHLD	53	48	7	48
NMHLD	53	96	6	48
NMTAP	53	144	5
NMTAP	53	176	5
BRHLD	53	240	0	48
NMTAP	53	288	7
NMTAP	53	320	7
NMTAP	53	368	0
NMTAP	53	368	6
NMHLD	54	48	1	48
NMHLD	54	96	2	48
NMTAP	54	144	3
NMTAP	54	176	3
EXHLD	54	240	4	48
NMTAP	54	288	3
NMTAP	54	320	3
NMHLD	54	368	1	64
NMSTR	54	368	5
BRSCL	54	368	5	96	32	2
NMTAP	55	80	0
NMTAP	55	176	2
NMTAP	55	176	4
EXHLD	55	240	6	48
NMTAP	55	288	4
EXTAP	55	320	4
NMTAP	55	368	3
NMTAP	55	368	5
NMHLD	56	48	0	48
NMHLD	56	96	1	48
NMTAP	56	144	2
NMTAP	56	176	2
EXHLD	56	240	4	48
NMSTR	56	288	3
NMSXR	56	288	3	96	288	4
NMTAP	56	320	3
NMTAP	56	368	4
NMSTR	57	192	5
NMSXL	57	192	5	96	96	2
NMTTP	58	0	1	B	0	M1
NMTTP	58	0	1	E	1	M1
NMTTP	58	0	1	A	0	M1
NMTAP	58	288	4
NMTAP	59	0	4
NMTAP	59	192	5
NMTAP	60	0	6
NMTAP	60	192	7
NMTAP	61	0	0
NMSTR	61	192	1
NMSV_	61	192	1	96	48	2
CNSI_	61	336	2	0	24	4
NMTAP	62	0	7
NMHLD	62	96	6	72
NMHLD	62	168	4	72
NMTAP	62	240	5
NMTAP	62	288	5
NMTAP	63	0	3
NMTAP	63	0	4
NMHLD	63	96	1	72
NMHLD	63	168	3	72
NMTAP	63	240	2
NMTAP	63	288	2
NMTAP	63	336	4
NMTAP	64	0	3
NMTAP	64	48	3
NMHLD	64	96	5	72
NMHLD	64	168	3	72
NMTAP	64	240	4
NMTAP	64	288	3
NMTAP	64	288	4
NMSTR	65	0	5
NMSCR	65	0	5	96	72	0
NMSTR	65	72	0
NMSCR	65	72	0	96	72	3
NMSTR	65	144	3
NMSCR	65	144	3	96	72	6
NMSTR	65	216	6
NMSCR	65	216	6	96	96	2
CNSLR	66	24	2	0	96	6
CNSLR	66	120	6	0	96	2
CNSCR	66	216	2	0	168	0
NMTHO	67	0	0	96	C	1	M1
NMHLD	67	288	0	48
NMHLD	67	288	7	48
EXTAP	67	368	1
EXTAP	67	368	6
EXTAP	68	48	3
NMTAP	68	48	7
NMTAP	68	64	6
NMTAP	68	80	5
BRTAP	68	96	1
EXTAP	68	96	4
NMHLD	68	176	2	64
NMTAP	68	176	6
NMTAP	68	240	3
NMTAP	68	272	3
NMTAP	68	288	1
NMTAP	68	320	1
NMTAP	68	336	3
NMTAP	68	368	0
NMTAP	68	368	4
NMTAP	69	48	4
NMTAP	69	48	5
NMTAP	69	96	3
NMTAP	69	96	7
NMTAP	69	144	1
NMTAP	69	176	0
NMHLD	69	176	1	64
NMTAP	69	240	3
NMTAP	69	288	2
NMTAP	69	288	4
NMTAP	69	336	6
NMHLD	69	368	6	64
NMTAP	69	368	7
NMTAP	70	48	4
NMSTR	70	96	3
NMSI_	70	96	3	96	48	6
NMTAP	70	96	5
NMTAP	70	144	2
NMSTR	70	192	1
NMSI_	70	192	1	96	48	5
NMTAP	70	240	0
NMSTR	70	288	7
BRSCL	70	288	7	96	48	3
BRSCR	70	288	7	96	48	3
EXTAP	71	96	0
EXTAP	71	96	6
NMTAP	71	176	1
NMTAP	71	176	3
NMTAP	71	240	4
NMTAP	71	240	5
NMTAP	71	288	6
NMTAP	71	320	6
NMTAP	71	336	4
NMTAP	71	368	4
NMTAP	72	0	5
NMTAP	72	48	6
NMTAP	72	48	7
NMTAP	72	96	0
NMSTR	72	96	5
NMSCR	72	96	5	96	48	0
NMTAP	72	176	4
NMTAP	72	176	5
NMTAP	72	240	2
NMTAP	72	288	1
NMTAP	72	320	1
NMTAP	72	336	3
NMTAP	72	368	3
NMTAP	73	0	2
NMTAP	73	48	0
NMTAP	73	48	1
NMTAP	73	96	2
NMSTR	73	96	7
NMSUL	73	96	7	96	64	2
NMSUR	73	96	7	96	64	4
NMTAP	73	176	7
NMTAP	73	288	1
NMTAP	73	336	3
NMTAP	73	336	5
NMHLD	74	0	7	192
NMTAP	74	96	5
NMSTR	74	192	5
BRSCR	74	192	5	96	80	3
NMTTP	74	288	6	D	1	M1
EXSTR	75	0	4
NMSF_	75	0	4	96	48	0
BRTAP	75	96	4
NMTAP	75	192	3
NMTAP	75	192	5
NMTAP	75	240	7
NMTAP	75	288	1
NMTAP	75	288	3
NMTAP	75	336	7
NMTAP	76	0	3
NMTAP	76	0	6
NMTAP	76	32	5
NMTAP	76	48	4
NMTAP	76	80	3
NMTAP	76	96	4
NMTAP	76	128	5
NMTAP	76	144	4
NMTAP	76	176	3
NMTAP	76	192	4
NMTAP	76	224	6
NMTAP	76	240	4
NMTAP	76	272	2
NMTAP	76	288	4
NMTAP	76	320	6
NMTAP	76	336	4
NMTAP	76	368	2
NMSTR	77	0	4
NMSCR	77	0	4	96	48	7
NMSTR	77	96	1
NMSCR	77	96	1	96	48	4
NMTAP	77	96	4
NMTAP	77	144	0
NMTAP	77	192	1
NMSTR	77	192	6
NMSI_	77	192	6	96	48	2
NMTAP	77	240	7
NMTAP	77	288	0
NMTAP	77	288	6
NMTAP	77	336	0
NMTAP	78	0	1
NMHLD	78	0	7	48
NMTAP	78	48	4
NMHLD	78	96	0	48
NMTAP	78	96	6
NMTAP	78	144	3
NMTAP	78	192	1
NMHLD	78	192	7	48
NMTAP	78	240	5
NMSTR	78	288	0
NMSI_	78	288	0	96	48	4
NMSTR	78	288	6
NMSCL	78	288	6	96	48	3
NMTAP	78	336	2
BRTAP	79	0	0
BRTAP	79	0	6
NMTAP	79	96	1
NMTAP	79	96	7
NMTAP	79	144	5
NMTAP	79	192	1
NMTAP	79	192	3
NMTAP	79	240	0
NMTAP	79	288	4
NMTAP	79	288	6
NMTAP	79	336	7
NMTAP	80	0	1
NMTAP	80	0	4
NMTAP	80	32	2
NMTAP	80	48	3
NMTAP	80	80	4
NMTAP	80	96	3
NMTAP	80	128	2
NMTAP	80	144	3
NMTAP	80	176	4
NMTAP	80	192	3
NMTAP	80	224	1
NMTAP	80	240	3
NMTAP	80	272	5
NMTAP	80	288	3
NMTAP	80	320	1
NMTAP	80	336	3
NMTAP	80	368	5
EXSTR	81	0	3
NMSI_	81	0	3	96	48	7
NMTAP	81	144	6
NMTAP	81	160	5
NMTAP	81	176	4
NMTAP	81	192	0
NMTAP	81	208	1
NMTAP	81	224	2
NMTAP	81	240	7
NMTAP	81	256	6
NMTAP	81	272	5
NMTAP	81	288	1
NMTAP	81	304	2
NMTAP	81	320	3
NMTAP	81	336	0
NMTAP	81	352	7
BXHLD	81	368	2	352
BXHLD	81	368	6	384

T_REC_TAP	418
T_REC_BRK	20
T_REC_XTP	23
T_REC_BXX	1
T_REC_HLD	62
T_REC_XHO	12
T_REC_BHO	4
T_REC_BXH	2
T_REC_STR	49
T_REC_BST	1
T_REC_XST	4
T_REC_XBS	0
T_REC_TTP	89
T_REC_THO	1
T_REC_SLD	52
T_REC_BSL	5
T_REC_ALL	743
T_NUM_TAP	583
T_NUM_BRK	33
T_NUM_HLD	75
T_NUM_SLD	52
T_NUM_ALL	743
T_JUDGE_TAP	605
T_JUDGE_HLD	201
T_JUDGE_SLD	57
T_JUDGE_ALL	863
TTM_EACHPAIRS	117
TTM_SCR_TAP	291500
TTM_SCR_BRK	85800
TTM_SCR_HLD	75000
TTM_SCR_SLD	78000
TTM_SCR_ALL	530300
TTM_SCR_S	511200
TTM_SCR_SS	527000
TTM_RAT_ACV	10062

