VERSION	0.00.00	1.05.00
FES_MODE	0
BPM_DEF	145.000	145.000	145.000	145.000
MET_DEF	4	4
RESOLUTION	384
CLK_DEF	384
COMPATIBLE_CODE	MA2

BPM	0	0	145.000
MET	0	0	4	4

NMSTR	2	0	1
NMSCL	2	0	1	96	192	6
NMSTR	3	0	1
NMSCL	3	0	1	96	192	6
NMHLD	4	0	5	192
NMHLD	4	192	6	192
NMHLD	5	0	7	192
NMTAP	5	192	0
NMTAP	5	288	0
NMTAP	5	288	7
NMTAP	6	0	1
NMSTR	6	0	6
NMSCR	6	0	6	96	192	1
NMTAP	6	192	2
NMTAP	6	288	2
NMTAP	7	0	1
NMSTR	7	0	6
NMSCR	7	0	6	96	192	1
NMTAP	7	192	2
NMTAP	7	288	2
NMTAP	8	0	1
NMHLD	8	0	6	96
NMTAP	8	96	7
NMHLD	8	192	1	96
NMTAP	8	192	6
NMSTR	8	288	0
NMSI_	8	288	0	96	72	6
CNSI_	9	72	6	0	72	1
CNSI_	9	144	1	0	72	5
CNSI_	9	216	5	0	72	3
BXTAP	10	0	3
NMHLD	10	96	2	192
NMTAP	10	96	4
NMTAP	10	240	3
NMTAP	10	288	3
NMTAP	11	0	4
NMTAP	11	96	3
NMHLD	11	96	5	192
NMTAP	11	240	4
NMTAP	11	288	4
NMTAP	12	0	6
NMHLD	12	96	5	192
NMTAP	12	96	7
NMTAP	12	240	6
NMTAP	12	288	6
NMTAP	13	0	0
NMHLD	13	96	1	192
NMTAP	13	96	7
NMTAP	13	240	0
NMTAP	13	288	0
BRHLD	14	0	2	384
BRTAP	14	0	7
NMHLD	15	0	0	192
NMHLD	15	192	7	192
NMSTR	16	0	6
NMSCL	16	0	6	96	192	1
NMHLD	17	0	0	96
NMHLD	17	0	1	96
NMTAP	17	192	6
NMTAP	17	192	7
BRSTR	17	288	4
BRSCR	17	288	4	96	288	3
BRTAP	17	288	5
EXTAP	19	0	6
EXTAP	19	0	7
EXTAP	19	72	6
EXTAP	19	72	7
EXTAP	19	144	0
EXTAP	19	144	5
EXSTR	19	216	0
NMSXL	19	216	0	96	312	4
EXTAP	19	216	5
EXTAP	21	0	0
EXTAP	21	0	1
EXTAP	21	72	0
EXTAP	21	72	1
EXTAP	21	144	2
EXTAP	21	144	7
EXHLD	21	216	2	72
EXSTR	21	216	7
NMSXR	21	216	7	96	312	3
NMTAP	23	0	4
NMTAP	23	0	5
NMTAP	23	72	4
NMTAP	23	72	5
NMTAP	23	144	3
NMTAP	23	144	6
NMTAP	23	216	3
NMTAP	23	216	6
NMTAP	23	288	2
NMTAP	23	288	7
NMTAP	23	360	0
NMHLD	23	360	1	120
EXTAP	24	96	0
BXTAP	24	168	2
BXTAP	24	168	7
EXTAP	24	288	6
EXTAP	24	288	7
BXTAP	24	360	0
BXTAP	24	360	5
EXTAP	25	96	3
EXTAP	25	96	4
BXHLD	25	168	2	120
BXHLD	25	168	5	120
NMTTP	26	0	3	E	0	M1
NMTTP	26	96	2	E	0	M1
NMTTP	26	192	1	E	0	M1
NMTTP	26	288	0	E	0	M1
NMTTP	27	0	7	E	0	M1
NMTTP	27	96	6	E	0	M1
NMTTP	27	192	5	E	0	M1
NMTTP	27	288	4	E	0	M1
NMTTP	28	0	3	E	0	M1
NMTTP	28	96	0	C	0	M1
NMTTP	28	192	7	E	0	M1
NMTTP	28	288	6	E	0	M1
NMTTP	29	0	5	E	0	M1
NMTTP	29	96	0	C	0	M1
NMTTP	29	192	1	E	0	M1
NMTTP	29	288	2	E	0	M1
NMTAP	30	0	2
NMTAP	30	96	3
NMTAP	30	144	3
NMTAP	30	192	1
NMTAP	30	240	1
NMHLD	30	288	5	96
NMTAP	31	0	4
NMTAP	31	48	4
NMTAP	31	96	6
NMTAP	31	144	6
NMTAP	31	192	2
NMTAP	31	240	2
NMHLD	31	288	0	96
NMTAP	32	0	1
NMTAP	32	48	1
NMTAP	32	96	7
NMTAP	32	144	7
NMTAP	32	192	0
NMTAP	32	240	0
NMTAP	32	288	6
NMTAP	32	336	6
BRSTR	33	0	7
BRSSR	33	0	7	96	288	3
BRTAP	34	96	2
BRTAP	34	96	4
NMTAP	34	192	6
NMTAP	34	240	7
NMTAP	34	288	0
NMTAP	34	288	6
NMTAP	35	0	1
NMTAP	35	48	0
NMTAP	35	96	1
NMTAP	35	96	7
NMTAP	35	192	0
NMTAP	35	192	5
NMTAP	35	288	2
NMTAP	35	288	7
NMTAP	36	0	2
NMTAP	36	48	3
NMTAP	36	96	2
NMTAP	36	96	4
NMTAP	36	192	5
NMTAP	36	240	4
NMTAP	36	288	3
NMTAP	36	288	5
NMHLD	37	0	2	96
NMHLD	37	96	0	96
NMHLD	37	192	7	96
NMHLD	37	288	5	96
NMTAP	38	0	4
BRTAP	38	96	3
BRTAP	38	96	6
NMTAP	38	192	1
NMTAP	38	240	1
NMTAP	38	288	0
NMTAP	38	288	2
NMTAP	39	0	0
NMTAP	39	0	7
NMHLD	39	96	5	80
EXTAP	39	176	7
NMTAP	39	288	0
NMTAP	39	288	6
BXHLD	40	0	1	192
BXTAP	40	0	7
NMTAP	40	96	7
NMTAP	40	192	0
NMTAP	40	240	0
NMTAP	40	288	2
NMHLD	41	0	3	48
NMHLD	41	96	3	48
NMTAP	41	192	2
NMTAP	41	192	4
NMSTR	41	288	1
NMSI_	41	288	1	96	48	7
BXTAP	42	96	4
NMTAP	42	192	6
NMTAP	42	240	6
NMSTR	42	288	5
NMSCL	42	288	5	96	96	2
NMTAP	42	288	7
NMSTR	43	96	1
NMSCL	43	96	1	96	96	6
NMTAP	43	288	5
NMTAP	44	0	4
NMTAP	44	48	4
NMTAP	44	96	3
NMTAP	44	96	5
NMTAP	44	192	6
NMTAP	44	192	7
NMTAP	44	288	0
NMTAP	44	288	1
NMTAP	45	0	3
NMTAP	45	48	3
NMSTR	45	96	2
BRSI_	45	96	2	96	96	7
NMSTR	45	96	4
BRSI_	45	96	4	96	96	7
NMSTR	46	0	1
NMSCR	46	0	1	96	96	4
NMTAP	46	192	5
NMTAP	46	240	5
NMSTR	46	288	4
NMSCL	46	288	4	96	96	1
NMTAP	46	288	6
NMTAP	47	192	7
NMTAP	47	240	7
NMTAP	47	288	0
NMTAP	47	288	6
NMHLD	48	0	5	48
NMHLD	48	0	7	48
NMHLD	48	96	5	48
NMHLD	48	96	7	48
NMHLD	48	192	0	48
NMHLD	48	192	7	48
EXTAP	48	288	0
EXTAP	48	288	1
BXTAP	49	0	2
BXTAP	49	0	3
EXTAP	49	72	3
EXTAP	49	72	4
EXTAP	49	144	4
EXTAP	49	144	5
EXSTR	49	216	4
NMSXR	49	216	4	96	264	1
EXSTR	49	216	5
NMSXL	49	216	5	96	264	0
BXTAP	51	0	2
BXTAP	51	0	7
EXTAP	51	96	1
NMTAP	51	144	1
NMTAP	51	192	7
NMTAP	51	240	7
NMTAP	51	288	0
NMTAP	51	336	0
NMTAP	52	0	6
NMTAP	52	48	6
NMTAP	52	96	7
NMTAP	52	144	7
NMTAP	52	192	5
NMTAP	52	240	5
NMTAP	52	288	5
NMTAP	52	288	7
NMTAP	53	0	0
NMSTR	53	0	4
NMSI_	53	0	4	96	96	0
NMSTR	53	192	3
NMSI_	53	192	3	96	96	7
NMSTR	54	0	5
NMSI_	54	0	5	96	96	1
NMTAP	54	192	2
EXTAP	54	288	3
EXTAP	54	288	7
NMTAP	55	0	5
NMTAP	55	48	5
NMTAP	55	96	7
EXTAP	55	144	7
NMTAP	55	192	6
NMTAP	55	240	6
NMTAP	55	288	0
NMTAP	55	336	0
NMTAP	56	0	7
NMTAP	56	48	7
NMTAP	56	96	1
NMTAP	56	144	1
NMTAP	56	192	0
NMTAP	56	240	0
NMTAP	56	288	0
NMSTR	56	288	2
NMSCL	56	288	2	96	192	5
NMSTR	57	192	4
NMSI_	57	192	4	96	96	0
BXHLD	58	0	3	1344
NMTTP	60	0	0	E	0	M1
NMTTP	60	192	0	C	0	M1
NMTTP	61	0	4	E	0	M1
NMHLD	61	192	4	960
NMTTP	62	0	3	E	0	M1
NMTTP	62	96	4	E	0	M1
NMTTP	62	192	5	E	0	M1
NMTTP	62	288	6	E	0	M1
NMTTP	63	0	7	E	0	M1
NMTTP	63	96	0	C	0	M1
NMTTP	63	192	1	E	0	M1
NMTTP	63	288	2	E	0	M1
EXSTR	64	0	3
NMSSR	64	0	3	96	192	7
NMSTR	64	288	6
NMSCL	64	288	6	96	384	1
NMTHO	66	0	0	384	C	1	M1
EXTAP	67	240	0
EXTAP	67	240	7
EXSTR	67	288	1
NMSI_	67	288	1	96	48	4
EXSTR	67	288	6
NMSI_	67	288	6	96	48	3
BXTAP	68	96	2
BXTAP	68	96	5
NMTAP	68	192	6
NMTAP	68	240	6
NMTAP	68	288	7
NMTAP	68	336	5
NMTAP	69	0	1
NMTAP	69	48	1
NMTAP	69	96	0
NMTAP	69	144	2
NMSTR	69	192	7
NMSCL	69	192	7	96	48	4
NMSTR	69	288	3
NMSCL	69	288	3	96	96	7
NMSUL	69	288	3	96	96	7
EXTAP	70	192	0
EXTAP	70	192	6
BRTAP	70	288	2
BRSTR	70	288	4
BRSI_	70	288	4	96	48	0
EXTAP	71	96	1
EXTAP	71	96	7
NMTAP	71	192	2
NMTAP	71	240	2
NMTAP	71	288	2
NMTAP	71	288	3
NMTAP	72	0	5
NMTAP	72	48	5
NMTAP	72	96	4
NMTAP	72	144	6
NMTAP	72	192	0
NMTAP	72	240	0
NMTAP	72	288	1
NMTAP	72	288	7
NMSTR	73	0	2
NMSI_	73	0	2	96	48	7
NMSTR	73	96	6
NMSCL	73	96	6	96	96	1
NMTAP	74	0	0
NMTAP	74	96	1
NMSTR	74	192	2
NMSI_	74	192	2	96	48	6
BRSTR	74	288	4
NMSI_	74	288	4	96	48	1
NMSI_	74	288	4	96	48	7
BXTAP	75	96	2
BXTAP	75	96	6
NMTAP	75	192	3
NMTAP	75	240	4
NMSTR	75	288	5
NMSCR	75	288	5	96	96	1
NMSUR	75	288	5	96	96	2
NMTAP	76	192	3
NMTAP	76	240	3
NMTAP	76	288	2
NMTAP	76	288	4
NMSTR	77	0	5
NMSI_	77	0	5	96	48	7
NMSTR	77	96	4
NMSI_	77	96	4	96	48	0
NMSTR	77	192	5
NMSI_	77	192	5	96	48	1
NMSTR	77	288	4
NMSCL	77	288	4	96	144	6
NMTAP	78	192	5
NMTAP	78	240	5
NMSTR	78	288	3
BRSI_	78	288	3	96	48	0
BRSI_	78	288	3	96	48	6
NMTAP	78	288	4
BXTAP	79	96	1
BXTAP	79	96	5
NMTAP	79	192	4
NMTAP	79	240	3
NMSTR	79	288	2
NMSCL	79	288	2	96	96	6
NMSUL	79	288	2	96	96	5
NMTAP	80	192	4
NMTAP	80	240	4
NMTAP	80	288	3
NMTAP	80	336	3
NMTAP	81	0	5
NMTAP	81	48	5
NMTAP	81	96	7
NMTAP	81	144	7
NMTAP	81	192	1
NMTAP	81	240	1
NMTAP	81	288	3
NMTAP	81	336	3
NMTAP	82	0	2
NMTAP	82	0	4
NMTAP	82	48	2
NMTAP	82	48	4
NMSTR	82	96	1
BRSCR	82	96	1	96	48	3
NMSTR	82	96	5
BRSCR	82	96	5	96	48	7
CNSV_	82	240	3	0	96	0
CNSV_	82	240	7	0	96	4

T_REC_TAP	193
T_REC_BRK	7
T_REC_XTP	35
T_REC_BXX	17
T_REC_HLD	30
T_REC_XHO	1
T_REC_BHO	1
T_REC_BXH	4
T_REC_STR	33
T_REC_BST	4
T_REC_XST	7
T_REC_XBS	0
T_REC_TTP	27
T_REC_THO	1
T_REC_SLD	40
T_REC_BSL	9
T_REC_ALL	409
T_NUM_TAP	295
T_NUM_BRK	42
T_NUM_HLD	32
T_NUM_SLD	40
T_NUM_ALL	409
T_JUDGE_TAP	323
T_JUDGE_HLD	145
T_JUDGE_SLD	49
T_JUDGE_ALL	517
TTM_EACHPAIRS	80
TTM_SCR_TAP	147500
TTM_SCR_BRK	109200
TTM_SCR_HLD	32000
TTM_SCR_SLD	60000
TTM_SCR_ALL	348700
TTM_SCR_S	334200
TTM_SCR_SS	344500
TTM_RAT_ACV	10121

