VERSION	0.00.00	1.05.00
FES_MODE	0
BPM_DEF	145.000	145.000	145.000	145.000
MET_DEF	4	4
RESOLUTION	384
CLK_DEF	384
COMPATIBLE_CODE	MA2

BPM	0	0	145.000
MET	0	0	4	4

NMHLD	2	0	2	384
NMHLD	3	0	3	384
NMHLD	4	0	4	384
NMTAP	5	0	5
NMHLD	6	0	5	384
NMHLD	7	0	4	384
NMHLD	8	0	3	384
NMTAP	9	0	2
NMTAP	10	0	4
NMTAP	10	96	4
NMTAP	10	192	5
NMTAP	11	0	6
NMTAP	11	96	6
NMTAP	11	192	7
NMTAP	12	0	0
NMTAP	12	96	0
NMTAP	12	192	1
NMTAP	13	0	2
NMTAP	13	96	2
NMTAP	13	192	2
NMTAP	13	192	3
NMTAP	14	0	3
NMTAP	14	96	3
NMTAP	14	192	2
NMTAP	15	0	1
NMTAP	15	96	1
NMTAP	15	192	0
NMTAP	16	0	7
NMTAP	16	96	7
NMTAP	16	192	6
NMTAP	17	0	5
NMTAP	17	96	5
NMTAP	17	192	4
NMTAP	17	192	5
NMHLD	18	0	3	192
NMHLD	18	0	4	192
NMSTR	19	0	5
NMSUL	19	0	5	96	480	2
NMSTR	21	0	1
NMSUR	21	0	1	96	480	4
NMSTR	23	0	6
NMSUL	23	0	6	96	480	3
NMTAP	25	0	2
NMTAP	25	192	2
NMTAP	25	192	3
NMTTP	26	0	1	B	0	L1
NMTTP	26	96	2	B	0	L1
NMTTP	26	192	3	B	0	L1
NMTTP	27	0	6	B	0	L1
NMTTP	27	96	5	B	0	L1
NMTTP	27	192	4	B	0	L1
NMTTP	28	0	1	B	0	L1
NMTTP	28	96	2	B	0	L1
NMTTP	28	192	3	B	0	L1
NMTTP	28	288	4	B	0	L1
NMTTP	29	0	5	B	0	L1
NMTTP	29	96	6	B	0	L1
NMTTP	29	192	0	C	0	L1
NMTTP	30	0	7	B	0	L1
NMTTP	30	96	6	B	0	L1
NMTTP	30	192	4	B	0	L1
NMTTP	30	192	5	B	0	L1
NMTTP	31	0	0	B	0	L1
NMTTP	31	96	1	B	0	L1
NMTTP	31	192	2	B	0	L1
NMTTP	31	192	3	B	0	L1
NMTTP	32	0	6	B	0	L1
NMTTP	32	96	5	B	0	L1
NMTTP	32	192	4	B	0	L1
NMTTP	32	288	3	B	0	L1
NMTTP	33	0	0	C	1	L1
EXTAP	34	0	1
EXTAP	34	96	1
EXTAP	34	192	0
EXTAP	34	192	1
NMTAP	35	0	2
NMTAP	35	96	2
NMTAP	35	192	2
NMTAP	35	192	3
NMTAP	36	0	4
NMTAP	36	96	4
NMTAP	36	192	4
NMTAP	36	192	5
NMTAP	37	0	6
NMTAP	37	0	7
NMTAP	37	96	6
NMTAP	37	96	7
NMTAP	37	192	6
NMTAP	37	192	7
NMTAP	38	0	6
NMTAP	38	96	6
NMTAP	38	192	6
NMTAP	38	192	7
NMTAP	39	0	5
NMTAP	39	96	5
NMTAP	39	192	4
NMTAP	39	192	5
NMTAP	40	0	3
NMTAP	40	96	3
NMTAP	40	192	2
NMTAP	40	192	3
NMTAP	41	0	0
NMTAP	41	0	1
NMTAP	41	96	0
NMTAP	41	96	1
BRTAP	41	192	0
BRTAP	41	192	1
NMTAP	42	0	2
NMTAP	42	96	2
NMTAP	42	192	1
NMTAP	42	288	1
NMTAP	43	0	0
NMTAP	43	96	0
NMTAP	43	192	6
NMTAP	43	192	7
NMTAP	44	0	5
NMTAP	44	96	5
NMTAP	44	192	6
NMTAP	44	288	6
NMTAP	45	0	7
NMTAP	45	96	7
NMTAP	45	192	0
NMTAP	45	192	1
NMTAP	46	0	1
NMTAP	46	96	1
NMTAP	46	192	2
NMTAP	46	288	2
NMTAP	47	0	3
NMTAP	47	96	3
NMTAP	47	192	4
NMTAP	47	192	5
NMTAP	48	0	6
NMTAP	48	96	6
NMTAP	48	192	5
NMTAP	48	288	5
NMTAP	49	0	4
NMTAP	49	96	4
NMTAP	49	192	2
NMTAP	49	192	3
NMTAP	50	0	3
NMTAP	50	96	2
NMTAP	50	192	1
NMTAP	50	288	0
NMTAP	51	0	7
NMTAP	51	96	6
NMTAP	51	192	4
NMTAP	51	192	5
NMTAP	52	0	4
NMTAP	52	96	5
NMTAP	52	192	6
NMTAP	52	288	7
NMTAP	53	0	0
NMTAP	53	96	1
NMTAP	53	192	2
NMTAP	53	192	3
NMTAP	54	0	3
NMTAP	54	96	2
NMTAP	54	192	1
NMTAP	54	288	0
NMTAP	55	0	7
NMTAP	55	96	6
NMTAP	55	192	5
NMTAP	55	288	4
NMTAP	56	0	3
NMTAP	56	96	2
NMTAP	56	192	1
NMTAP	56	288	0
NMTAP	57	0	0
NMTAP	57	0	7
NMTAP	57	96	0
NMTAP	57	96	7
NMTAP	57	192	1
NMTAP	57	192	6
NMSTR	58	0	0
NMSI_	58	0	0	96	192	4
NMSTR	59	0	6
NMSI_	59	0	6	96	192	3
NMSTR	60	0	1
NMSI_	60	0	1	96	192	5
NMTAP	61	0	6
NMTAP	61	192	6
NMTAP	61	192	7
NMSTR	62	0	5
NMSI_	62	0	5	96	192	2
NMSTR	63	0	1
NMSI_	63	0	1	96	192	4
NMSTR	64	0	5
NMSI_	64	0	5	96	192	0
NMSTR	65	0	1
NMSUR	65	0	1	96	480	4
BRTAP	67	0	5
NMTAP	67	96	5
NMTAP	67	192	6
NMTAP	67	192	7
NMTAP	67	288	6
NMTAP	67	288	7
NMTAP	68	0	0
NMTAP	68	96	0
NMTAP	68	192	0
NMTAP	68	192	1
NMTAP	69	0	2
NMTAP	69	96	2
NMTAP	69	192	0
NMTAP	69	192	1
NMTAP	69	288	0
NMTAP	69	288	1
NMTAP	70	0	7
NMTAP	70	96	7
NMTAP	70	192	6
NMTAP	70	192	7
NMTAP	71	0	6
NMTAP	71	96	6
NMTAP	71	192	4
NMTAP	71	192	5
NMTAP	71	288	4
NMTAP	71	288	5
NMTAP	72	0	3
NMTAP	72	96	3
NMTAP	72	192	2
NMTAP	72	192	3
NMTAP	73	0	1
NMTAP	73	96	1
NMTAP	73	192	2
NMTAP	73	192	3
NMTAP	73	288	2
NMTAP	73	288	3
NMTAP	74	0	4
NMTAP	74	96	4
NMTAP	74	192	4
NMTAP	74	192	5
NMTAP	75	0	5
NMTAP	75	96	5
NMTAP	75	192	6
NMTAP	75	192	7
NMTAP	75	288	6
NMTAP	75	288	7
NMTAP	76	0	0
NMTAP	76	96	0
NMTAP	76	192	0
NMTAP	76	192	1
NMTAP	76	288	0
NMTAP	76	288	1
NMTAP	77	0	2
NMTAP	77	96	2
NMTAP	77	192	0
NMTAP	77	192	1
NMTAP	77	288	0
NMTAP	77	288	1
NMTAP	78	0	7
NMTAP	78	96	7
NMTAP	78	192	6
NMTAP	78	192	7
NMTAP	79	0	6
NMTAP	79	96	6
NMTAP	79	192	4
NMTAP	79	192	5
NMTAP	79	288	4
NMTAP	79	288	5
NMTAP	80	0	3
NMTAP	80	96	3
NMTAP	80	192	2
NMTAP	80	192	3
NMTAP	80	288	2
NMTAP	80	288	3
NMTAP	81	0	1
NMTAP	81	96	1
NMTAP	81	192	2
NMTAP	81	192	3
NMTAP	81	288	2
NMTAP	81	288	3
NMTAP	82	0	4
NMTAP	82	96	4
EXHLD	82	192	3	144
EXHLD	82	192	4	144

T_REC_TAP	211
T_REC_BRK	3
T_REC_XTP	4
T_REC_BXX	0
T_REC_HLD	8
T_REC_XHO	2
T_REC_BHO	0
T_REC_BXH	0
T_REC_STR	10
T_REC_BST	0
T_REC_XST	0
T_REC_XBS	0
T_REC_TTP	26
T_REC_THO	0
T_REC_SLD	10
T_REC_BSL	0
T_REC_ALL	274
T_NUM_TAP	251
T_NUM_BRK	3
T_NUM_HLD	10
T_NUM_SLD	10
T_NUM_ALL	274
T_JUDGE_TAP	254
T_JUDGE_HLD	62
T_JUDGE_SLD	10
T_JUDGE_ALL	326
TTM_EACHPAIRS	52
TTM_SCR_TAP	125500
TTM_SCR_BRK	7800
TTM_SCR_HLD	10000
TTM_SCR_SLD	15000
TTM_SCR_ALL	158300
TTM_SCR_S	153300
TTM_SCR_SS	158000
TTM_RAT_ACV	10018

