VERSION	0.00.00	1.05.00
FES_MODE	0
BPM_DEF	145.000	145.000	145.000	145.000
MET_DEF	4	4
RESOLUTION	384
CLK_DEF	384
COMPATIBLE_CODE	MA2

BPM	0	0	145.000
MET	0	0	4	4

NMTAP	2	0	0
NMTAP	3	0	0
NMTAP	4	0	0
NMTAP	5	0	0
NMTAP	6	0	7
NMTAP	7	0	7
NMTAP	8	0	7
NMTAP	9	0	0
NMTAP	9	0	7
NMTAP	10	0	7
NMTAP	10	192	7
NMTAP	11	0	6
NMTAP	11	192	6
NMTAP	12	0	5
NMTAP	12	192	5
NMTAP	13	0	4
NMTAP	13	192	4
NMTAP	14	0	3
NMTAP	14	192	3
NMTAP	15	0	2
NMTAP	15	192	2
NMTAP	16	0	1
NMTAP	16	192	1
NMTAP	17	0	0
EXTAP	17	192	0
EXTAP	18	0	0
EXTAP	18	0	7
NMSTR	19	0	0
NMSI_	19	0	0	96	288	4
NMSTR	21	0	7
NMSI_	21	0	7	96	288	3
NMSTR	23	0	1
NMSI_	23	0	1	96	288	5
NMTTP	26	0	7	B	0	L1
NMTTP	27	0	0	B	0	L1
NMTTP	28	0	6	B	0	L1
NMTTP	29	0	1	B	0	L1
NMTTP	30	0	5	B	0	L1
NMTTP	31	0	2	B	0	L1
NMTTP	32	0	4	B	0	L1
NMTTP	33	0	0	C	1	L1
NMTAP	34	0	0
BXTAP	34	96	0
NMTAP	34	192	0
NMTAP	35	0	1
NMTAP	35	192	1
NMTAP	36	0	2
NMTAP	36	96	2
NMTAP	36	192	2
NMTAP	37	0	2
NMTAP	37	0	3
NMTAP	38	0	4
NMTAP	38	96	4
NMTAP	38	192	4
NMTAP	39	0	5
NMTAP	39	192	5
NMTAP	40	0	6
NMTAP	40	96	6
NMTAP	40	192	6
NMTAP	41	0	6
NMTAP	41	0	7
NMTAP	42	0	7
BXTAP	42	96	7
NMTAP	42	192	7
NMTAP	43	0	6
NMTAP	43	96	6
NMTAP	43	192	6
NMTAP	44	0	5
NMTAP	44	96	5
NMTAP	44	192	5
NMTAP	45	0	3
NMTAP	45	0	4
NMTAP	45	192	3
NMTAP	45	192	4
NMTAP	46	0	3
NMTAP	46	96	3
NMTAP	46	192	3
NMTAP	47	0	2
NMTAP	47	96	2
NMTAP	47	192	2
NMTAP	48	0	1
NMTAP	48	96	1
NMTAP	48	192	1
NMHLD	49	0	0	384
NMHLD	49	0	7	384
EXTAP	51	0	0
EXTAP	51	96	0
EXTAP	51	192	0
EXTAP	51	192	1
NMTAP	52	0	2
NMTAP	52	96	2
NMTAP	52	192	3
NMTAP	52	192	4
NMTAP	53	0	5
NMTAP	53	96	5
NMTAP	53	192	6
NMTAP	53	192	7
NMTAP	54	0	6
NMTAP	54	96	6
NMTAP	54	192	6
NMTAP	54	192	7
NMTAP	55	0	5
NMTAP	55	96	5
NMTAP	55	192	3
NMTAP	55	192	4
NMTAP	56	0	2
NMTAP	56	96	2
NMTAP	56	192	2
NMTAP	56	192	3
NMTAP	57	0	1
NMTAP	57	96	1
NMTAP	57	192	0
NMTAP	57	192	7
NMHLD	58	0	0	384
NMHLD	58	0	1	384
NMHLD	60	0	2	384
NMHLD	60	0	3	384
NMHLD	62	0	4	384
NMHLD	62	0	5	384
NMHLD	64	0	6	384
NMHLD	64	0	7	384
EXHLD	66	0	0	384
EXHLD	66	0	7	384
NMTAP	68	0	6
BRTAP	68	96	6
NMTAP	68	192	6
NMTAP	69	0	5
NMTAP	69	96	5
NMTAP	69	192	5
NMTAP	70	0	4
NMTAP	70	96	4
NMTAP	70	192	3
NMTAP	70	192	4
NMTAP	71	0	3
NMTAP	71	96	3
NMTAP	71	192	3
NMTAP	72	0	2
NMTAP	72	96	2
NMTAP	72	192	2
NMTAP	73	0	1
NMTAP	73	96	1
NMTAP	73	192	1
NMTAP	74	0	0
NMTAP	74	96	0
NMTAP	74	192	0
NMTAP	74	192	7
NMTAP	75	0	0
BRTAP	75	96	0
NMTAP	75	192	0
NMTAP	75	288	0
NMTAP	76	0	1
NMTAP	76	96	1
NMTAP	76	192	0
NMTAP	76	192	1
NMTAP	77	0	2
NMTAP	77	96	2
NMTAP	77	192	2
NMTAP	77	288	2
NMTAP	78	0	3
NMTAP	78	96	3
NMTAP	78	192	3
NMTAP	78	192	4
NMTAP	79	0	4
NMTAP	79	96	4
NMTAP	79	192	4
NMTAP	79	288	4
NMTAP	80	0	5
NMTAP	80	96	5
NMTAP	80	192	4
NMTAP	80	192	5
NMTAP	81	0	6
NMTAP	81	96	6
NMTAP	81	192	6
NMTAP	81	288	6
NMHLD	82	0	0	336
NMHLD	82	0	7	336

T_REC_TAP	137
T_REC_BRK	2
T_REC_XTP	7
T_REC_BXX	2
T_REC_HLD	12
T_REC_XHO	2
T_REC_BHO	0
T_REC_BXH	0
T_REC_STR	3
T_REC_BST	0
T_REC_XST	0
T_REC_XBS	0
T_REC_TTP	8
T_REC_THO	0
T_REC_SLD	3
T_REC_BSL	0
T_REC_ALL	176
T_NUM_TAP	155
T_NUM_BRK	4
T_NUM_HLD	14
T_NUM_SLD	3
T_NUM_ALL	176
T_JUDGE_TAP	159
T_JUDGE_HLD	110
T_JUDGE_SLD	3
T_JUDGE_ALL	272
TTM_EACHPAIRS	25
TTM_SCR_TAP	77500
TTM_SCR_BRK	10400
TTM_SCR_HLD	14000
TTM_SCR_SLD	4500
TTM_SCR_ALL	106400
TTM_SCR_S	102850
TTM_SCR_SS	106000
TTM_RAT_ACV	10037

