VERSION	0.00.00	1.04.00
FES_MODE	0
BPM_DEF	143.000	143.000	143.000	143.000
MET_DEF	4	4
RESOLUTION	384
CLK_DEF	384
COMPATIBLE_CODE	MA2

BPM	0	0	143.000
MET	0	0	4	4

BRTAP	1	0	1
BRTAP	1	0	6
NMTTP	1	144	3	E	0	M1
NMTTP	1	160	3	B	0	M1
NMTTP	1	176	4	B	0	M1
NMTTP	1	192	5	E	0	M1
NMTTP	1	264	1	B	0	M1
NMTTP	1	264	2	E	0	M1
NMTTP	1	336	5	B	0	M1
NMTTP	1	336	6	E	0	M1
NMTTP	2	0	4	E	0	M1
NMTAP	2	96	6
NMTAP	2	144	6
NMHLD	2	192	4	72
NMHLD	2	264	5	72
NMTAP	2	336	4
NMTAP	3	0	3
NMTAP	3	0	4
NMTTP	3	96	2	A	0	M1
NMTTP	3	112	3	E	0	M1
NMTTP	3	128	4	E	0	M1
NMTTP	3	144	2	E	0	M1
NMTTP	3	160	2	B	0	M1
NMTTP	3	176	4	B	0	M1
NMTTP	3	192	0	B	0	M1
NMTTP	3	192	1	E	0	M1
NMTTP	3	264	6	B	0	M1
NMTTP	3	264	6	E	0	M1
NMTTP	3	336	4	B	0	M1
NMTTP	3	336	5	E	0	M1
NMTTP	4	0	3	E	0	M1
NMTTP	4	0	3	D	0	M1
NMTAP	4	96	1
NMTAP	4	144	1
NMHLD	4	192	3	72
NMHLD	4	264	2	72
NMTAP	4	336	3
NMTAP	5	0	3
NMTAP	5	0	4
NMTTP	5	96	5	A	0	M1
NMTTP	5	112	5	E	0	M1
NMTTP	5	128	4	E	0	M1
NMTTP	5	144	6	E	0	M1
NMTTP	5	160	5	B	0	M1
NMTTP	5	176	3	B	0	M1
NMTTP	5	192	7	B	0	M1
NMTTP	5	192	7	E	0	M1
NMTTP	5	264	1	B	0	M1
NMTTP	5	264	2	E	0	M1
NMTTP	5	336	3	B	0	M1
NMTTP	5	336	3	E	0	M1
NMTTP	6	0	5	E	0	M1
NMTTP	6	0	5	D	0	M1
NMTAP	6	96	6
NMTAP	6	144	6
NMHLD	6	192	4	72
NMHLD	6	264	5	72
NMTAP	6	336	4
NMTAP	7	0	3
NMTAP	7	0	4
NMTTP	7	96	2	A	0	M1
NMTTP	7	112	3	E	0	M1
NMTTP	7	128	4	E	0	M1
NMTTP	7	144	2	E	0	M1
NMTTP	7	160	2	B	0	M1
NMTTP	7	176	4	B	0	M1
NMTTP	7	192	0	B	0	M1
NMTTP	7	192	1	E	0	M1
NMTTP	7	264	6	B	0	M1
NMTTP	7	264	6	E	0	M1
NMTTP	7	336	4	B	0	M1
NMTTP	7	336	5	E	0	M1
NMTTP	8	0	3	E	0	M1
NMTTP	8	0	3	D	0	M1
NMTAP	8	96	0
NMTAP	8	96	1
NMTAP	8	144	0
NMTAP	8	144	1
NMHLD	8	192	2	72
NMSTR	8	192	7
NMSI_	8	192	7	96	48	3
BRTAP	8	288	7
BXSTR	9	0	2
NMSI_	9	0	2	96	96	0
BXTAP	9	0	4
CNSI_	9	192	0	0	96	6
CNSI_	9	288	6	0	96	4
NMSTR	10	0	3
NMSI_	10	0	3	96	96	1
CNSI_	10	192	1	0	96	7
CNSI_	10	288	7	0	96	5
NMSTR	11	0	4
NMSI_	11	0	4	96	96	2
CNSI_	11	192	2	0	96	0
CNSI_	11	288	0	0	96	6
NMSTR	12	0	5
NMSI_	12	0	5	96	96	3
CNSI_	12	192	3	0	96	1
CNSI_	12	288	1	0	96	7
NMHLD	13	0	6	48
NMHLD	13	96	6	48
NMHLD	13	192	5	48
NMHLD	13	192	7	72
NMHLD	13	288	5	48
NMHLD	13	288	7	48
NMTAP	14	0	0
NMTAP	14	0	6
NMTAP	14	48	6
NMTAP	14	96	1
NMTAP	14	96	5
NMTAP	14	144	5
NMTAP	14	192	2
NMTAP	14	192	4
NMTAP	14	240	4
NMTAP	14	288	3
NMTAP	14	288	5
NMTAP	14	336	3
NMTAP	15	0	4
NMTAP	15	24	2
NMTAP	15	48	4
NMTAP	15	72	2
NMTAP	15	96	5
NMTAP	15	120	1
NMTAP	15	144	5
NMTAP	15	168	1
NMTAP	15	192	6
NMTAP	15	216	0
NMTAP	15	240	6
NMTAP	15	264	0
NMTAP	15	288	7
NMTAP	15	312	1
NMTAP	15	336	7
NMHLD	15	360	1	84
NMTAP	16	48	6
NMTAP	16	96	7
NMTAP	16	128	7
NMTAP	16	160	7
NMHLD	16	192	0	12
NMHLD	16	192	6	12
NMHLD	16	240	0	12
NMHLD	16	240	6	12
BRSTR	16	288	1
BRSI_	16	288	1	96	48	5
BRTAP	16	288	5
BRTAP	17	0	1
NMSTR	17	0	6
NMSI_	17	0	6	96	48	2
NMTAP	17	96	3
NMSTR	17	144	1
NMSCL	17	144	1	96	24	0
NMTAP	17	240	3
CNSI_	17	264	0	0	72	4
NMTAP	17	288	5
NMSTR	17	336	7
NMSI_	17	336	7	96	48	2
NMTAP	18	48	2
NMTAP	18	96	1
CNSI_	18	96	2	0	48	6
NMTAP	18	144	0
CNSI_	18	144	6	0	48	3
NMTAP	18	240	2
NMSTR	18	288	1
BRSI_	18	288	1	96	48	4
NMTAP	18	336	0
NMTAP	18	336	7
NMTAP	19	0	1
NMSTR	19	0	6
NMSLL	19	0	6	96	96	0
NMTAP	19	96	3
NMSTR	19	144	1
NMSI_	19	144	1	96	48	3
NMSTR	19	240	1
NMSCL	19	240	1	96	48	6
NMTAP	19	240	7
NMSTR	19	336	1
NMSXL	19	336	1	96	144	7
EXTAP	19	336	4
NMTAP	20	48	5
NMTAP	20	96	5
NMTAP	20	144	5
NMTAP	20	240	0
NMTAP	20	240	6
NMTAP	20	288	1
NMSTR	20	288	5
NMSCR	20	288	5	96	48	0
NMTAP	20	336	2
NMTAP	20	336	4
NMHLD	21	0	1	96
EXTAP	21	96	0
NMSTR	21	144	2
NMSXR	21	144	2	96	96	4
NMTAP	21	144	7
NMSTR	21	240	4
NMSCR	21	240	4	96	144	3
NMTAP	21	288	5
NMHLD	21	336	6	144
NMTAP	22	192	4
NMTAP	22	192	6
NMSTR	22	240	3
NMSCR	22	240	3	96	96	0
NMTAP	22	240	5
NMTAP	22	288	2
NMTAP	22	288	4
NMHLD	22	336	1	96
NMTAP	23	96	2
NMSTR	23	144	3
NMSCL	23	144	3	96	48	0
NMSTR	23	144	7
NMSCL	23	144	7	96	48	4
NMTAP	23	240	3
NMTAP	23	240	7
NMTAP	23	336	1
NMTAP	23	336	5
NMHLD	24	48	2	12
NMHLD	24	48	5	12
NMTAP	24	120	3
NMTAP	24	144	4
NMHLD	24	192	4	12
NMHLD	24	192	5	12
NMHLD	24	264	3	12
NMHLD	24	264	4	12
NMHLD	24	324	2	12
NMHLD	24	324	3	12
BRSTR	25	0	1
NMSI_	25	0	1	96	48	5
BRTAP	25	0	4
NMTAP	25	96	7
NMSTR	25	144	6
NMSCR	25	144	6	96	24	7
NMTAP	25	240	2
CNSI_	25	264	7	0	72	3
NMTAP	25	288	1
NMSTR	25	336	0
NMSI_	25	336	0	96	48	5
NMTAP	26	48	4
CNSI_	26	96	5	0	48	1
EXTAP	26	96	6
NMTAP	26	144	0
CNSI_	26	144	1	0	48	4
NMSTR	26	240	6
BRSI_	26	240	6	96	48	3
NMTAP	26	288	7
NMSTR	26	336	0
NMSLR	26	336	0	96	96	7
NMTAP	26	336	6
NMTAP	27	96	4
NMSTR	27	144	6
NMSCL	27	144	6	96	48	3
NMTAP	27	240	0
NMSTR	27	240	6
NMSI_	27	240	6	96	48	0
NMSTR	27	336	6
NMSI_	27	336	6	96	48	4
NMTAP	28	0	2
NMTAP	28	48	6
NMTAP	28	96	2
NMHLD	28	144	1	96
NMTAP	28	144	3
NMTAP	28	240	7
NMSTR	28	288	2
NMSCL	28	288	2	96	48	7
NMTAP	28	288	6
NMTAP	28	336	3
NMTAP	28	336	5
NMHLD	29	0	6	96
EXTAP	29	96	7
NMTAP	29	144	0
NMSTR	29	144	5
NMSUL	29	144	5	96	96	3
NMSTR	29	240	3
NMSCL	29	240	3	96	144	4
NMTAP	29	288	2
NMHLD	29	336	1	144
NMTAP	30	192	1
NMTAP	30	192	3
NMTAP	30	240	2
NMSTR	30	240	4
NMSCL	30	240	4	96	96	7
NMTAP	30	288	3
NMTAP	30	288	5
NMHLD	30	336	6	96
NMTAP	31	96	5
NMSTR	31	144	0
NMSUR	31	144	0	96	48	4
NMTAP	31	144	4
EXTAP	31	240	0
NMSTR	31	240	5
NMSXL	31	240	5	96	144	1
NMTAP	31	336	3
NMTAP	32	48	2
NMTAP	32	96	2
NMHLD	32	192	1	12
NMHLD	32	192	3	12
NMHLD	32	240	1	12
NMHLD	32	240	3	12
BXTAP	32	288	0
NMTTP	32	288	0	C	1	M1
NMTAP	33	0	1
NMTAP	33	24	7
NMTAP	33	48	1
NMTAP	33	72	7
NMTAP	33	96	0
NMTAP	33	120	6
NMTAP	33	144	0
NMTAP	33	168	6
NMTTP	33	192	1	E	0	M1
NMTTP	33	216	1	B	0	M1
NMTTP	33	240	2	B	0	M1
NMTTP	33	264	3	E	0	M1
NMTTP	33	288	6	A	0	M1
NMTTP	33	312	6	E	0	M1
NMTTP	33	336	5	B	0	M1
NMTTP	33	360	4	B	0	M1
NMTAP	34	0	1
NMTAP	34	24	3
NMTAP	34	48	1
NMTAP	34	72	3
NMTAP	34	96	2
NMTAP	34	120	4
NMTAP	34	144	2
NMTAP	34	168	4
NMTTP	34	192	3	E	0	M1
NMTTP	34	216	2	B	0	M1
NMTTP	34	240	1	B	0	M1
NMTTP	34	264	1	E	0	M1
NMTTP	34	288	5	A	0	M1
NMTTP	34	312	6	E	0	M1
NMTTP	34	336	6	B	0	M1
NMTTP	34	360	7	B	0	M1
NMTAP	35	0	1
NMTAP	35	24	0
NMTAP	35	48	1
NMTAP	35	72	0
NMTAP	35	96	1
NMTAP	35	120	7
NMTAP	35	144	1
NMTAP	35	168	7
NMTTP	35	192	2	E	0	M1
NMTTP	35	216	2	B	0	M1
NMTTP	35	240	3	B	0	M1
NMTTP	35	264	4	E	0	M1
NMTTP	35	288	7	E	0	M1
NMTTP	35	312	6	B	0	M1
NMTTP	35	336	5	B	0	M1
NMTTP	35	360	5	E	0	M1
NMTAP	36	0	1
NMTAP	36	24	3
NMTAP	36	48	1
NMTAP	36	72	3
NMSTR	36	96	2
NMSUR	36	96	2	96	96	4
NMTAP	36	120	3
NMTAP	36	144	2
NMTAP	36	168	3
BRTAP	36	288	7
NMTAP	37	0	6
NMTAP	37	24	0
NMTAP	37	48	6
NMTAP	37	72	0
NMTAP	37	96	7
NMTAP	37	120	1
NMTAP	37	144	7
NMTAP	37	168	1
NMTTP	37	192	7	D	0	M1
NMTTP	37	216	6	D	0	M1
NMTTP	37	240	5	D	0	M1
NMTTP	37	264	4	D	0	M1
NMTTP	37	288	0	A	0	M1
NMTTP	37	312	1	A	0	M1
NMTTP	37	336	2	A	0	M1
NMTTP	37	360	3	A	0	M1
NMTAP	38	0	6
NMTAP	38	24	4
NMTAP	38	48	6
NMTAP	38	72	4
NMTAP	38	96	5
NMTAP	38	120	3
NMTAP	38	144	5
NMTAP	38	168	3
NMTTP	38	192	5	D	0	M1
NMTTP	38	216	6	D	0	M1
NMTTP	38	240	7	D	0	M1
NMTTP	38	264	0	D	0	M1
NMTTP	38	288	4	A	0	M1
NMTTP	38	312	3	A	0	M1
NMTTP	38	336	2	A	0	M1
NMTTP	38	360	1	A	0	M1
NMTAP	39	0	6
NMTAP	39	24	7
NMTAP	39	48	6
NMTAP	39	72	7
NMTAP	39	96	6
NMTAP	39	120	0
NMTAP	39	144	6
NMTAP	39	168	0
NMTTP	39	192	7	D	0	M1
NMTTP	39	216	6	D	0	M1
NMTTP	39	240	5	D	0	M1
NMTTP	39	264	4	D	0	M1
NMTTP	39	288	7	A	0	M1
NMTTP	39	312	0	A	0	M1
NMTTP	39	336	1	A	0	M1
NMTTP	39	360	2	A	0	M1
NMTAP	40	0	6
NMTAP	40	24	4
NMTAP	40	48	6
NMTAP	40	72	4
NMTAP	40	96	5
NMTAP	40	120	3
NMTAP	40	144	4
NMTAP	40	168	2
NMTAP	40	192	3
NMTAP	40	216	1
NMTAP	40	240	3
NMTAP	40	264	1
EXTAP	40	288	3
EXTAP	40	300	4
EXTAP	40	312	5
EXTAP	40	324	6
EXTAP	40	336	7
EXTAP	40	348	0
EXTAP	40	360	1
EXTAP	40	372	2
NMTTP	41	0	0	C	1	M1
BXHLD	41	0	3	384
NMHLD	42	48	3	12
NMHLD	42	48	4	12
NMTAP	42	96	2
NMTAP	42	96	5
NMTAP	42	144	2
NMTAP	42	144	5
NMTAP	42	192	3
NMTAP	42	192	4
NMTAP	42	224	5
NMTAP	42	256	6
NMTAP	42	288	0
NMTAP	42	288	7
NMTAP	42	320	1
NMTAP	42	352	2
BRTAP	43	0	3
BXHLD	43	0	5	768
NMTAP	43	96	4
NMTAP	43	144	4
NMSTR	43	240	6
NMSCR	43	240	6	96	192	4
NMTAP	44	240	4
NMTAP	44	288	3
NMTAP	44	336	3
NMHLD	45	0	2	768
NMTAP	45	96	3
NMTAP	45	144	3
NMSTR	45	240	1
NMSCL	45	240	1	96	192	3
NMHLD	47	0	3	768
NMTAP	47	96	2
NMTAP	47	144	2
NMSTR	47	240	4
NMSCR	47	240	4	96	192	2
NMTAP	48	240	2
NMTAP	48	288	1
NMTAP	48	336	1
NMHLD	49	0	0	240
NMTAP	49	96	2
NMTAP	49	144	2
NMTAP	49	240	1
NMTAP	49	336	0
NMTAP	49	336	7
NMTAP	50	0	0
NMTAP	50	24	7
NMTAP	50	48	0
NMTAP	50	72	7
NMTAP	50	96	0
NMTAP	50	120	7
NMTAP	50	144	0
NMTAP	50	168	7
NMTAP	50	192	0
NMTAP	50	204	1
NMTAP	50	216	2
NMTAP	50	228	3
NMTAP	50	240	6
NMTAP	50	252	5
NMTAP	50	264	4
NMTAP	50	276	3
NMTTP	50	288	0	C	1	M1
BRSTR	51	0	7
NMSI_	51	0	7	96	48	3
NMTAP	51	96	0
NMHLD	51	192	2	72
NMHLD	51	264	1	72
NMTAP	51	336	0
NMSTR	52	0	2
NMSI_	52	0	2	96	48	4
NMHLD	52	0	7	240
NMTAP	52	240	4
NMTAP	52	288	4
NMTAP	52	312	5
NMTAP	52	336	3
NMTAP	52	360	4
NMSTR	53	0	2
NMSI_	53	0	2	96	48	7
NMTAP	53	96	3
NMHLD	53	192	6	72
NMHLD	53	264	5	72
NMTAP	53	336	4
NMHLD	54	0	3	96
NMSTR	54	0	6
NMSI_	54	0	6	96	48	4
NMTAP	54	192	2
NMTAP	54	216	4
NMTAP	54	240	3
NMTAP	54	264	5
NMTAP	54	288	2
NMTAP	54	312	4
NMTAP	54	336	1
NMTAP	54	360	3
BRSTR	55	0	0
NMSI_	55	0	0	96	48	4
NMTAP	55	96	7
NMHLD	55	192	5	72
NMHLD	55	264	6	72
NMTAP	55	336	7
NMSTR	56	0	0
NMSI_	56	0	0	96	48	2
NMSTR	56	0	5
NMSI_	56	0	5	96	48	3
NMTAP	56	240	2
NMTAP	56	240	3
NMTAP	56	288	2
NMTAP	56	312	4
NMTAP	56	336	3
NMTAP	56	360	5
NMSTR	57	0	4
NMSCL	57	0	4	96	48	1
NMTAP	57	96	5
NMTAP	57	192	0
NMTAP	57	192	7
NMTAP	57	240	0
NMTAP	57	240	7
NMTAP	57	264	1
NMTAP	57	264	6
NMTAP	57	288	2
NMTAP	57	288	5
NMTAP	57	336	2
NMTAP	57	336	5
BRTAP	58	0	3
BRTAP	58	0	4
NMTAP	58	48	2
NMTAP	58	60	3
NMTAP	58	120	1
NMTAP	58	144	1
NMTAP	58	192	2
NMTAP	58	204	3
NMTAP	58	264	3
NMTAP	58	276	4
NMTAP	58	324	4
NMTAP	58	336	5
NMTAP	59	0	4
NMTAP	59	0	6
NMTAP	59	32	5
NMTAP	59	64	4
NMSTR	59	96	3
NMSI_	59	96	3	96	48	0
NMTAP	59	128	2
NMTAP	59	160	1
EXTAP	59	192	0
BRSTR	60	0	0
NMSI_	60	0	0	96	48	4
BRTAP	60	0	1
NMTAP	60	48	7
NMTAP	60	96	0
NMTAP	60	96	6
NMSTR	60	144	5
NMSI_	60	144	5	96	48	1
NMSTR	60	240	5
NMSCR	60	240	5	96	96	3
NMTAP	60	288	2
NMSTR	60	336	3
NMSCL	60	336	3	96	96	5
NMTAP	61	48	5
NMTAP	61	96	4
NMTAP	61	144	3
NMSTR	61	240	6
BRSI_	61	240	6	96	48	3
NMTAP	61	288	7
NMSTR	61	336	0
NMSLR	61	336	0	96	96	5
NMTAP	61	336	6
NMTAP	62	96	4
NMSTR	62	144	6
NMSCL	62	144	6	96	48	3
NMSTR	62	240	0
NMSCR	62	240	0	96	48	3
NMTAP	62	240	6
NMTAP	62	336	0
NMSTR	62	336	7
BRSI_	62	336	7	96	48	3
NMTAP	63	0	6
NMTAP	63	48	4
NMTAP	63	48	7
NMTAP	63	96	2
NMHLD	63	144	0	96
NMTAP	63	240	7
NMSTR	63	288	1
NMSCL	63	288	1	96	48	6
NMTAP	63	288	6
NMTAP	63	336	2
NMTAP	63	336	5
NMHLD	64	0	4	96
EXTAP	64	96	7
NMTAP	64	144	0
NMSTR	64	144	5
NMSXL	64	144	5	96	96	3
NMSTR	64	240	3
NMSCL	64	240	3	96	144	4
NMTAP	64	288	2
NMHLD	64	336	1	144
NMTAP	65	192	1
NMTAP	65	192	3
NMTAP	65	240	2
NMSTR	65	240	4
NMSCL	65	240	4	96	96	7
NMTAP	65	288	3
NMTAP	65	288	5
NMHLD	65	336	6	96
NMTAP	66	96	5
NMSTR	66	144	0
NMSCR	66	144	0	96	48	3
NMSTR	66	144	4
NMSV_	66	144	4	96	48	7
EXTAP	66	240	0
EXTAP	66	240	4
NMTAP	66	336	2
NMTAP	66	336	6
NMHLD	67	48	2	12
NMHLD	67	48	5	12
NMTAP	67	120	4
NMTAP	67	144	3
NMHLD	67	192	2	12
NMHLD	67	192	3	12
NMHLD	67	264	3	12
NMHLD	67	264	4	12
NMHLD	67	324	4	12
NMHLD	67	324	5	12
BRTAP	68	0	3
BRSTR	68	0	6
NMSI_	68	0	6	96	48	0
NMTAP	68	96	0
NMSTR	68	144	1
NMSI_	68	144	1	96	48	5
NMTAP	68	240	4
CNSI_	68	288	5	0	48	3
NMTAP	68	288	6
NMSTR	68	336	0
NMSI_	68	336	0	96	48	5
NMTAP	69	48	3
NMTAP	69	96	1
CNSI_	69	96	5	0	48	2
CNSI_	69	144	2	0	48	4
NMHLD	69	144	7	96
NMTAP	69	240	6
NMTAP	69	288	0
NMTAP	69	288	5
NMTAP	69	336	1
NMSTR	69	336	4
NMSLR	69	336	4	96	96	0
NMTAP	70	48	3
NMTAP	70	96	2
NMSTR	70	144	1
NMSCR	70	144	1	96	48	4
NMSTR	70	240	1
NMSI_	70	240	1	96	48	7
NMTAP	70	240	7
NMSTR	70	336	1
NMSI_	70	336	1	96	48	3
NMTAP	71	0	3
NMTAP	71	48	1
NMTAP	71	96	5
NMTAP	71	144	4
NMHLD	71	144	6	96
NMTAP	71	240	0
NMTAP	71	288	1
NMSTR	71	288	5
NMSCR	71	288	5	96	48	0
NMTAP	71	336	2
NMTAP	71	336	4
NMHLD	72	0	1	96
EXTAP	72	96	0
NMSTR	72	144	2
NMSUR	72	144	2	96	96	4
NMTAP	72	144	7
NMSTR	72	240	4
NMSCR	72	240	4	96	144	3
NMTAP	72	288	5
NMHLD	72	336	6	144
NMTAP	73	192	4
NMTAP	73	192	6
NMSTR	73	240	3
NMSCR	73	240	3	96	96	0
NMTAP	73	240	5
NMTAP	73	288	2
NMTAP	73	288	4
NMHLD	73	336	1	96
NMTAP	74	96	2
NMTAP	74	144	3
NMSTR	74	144	7
NMSUL	74	144	7	96	48	3
NMSTR	74	240	2
NMSXR	74	240	2	96	144	6
EXTAP	74	240	7
NMTAP	74	336	4
NMTAP	75	48	5
NMTAP	75	96	5
NMHLD	75	192	4	12
NMHLD	75	192	6	12
NMHLD	75	240	4	12
NMHLD	75	240	6	12
NMTTP	75	288	0	C	1	M1
BXTAP	75	288	7
NMTAP	76	0	6
NMTAP	76	24	0
NMTAP	76	48	6
NMTAP	76	72	0
NMTAP	76	96	7
NMTAP	76	120	1
NMTAP	76	144	7
NMTAP	76	168	1
NMTAP	76	192	7
NMTAP	76	216	6
NMTAP	76	240	5
NMTAP	76	264	4
NMTAP	76	288	7
NMTAP	76	312	0
NMTAP	76	336	1
NMTAP	76	360	2
NMTAP	77	0	6
NMTAP	77	24	4
NMTAP	77	48	6
NMTAP	77	72	4
NMTAP	77	96	5
NMTAP	77	120	3
NMTAP	77	144	5
NMTAP	77	168	3
NMTAP	77	192	5
NMTAP	77	216	6
NMTAP	77	240	7
NMTAP	77	264	0
NMTAP	77	288	4
NMTAP	77	312	3
NMTAP	77	336	2
NMTAP	77	360	1
NMTAP	78	0	6
NMTAP	78	24	7
NMTAP	78	48	6
NMTAP	78	72	7
NMTAP	78	96	6
NMTAP	78	120	0
NMTAP	78	144	6
NMTAP	78	168	0
NMTAP	78	192	6
NMTAP	78	216	5
NMTAP	78	240	4
NMTAP	78	264	3
NMTAP	78	288	7
NMTAP	78	312	0
NMTAP	78	336	1
NMTAP	78	360	2
NMTAP	79	0	5
NMTAP	79	24	4
NMTAP	79	48	5
NMTAP	79	72	4
NMTAP	79	96	6
NMTAP	79	120	4
NMTAP	79	144	6
NMTAP	79	168	4
NMTAP	79	192	6
NMTAP	79	216	7
NMTAP	79	240	0
NMTAP	79	264	1
NMTAP	79	288	2
NMTAP	79	312	3
NMTAP	79	336	4
NMTAP	79	360	5
NMTAP	80	0	1
NMTAP	80	24	7
NMTAP	80	48	1
NMTAP	80	72	7
NMTAP	80	96	0
NMTAP	80	120	6
NMTAP	80	144	0
NMTAP	80	168	6
NMTAP	80	192	0
NMTAP	80	216	1
NMTAP	80	240	2
NMTAP	80	264	3
NMTAP	80	288	7
NMTAP	80	312	0
NMTAP	80	336	1
NMTAP	80	360	2
NMTAP	81	0	4
NMTAP	81	24	5
NMTAP	81	48	4
NMTAP	81	72	5
NMTAP	81	96	4
NMTAP	81	120	6
NMTAP	81	144	4
NMTAP	81	168	6
NMTAP	81	192	3
NMTAP	81	216	2
NMTAP	81	240	1
NMTAP	81	264	0
NMTAP	81	288	4
NMTAP	81	312	3
NMTAP	81	336	2
NMTAP	81	360	1
NMTAP	82	0	4
NMTAP	82	24	7
NMTAP	82	48	4
NMTAP	82	72	7
NMTAP	82	96	4
NMTAP	82	120	6
NMTAP	82	144	4
NMTAP	82	168	6
NMTAP	82	192	4
NMTAP	82	216	3
NMTAP	82	240	2
NMTAP	82	264	1
NMSTR	82	288	7
NMSI_	82	288	7	96	48	3
NMTAP	82	312	6
NMTAP	82	336	5
NMTAP	82	360	4
BRTAP	83	0	3
BRTAP	83	0	7
NMHLD	83	48	5	12
NMTAP	83	120	2
NMTAP	83	120	4
NMTAP	83	144	2
NMTAP	83	144	4
NMTAP	83	192	2
NMTAP	83	200	1
NMHLD	83	208	0	48
NMTAP	83	256	5
NMTAP	83	264	6
NMTAP	83	276	7
EXTAP	83	324	7
EXTAP	83	336	0
BXSTR	84	0	0
NMSI_	84	0	0	96	48	2
NMSI_	84	0	0	96	288	3
BXTAP	84	0	7
NMTTP	84	8	0	E	1	M1
NMTTP	84	16	7	B	0	M1
NMTTP	84	24	6	B	0	M1
NMTTP	84	32	6	E	0	M1
CNSXL	84	144	2	0	240	3

T_REC_TAP	461
T_REC_BRK	14
T_REC_XTP	21
T_REC_BXX	4
T_REC_HLD	73
T_REC_XHO	0
T_REC_BHO	0
T_REC_BXH	2
T_REC_STR	69
T_REC_BST	6
T_REC_XST	0
T_REC_XBS	2
T_REC_TTP	107
T_REC_THO	0
T_REC_SLD	73
T_REC_BSL	5
T_REC_ALL	837
T_NUM_TAP	658
T_NUM_BRK	33
T_NUM_HLD	73
T_NUM_SLD	73
T_NUM_ALL	837
T_JUDGE_TAP	684
T_JUDGE_HLD	171
T_JUDGE_SLD	78
T_JUDGE_ALL	933
TTM_EACHPAIRS	106
TTM_SCR_TAP	329000
TTM_SCR_BRK	85800
TTM_SCR_HLD	73000
TTM_SCR_SLD	109500
TTM_SCR_ALL	597300
TTM_SCR_S	576200
TTM_SCR_SS	594000
TTM_RAT_ACV	10055

