VERSION	0.00.00	1.04.00
FES_MODE	0
BPM_DEF	143.000	143.000	143.000	143.000
MET_DEF	4	4
RESOLUTION	384
CLK_DEF	384
COMPATIBLE_CODE	MA2

BPM	0	0	143.000
MET	0	0	4	4

NMSTR	1	0	0
NMSCR	1	0	0	96	192	4
NMHLD	1	0	6	576
NMHLD	2	0	4	192
NMTAP	2	288	4
NMTAP	2	288	6
NMHLD	3	0	1	576
NMSTR	3	0	7
NMSCL	3	0	7	96	192	3
NMHLD	4	0	3	192
NMTAP	4	288	1
NMTAP	4	288	3
NMHLD	5	0	2	576
NMSTR	5	0	4
NMSCR	5	0	4	96	192	0
NMHLD	6	0	0	192
NMTAP	6	288	0
NMTAP	6	288	2
NMSTR	7	0	3
NMSLL	7	0	3	96	192	7
NMHLD	7	0	6	576
NMHLD	8	0	7	192
EXTAP	8	288	6
EXTAP	8	288	7
BRHLD	9	0	1	384
BRTAP	9	0	5
NMTTP	9	192	4	E	0	M1
NMTTP	9	288	2	E	0	M1
NMHLD	10	0	7	384
NMTTP	10	192	4	E	0	M1
NMTTP	10	288	6	E	0	M1
NMHLD	11	0	0	384
NMTTP	11	192	3	E	0	M1
NMTTP	11	288	1	E	0	M1
NMHLD	12	0	6	192
NMTAP	12	192	7
NMTAP	12	288	0
NMTAP	12	288	6
NMTAP	13	0	1
NMTAP	13	96	1
NMTAP	13	96	3
NMTAP	13	192	6
NMTAP	13	288	4
NMTAP	13	288	6
NMTAP	14	0	2
NMTAP	14	96	1
NMTAP	14	96	3
NMTAP	14	192	5
NMTAP	14	288	4
NMTAP	14	288	6
NMTAP	15	0	3
NMTAP	15	48	3
NMTAP	15	96	5
NMTAP	15	144	5
NMTAP	15	192	1
NMTAP	15	240	1
NMTAP	15	288	7
NMTAP	15	336	7
NMSTR	16	0	0
NMSCL	16	0	0	96	96	5
NMSCR	16	0	0	96	96	3
NMTAP	16	288	3
NMTAP	16	288	5
BRTAP	17	0	0
BRTAP	17	0	1
NMTAP	17	96	2
NMTAP	17	96	7
NMTAP	17	144	2
NMTAP	17	144	7
NMTAP	17	240	3
NMTAP	17	288	3
NMTAP	17	336	4
NMTAP	17	336	5
NMTAP	18	48	6
NMTAP	18	96	6
NMTAP	18	144	6
NMTAP	18	144	7
NMTAP	18	240	1
NMTAP	18	240	7
NMTAP	18	288	1
NMTAP	18	288	7
NMTAP	19	0	4
NMTAP	19	0	5
NMTAP	19	96	0
NMTAP	19	96	6
NMTAP	19	144	0
NMTAP	19	144	6
NMTAP	19	240	2
NMTAP	19	240	3
NMTAP	19	336	0
NMTAP	19	336	1
NMTAP	20	48	6
NMTAP	20	48	7
NMTAP	20	144	4
NMTAP	20	144	5
NMTAP	20	240	6
NMTAP	20	240	7
NMTAP	20	288	6
NMTAP	20	288	7
NMHLD	21	0	0	96
NMTAP	21	0	7
NMTAP	21	96	1
NMHLD	21	144	1	96
NMSTR	21	240	2
NMSXR	21	240	2	96	192	4
NMTAP	22	240	5
NMTAP	22	336	3
NMHLD	22	336	4	144
NMTAP	23	96	5
NMHLD	23	144	5	96
NMSTR	23	240	6
NMSXL	23	240	6	96	192	3
NMTAP	24	240	2
NMTAP	24	240	3
NMTAP	24	288	2
NMTAP	24	288	3
BRTAP	25	0	6
BRTAP	25	0	7
NMTAP	25	96	0
NMTAP	25	96	5
NMTAP	25	144	0
NMTAP	25	144	5
NMTAP	25	240	4
NMTAP	25	288	4
NMTAP	25	336	2
NMTAP	25	336	3
NMTAP	26	48	1
NMTAP	26	96	1
NMTAP	26	144	0
NMTAP	26	144	1
NMTAP	26	240	4
NMTAP	26	240	5
NMTAP	26	336	0
NMTAP	26	336	6
NMTAP	27	0	0
NMTAP	27	0	6
NMTAP	27	96	2
NMTAP	27	96	3
NMTAP	27	144	2
NMTAP	27	144	3
NMTAP	27	240	1
NMTAP	27	240	7
NMTAP	27	336	4
NMTAP	27	336	6
NMTAP	28	0	4
NMTAP	28	0	6
NMTAP	28	96	1
NMTAP	28	96	3
NMTAP	28	144	1
NMTAP	28	144	3
NMTAP	28	240	2
NMTAP	28	240	5
NMTAP	28	288	2
NMTAP	28	288	5
NMTAP	29	0	0
NMHLD	29	0	7	96
NMTAP	29	96	6
NMHLD	29	144	6	96
NMSTR	29	240	5
NMSXL	29	240	5	96	192	3
NMTAP	30	240	2
NMTAP	30	288	2
NMTAP	30	336	1
NMTAP	30	336	3
NMTAP	31	48	5
NMTAP	31	96	5
NMTAP	31	144	4
NMTAP	31	144	6
NMTAP	31	240	0
NMTAP	31	240	7
NMTAP	31	336	2
NMTAP	31	336	4
NMTAP	32	48	3
NMTAP	32	48	5
NMTAP	32	96	3
NMTAP	32	96	5
NMTAP	32	192	1
NMTAP	32	192	7
NMTAP	32	240	1
NMTAP	32	240	7
BRTAP	32	288	2
BRTAP	32	288	6
NMHLD	33	0	1	48
NMHLD	33	0	7	48
NMHLD	33	96	2	48
NMHLD	33	96	3	48
NMHLD	33	192	5	72
NMTAP	33	264	4
NMTAP	33	336	6
NMTAP	34	0	6
NMTAP	34	48	7
NMSTR	34	96	7
NMSI_	34	96	7	96	48	2
NMSI_	34	96	7	96	48	3
NMTAP	34	288	1
NMTAP	34	288	4
NMHLD	35	0	6	48
NMHLD	35	0	7	48
NMHLD	35	96	4	48
NMHLD	35	96	5	48
NMHLD	35	192	2	72
NMTAP	35	264	3
NMTAP	35	336	1
NMTAP	36	0	1
NMTAP	36	48	0
NMSTR	36	96	0
NMSI_	36	96	0	96	48	4
NMSI_	36	96	0	96	48	5
NMTAP	36	288	3
NMTAP	36	288	6
NMHLD	37	0	4	48
NMHLD	37	0	5	48
NMHLD	37	96	6	48
NMHLD	37	96	7	48
NMHLD	37	192	1	72
NMTAP	37	264	0
NMTAP	37	336	2
NMTAP	38	0	2
NMTAP	38	48	3
NMSTR	38	96	3
NMSI_	38	96	3	96	48	6
NMSI_	38	96	3	96	48	7
NMTAP	38	288	0
NMTAP	38	288	5
NMHLD	39	0	1	48
NMHLD	39	0	3	48
NMHLD	39	96	4	48
NMHLD	39	96	6	48
NMHLD	39	192	3	72
NMTAP	39	264	4
NMTAP	39	336	2
NMTAP	39	336	4
NMSTR	40	0	2
NMSV_	40	0	2	96	48	7
NMSTR	40	0	4
NMSV_	40	0	4	96	48	7
EXTAP	40	192	0
EXTAP	40	192	6
EXTAP	40	256	0
EXTAP	40	256	6
EXTAP	40	320	1
EXTAP	40	320	5
BXSTR	41	0	2
NMSLL	41	0	2	96	288	3
BXSTR	41	0	4
NMSLR	41	0	4	96	288	3
EXTAP	42	192	4
EXTAP	42	224	4
EXTAP	42	256	3
EXTAP	42	288	3
NMSTR	43	0	1
NMSCR	43	0	1	96	96	4
NMTAP	43	192	5
NMTAP	43	288	5
NMSTR	44	0	6
NMSUL	44	0	6	96	96	2
NMTAP	44	192	1
NMTAP	44	288	1
NMSTR	45	0	0
NMSUR	45	0	0	96	96	4
NMTAP	45	192	5
NMTAP	45	288	5
NMTAP	46	0	3
NMTAP	46	96	2
NMTAP	46	96	4
NMTAP	46	192	4
NMTAP	46	288	3
NMTAP	46	288	5
NMSTR	47	0	6
NMSCL	47	0	6	96	96	3
NMTAP	47	192	2
NMTAP	47	288	2
NMSTR	48	0	1
NMSUR	48	0	1	96	96	5
NMTAP	48	192	6
NMTAP	48	288	6
NMTAP	49	0	4
NMTAP	49	0	6
NMTAP	49	96	3
NMTAP	49	96	5
NMTAP	49	192	2
NMTAP	49	192	4
NMTAP	49	288	1
NMTAP	49	288	3
NMTAP	50	0	0
NMTAP	50	48	0
NMTAP	50	96	2
NMTAP	50	144	2
NMTAP	50	192	4
NMTAP	50	240	4
NMTAP	50	288	6
BRTAP	51	0	3
BRTAP	51	0	7
NMTAP	51	96	3
NMTAP	51	96	7
NMHLD	51	192	6	72
NMHLD	51	264	5	72
NMTAP	51	336	4
NMSTR	52	0	4
NMSCR	52	0	4	96	96	7
NMSTR	52	192	1
NMSCR	52	192	1	96	96	4
NMTAP	53	0	5
NMTAP	53	96	4
NMTAP	53	96	5
NMHLD	53	192	3	72
NMHLD	53	264	2	72
NMTAP	53	336	1
NMSTR	54	0	1
NMSI_	54	0	1	96	96	4
NMSTR	54	192	5
NMSI_	54	192	5	96	96	0
NMTAP	55	0	1
NMTAP	55	96	2
NMTAP	55	96	3
NMHLD	55	192	4	72
NMHLD	55	264	5	72
NMTAP	55	336	6
NMSTR	56	0	6
NMSCL	56	0	6	96	96	3
NMSTR	56	192	0
NMSCR	56	192	0	96	96	3
NMTAP	57	0	5
NMTAP	57	48	5
NMTAP	57	96	4
NMTAP	57	192	3
NMTAP	57	192	4
NMTAP	57	288	1
NMTAP	57	288	3
NMSTR	57	336	1
NMSUR	57	336	1	96	240	4
NMHLD	57	336	3	432
CNSCR	58	288	4	0	288	2
NMTTP	59	192	0	C	0	M1
BRTAP	60	0	0
BRTAP	60	0	1
NMTAP	60	96	3
NMTAP	60	96	4
NMTAP	60	144	3
NMTAP	60	144	4
NMTAP	60	240	6
NMTAP	60	288	6
NMTAP	60	336	5
NMTAP	60	336	7
NMTAP	61	48	1
NMTAP	61	96	1
NMTAP	61	144	0
NMTAP	61	144	2
NMTAP	61	240	4
NMTAP	61	240	6
NMTAP	61	336	0
NMTAP	61	336	1
NMTAP	62	0	0
NMTAP	62	0	1
NMTAP	62	96	6
NMTAP	62	96	7
NMTAP	62	144	6
NMTAP	62	144	7
NMTAP	62	240	1
NMTAP	62	240	3
NMTAP	62	336	2
NMTAP	62	336	3
NMTAP	63	0	1
NMTAP	63	48	0
NMTAP	63	48	7
NMTAP	63	96	6
NMTAP	63	144	4
NMTAP	63	144	5
NMTAP	63	240	6
NMTAP	63	240	7
NMTAP	63	288	6
NMTAP	63	288	7
NMHLD	64	0	0	96
NMTAP	64	0	7
NMTAP	64	96	1
NMHLD	64	144	1	96
NMSTR	64	240	2
NMSXL	64	240	2	96	216	6
NMSXR	64	240	2	96	216	6
NMTAP	65	240	7
NMTAP	65	336	5
NMHLD	65	336	7	144
NMTAP	66	96	6
NMHLD	66	144	6	96
NMSTR	66	240	5
NMSUL	66	240	5	96	216	3
NMSXL	66	240	5	96	216	3
NMTAP	67	240	2
NMTAP	67	240	4
NMTAP	67	288	2
NMTAP	67	288	4
BRTAP	68	0	6
BRTAP	68	0	7
NMTAP	68	96	3
NMTAP	68	96	4
NMTAP	68	144	3
NMTAP	68	144	4
NMTAP	68	240	1
NMTAP	68	288	1
NMTAP	68	336	0
NMTAP	68	336	2
NMTAP	69	48	6
NMTAP	69	96	6
NMTAP	69	144	5
NMTAP	69	144	7
NMTAP	69	240	1
NMTAP	69	240	3
NMTAP	69	336	6
NMTAP	69	336	7
NMTAP	70	0	6
NMTAP	70	0	7
NMTAP	70	96	0
NMTAP	70	96	1
NMTAP	70	144	0
NMTAP	70	144	1
NMTAP	70	240	4
NMTAP	70	240	6
NMTAP	70	336	4
NMTAP	70	336	5
NMTAP	71	0	6
NMTAP	71	48	0
NMTAP	71	48	7
NMTAP	71	96	1
NMTAP	71	144	2
NMTAP	71	144	3
NMTAP	71	240	0
NMTAP	71	240	1
NMTAP	71	288	0
NMTAP	71	288	1
NMTAP	72	0	0
NMHLD	72	0	7	96
NMTAP	72	96	6
NMHLD	72	144	6	96
NMSTR	72	240	5
NMSXL	72	240	5	96	216	1
NMSXR	72	240	5	96	216	1
NMTAP	73	240	0
NMTAP	73	288	1
NMTAP	73	336	2
NMTAP	73	336	7
NMTAP	74	48	6
NMTAP	74	96	7
NMTAP	74	144	0
NMTAP	74	144	5
NMTAP	74	240	4
NMTAP	74	240	6
NMTAP	74	336	2
NMTAP	74	336	3
NMTAP	75	48	3
NMTAP	75	48	4
NMTAP	75	96	3
NMTAP	75	96	4
NMTAP	75	192	0
NMTAP	75	192	6
NMTAP	75	240	0
NMTAP	75	240	6
BRTAP	75	288	1
BRSTR	75	288	5
NMSLR	75	288	5	96	192	1
NMTTP	76	0	0	C	1	M1
CNSI_	76	192	1	0	96	3
CNSUR	76	288	3	0	288	4
NMTAP	77	288	4
NMTAP	77	288	5
NMHLD	78	0	5	48
NMHLD	78	0	7	48
NMHLD	78	96	2	48
NMHLD	78	96	3	48
NMHLD	78	192	1	72
NMTAP	78	264	0
NMTAP	78	336	6
NMTAP	78	336	7
NMTAP	79	0	6
NMTAP	79	0	7
NMTAP	79	48	0
NMTAP	79	48	5
NMSTR	79	96	0
NMSI_	79	96	0	96	48	4
NMSTR	79	96	5
NMSI_	79	96	5	96	48	0
NMTAP	79	288	3
NMTAP	79	288	7
NMHLD	80	0	4	48
NMHLD	80	0	6	48
NMHLD	80	96	0	48
NMHLD	80	96	1	48
NMHLD	80	192	2	72
NMTAP	80	264	3
NMTAP	80	336	4
NMTAP	80	336	5
NMTAP	81	0	4
NMTAP	81	0	5
NMTAP	81	48	3
NMTAP	81	48	6
NMSTR	81	96	3
NMSI_	81	96	3	96	48	0
NMSTR	81	96	6
NMSI_	81	96	6	96	48	2
NMTAP	81	288	1
NMTAP	81	288	3
NMHLD	82	0	4	48
NMHLD	82	0	6	48
NMHLD	82	96	1	48
NMHLD	82	96	3	48
NMHLD	82	192	0	72
NMTAP	82	264	7
NMTAP	82	336	2
NMTAP	82	336	6
NMSTR	83	0	2
NMSI_	83	0	2	96	48	5
NMSTR	83	0	6
NMSI_	83	0	6	96	48	1
NMTAP	83	192	0
NMTAP	83	192	4
NMTAP	83	256	0
NMTAP	83	256	4
NMTAP	83	320	3
NMTAP	83	320	7
BRSTR	84	0	2
BRSXR	84	0	2	96	288	4
BRSTR	84	0	6
BRSXL	84	0	6	96	288	4

T_REC_TAP	334
T_REC_BRK	14
T_REC_XTP	12
T_REC_BXX	0
T_REC_HLD	65
T_REC_XHO	0
T_REC_BHO	1
T_REC_BXH	0
T_REC_STR	34
T_REC_BST	3
T_REC_XST	0
T_REC_XBS	2
T_REC_TTP	8
T_REC_THO	0
T_REC_SLD	44
T_REC_BSL	2
T_REC_ALL	519
T_NUM_TAP	388
T_NUM_BRK	22
T_NUM_HLD	65
T_NUM_SLD	44
T_NUM_ALL	519
T_JUDGE_TAP	407
T_JUDGE_HLD	181
T_JUDGE_SLD	46
T_JUDGE_ALL	634
TTM_EACHPAIRS	161
TTM_SCR_TAP	194000
TTM_SCR_BRK	57200
TTM_SCR_HLD	65000
TTM_SCR_SLD	66000
TTM_SCR_ALL	382200
TTM_SCR_S	368600
TTM_SCR_SS	380000
TTM_RAT_ACV	10057

