VERSION	0.00.00	1.05.00
FES_MODE	0
BPM_DEF	143.000	143.000	143.000	143.000
MET_DEF	4	4
RESOLUTION	384
CLK_DEF	384
COMPATIBLE_CODE	MA2

BPM	0	0	143.000
MET	0	0	4	4

NMTAP	1	0	7
NMTAP	1	192	7
NMTAP	2	0	6
NMTAP	2	192	6
NMTAP	3	0	5
NMTAP	3	192	5
NMTAP	4	0	3
NMTAP	4	0	4
NMTAP	4	192	3
NMTAP	4	192	4
NMTAP	5	0	3
NMTAP	5	192	3
NMTAP	6	0	2
NMTAP	6	192	2
NMTAP	7	0	1
NMTAP	7	192	1
NMTAP	8	0	0
NMTAP	8	0	7
NMTAP	8	192	0
NMTAP	8	192	7
NMSTR	9	0	6
NMSI_	9	0	6	96	192	3
NMSTR	10	0	1
NMSI_	10	0	1	96	192	4
NMSTR	11	0	5
NMSI_	11	0	5	96	192	0
NMSTR	12	0	1
NMSI_	12	0	1	96	192	5
NMSTR	13	0	6
NMSI_	13	0	6	96	192	2
NMSTR	14	0	0
NMSI_	14	0	0	96	192	4
NMSTR	15	0	6
NMSUL	15	0	6	96	480	3
NMTAP	17	0	3
NMTAP	17	96	3
NMTAP	17	192	2
NMTAP	18	0	1
NMTAP	18	96	1
NMTAP	18	192	0
NMTAP	19	0	7
NMTAP	19	96	7
NMTAP	19	192	6
NMTAP	20	0	5
NMTAP	20	96	5
NMTAP	20	192	4
NMTAP	20	192	5
NMTAP	21	0	4
NMTAP	21	96	4
NMTAP	21	192	5
NMTAP	22	0	6
NMTAP	22	96	6
NMTAP	22	192	7
NMTAP	23	0	0
NMTAP	23	96	0
NMTAP	23	192	1
NMTAP	24	0	2
NMTAP	24	96	2
NMTAP	24	192	2
NMTAP	24	192	3
NMTAP	25	0	2
NMTAP	25	96	2
NMTAP	25	192	2
NMTAP	25	192	3
NMTAP	26	0	1
NMTAP	26	96	1
NMTAP	26	192	0
NMTAP	26	192	1
NMTAP	27	0	7
NMTAP	27	96	7
NMTAP	27	192	6
NMTAP	27	192	7
NMTAP	28	0	4
NMTAP	28	0	5
NMTAP	28	96	4
NMTAP	28	96	5
NMTAP	28	192	4
NMTAP	28	192	5
NMTAP	29	0	5
NMTAP	29	96	5
NMTAP	29	192	4
NMTAP	29	192	5
NMTAP	30	0	6
NMTAP	30	96	6
NMTAP	30	192	6
NMTAP	30	192	7
NMTAP	31	0	0
NMTAP	31	96	0
NMTAP	31	192	0
NMTAP	31	192	1
NMTAP	32	0	2
NMTAP	32	0	3
NMTAP	32	96	2
NMTAP	32	96	3
NMTAP	32	192	2
NMTAP	32	192	3
NMTAP	33	0	2
NMTAP	33	96	2
NMTAP	33	192	1
NMTAP	33	288	1
NMTAP	34	0	0
NMTAP	34	96	0
NMTAP	34	192	6
NMTAP	34	192	7
NMTAP	35	0	5
NMTAP	35	96	5
NMTAP	35	192	6
NMTAP	35	288	6
NMTAP	36	0	7
NMTAP	36	96	7
NMTAP	36	192	0
NMTAP	36	192	1
NMTAP	37	0	1
NMTAP	37	96	1
NMTAP	37	192	2
NMTAP	37	288	2
NMTAP	38	0	3
NMTAP	38	96	3
NMTAP	38	192	4
NMTAP	38	192	5
NMTAP	39	0	6
NMTAP	39	96	6
NMTAP	39	192	5
NMTAP	39	288	5
NMTAP	40	0	4
NMTAP	40	96	4
BXTAP	40	192	2
BXTAP	40	192	3
NMSTR	41	0	3
NMSI_	41	0	3	96	288	0
NMSTR	41	0	4
NMSI_	41	0	4	96	288	7
NMHLD	43	0	1	192
NMHLD	43	192	0	192
NMHLD	44	0	7	192
NMTAP	44	192	6
NMHLD	45	0	6	192
NMHLD	45	192	7	192
NMHLD	46	0	0	192
NMTAP	46	192	1
NMHLD	47	0	2	192
NMHLD	47	192	3	192
NMHLD	48	0	4	192
NMTAP	48	192	5
NMHLD	49	0	5	192
NMHLD	49	192	4	192
NMHLD	50	0	3	192
NMTAP	50	192	2
NMTTP	51	0	1	B	0	L1
NMTTP	51	96	2	B	0	L1
NMTTP	51	192	3	B	0	L1
NMTTP	52	0	6	B	0	L1
NMTTP	52	96	5	B	0	L1
NMTTP	52	192	4	B	0	L1
NMTTP	53	0	1	B	0	L1
NMTTP	53	96	2	B	0	L1
NMTTP	53	192	3	B	0	L1
NMTTP	53	288	4	B	0	L1
NMTTP	54	0	5	B	0	L1
NMTTP	54	96	6	B	0	L1
NMTTP	54	192	0	C	0	L1
NMTTP	55	0	7	B	0	L1
NMTTP	55	96	6	B	0	L1
NMTTP	55	192	4	B	0	L1
NMTTP	55	192	5	B	0	L1
NMTTP	56	0	0	B	0	L1
NMTTP	56	96	1	B	0	L1
NMTTP	56	192	2	B	0	L1
NMTTP	56	192	3	B	0	L1
NMTTP	57	0	6	B	0	L1
NMTTP	57	96	5	B	0	L1
NMTTP	57	192	4	B	0	L1
NMTTP	57	288	3	B	0	L1
NMTTP	58	0	2	B	0	L1
NMTTP	58	96	1	B	0	L1
NMTHO	58	192	0	384	C	0	L1
NMTAP	60	0	7
NMTAP	60	96	7
NMTAP	60	192	0
NMTAP	60	192	7
NMTAP	60	288	0
NMTAP	60	288	7
NMTAP	61	0	1
NMTAP	61	96	1
NMTAP	61	192	0
NMTAP	61	192	1
NMTAP	62	0	2
NMTAP	62	96	2
NMTAP	62	192	0
NMTAP	62	192	1
NMTAP	62	288	0
NMTAP	62	288	1
NMTAP	63	0	7
NMTAP	63	96	7
NMTAP	63	192	6
NMTAP	63	192	7
NMTAP	64	0	6
NMTAP	64	96	6
NMTAP	64	192	4
NMTAP	64	192	5
NMTAP	64	288	4
NMTAP	64	288	5
NMTAP	65	0	3
NMTAP	65	96	3
NMTAP	65	192	2
NMTAP	65	192	3
NMTAP	66	0	1
NMTAP	66	96	1
NMTAP	66	192	2
NMTAP	66	192	3
NMTAP	66	288	2
NMTAP	66	288	3
NMTAP	67	0	4
NMTAP	67	96	4
NMTAP	67	192	4
NMTAP	67	192	5
NMTAP	68	0	5
NMTAP	68	48	5
NMTAP	68	96	5
NMTAP	68	192	6
NMTAP	68	192	7
NMTAP	68	288	6
NMTAP	68	288	7
NMTAP	69	0	0
NMTAP	69	48	0
NMTAP	69	96	0
NMTAP	69	192	0
NMTAP	69	192	1
NMTAP	69	288	0
NMTAP	69	288	1
NMTAP	70	0	2
NMTAP	70	48	2
NMTAP	70	96	2
NMTAP	70	192	0
NMTAP	70	192	1
NMTAP	70	288	0
NMTAP	70	288	1
NMTAP	71	0	7
NMTAP	71	48	7
NMTAP	71	96	7
NMTAP	71	192	6
NMTAP	71	192	7
NMTAP	72	0	6
NMTAP	72	48	6
NMTAP	72	96	6
NMTAP	72	192	4
NMTAP	72	192	5
NMTAP	72	288	4
NMTAP	72	288	5
NMTAP	73	0	3
NMTAP	73	48	3
NMTAP	73	96	3
NMTAP	73	192	2
NMTAP	73	192	3
NMTAP	73	288	2
NMTAP	73	288	3
NMTAP	74	0	1
NMTAP	74	48	1
NMTAP	74	96	1
NMTAP	74	192	2
NMTAP	74	192	3
NMTAP	74	288	2
NMTAP	74	288	3
NMTAP	75	0	4
NMTAP	75	48	4
NMTAP	75	96	4
NMTAP	75	192	4
NMTAP	75	192	5
NMTAP	76	0	5
NMTAP	76	48	5
NMTAP	76	96	5
NMTAP	76	192	6
NMTAP	76	240	6
NMTAP	76	288	6
NMTAP	77	0	7
NMTAP	77	48	7
NMTAP	77	96	7
NMTAP	77	192	0
NMTAP	77	192	1
NMTAP	78	0	2
NMTAP	78	48	2
NMTAP	78	96	2
NMTAP	78	192	1
NMTAP	78	240	1
NMTAP	78	288	1
NMTAP	79	0	0
NMTAP	79	48	0
NMTAP	79	96	0
NMTAP	79	192	6
NMTAP	79	192	7
NMTAP	80	0	6
NMTAP	80	48	6
NMTAP	80	96	6
NMTAP	80	192	5
NMTAP	80	240	5
NMTAP	80	288	5
NMTAP	81	0	4
NMTAP	81	48	4
NMTAP	81	96	4
NMTAP	81	192	2
NMTAP	81	192	3
NMTAP	82	0	1
NMTAP	82	48	1
NMTAP	82	96	1
NMTAP	82	192	2
NMTAP	82	240	2
NMTAP	82	288	2
NMTAP	83	0	3
NMTAP	83	48	3
NMTAP	83	96	3
NMTAP	83	192	4
NMTAP	83	192	5
BRTAP	84	0	3
BRTAP	84	0	4

T_REC_TAP	252
T_REC_BRK	2
T_REC_XTP	0
T_REC_BXX	2
T_REC_HLD	12
T_REC_XHO	0
T_REC_BHO	0
T_REC_BXH	0
T_REC_STR	9
T_REC_BST	0
T_REC_XST	0
T_REC_XBS	0
T_REC_TTP	27
T_REC_THO	1
T_REC_SLD	9
T_REC_BSL	0
T_REC_ALL	314
T_NUM_TAP	288
T_NUM_BRK	4
T_NUM_HLD	13
T_NUM_SLD	9
T_NUM_ALL	314
T_JUDGE_TAP	292
T_JUDGE_HLD	56
T_JUDGE_SLD	9
T_JUDGE_ALL	357
TTM_EACHPAIRS	54
TTM_SCR_TAP	144000
TTM_SCR_BRK	10400
TTM_SCR_HLD	13000
TTM_SCR_SLD	13500
TTM_SCR_ALL	180900
TTM_SCR_S	175100
TTM_SCR_SS	180500
TTM_RAT_ACV	10022

