VERSION	0.00.00	1.04.00
FES_MODE	0
BPM_DEF	143.000	143.000	143.000	143.000
MET_DEF	4	4
RESOLUTION	384
CLK_DEF	384
COMPATIBLE_CODE	MA2

BPM	0	0	143.000
MET	0	0	4	4

NMTAP	1	0	0
NMTAP	1	192	0
NMTAP	2	0	1
NMTAP	2	192	1
NMTAP	3	0	2
NMTAP	3	192	2
NMTAP	4	0	3
NMTAP	4	0	4
NMTAP	5	0	4
NMTAP	5	192	4
NMTAP	6	0	5
NMTAP	6	192	5
NMTAP	7	0	6
NMTAP	7	192	6
NMTAP	8	0	0
NMTAP	8	0	7
NMSTR	9	0	7
NMSI_	9	0	7	96	288	3
NMSTR	11	0	0
NMSI_	11	0	0	96	288	4
NMSTR	13	0	6
NMSI_	13	0	6	96	288	2
NMSTR	15	0	1
NMSI_	15	0	1	96	288	5
BRTAP	17	0	7
NMTAP	17	96	7
NMTAP	17	192	7
NMTAP	18	0	6
NMTAP	18	192	6
NMTAP	19	0	5
NMTAP	19	96	5
NMTAP	19	192	5
NMTAP	20	0	4
NMTAP	20	0	5
NMTAP	21	0	3
NMTAP	21	96	3
NMTAP	21	192	3
NMTAP	22	0	2
NMTAP	22	192	2
NMTAP	23	0	1
NMTAP	23	96	1
NMTAP	23	192	1
NMTAP	24	0	0
NMTAP	24	0	1
NMTAP	25	0	0
NMTAP	25	96	0
NMTAP	25	192	0
NMTAP	26	0	1
NMTAP	26	192	1
NMTAP	27	0	2
NMTAP	27	96	2
NMTAP	27	192	2
NMTAP	28	0	2
NMTAP	28	0	3
NMTAP	29	0	4
NMTAP	29	96	4
NMTAP	29	192	4
NMTAP	30	0	5
NMTAP	30	192	5
NMTAP	31	0	6
NMTAP	31	96	6
NMTAP	31	192	6
NMTAP	32	0	6
NMTAP	32	0	7
BXTAP	33	0	7
NMTAP	33	96	7
NMTAP	33	192	7
NMTAP	34	0	6
NMTAP	34	0	7
NMTAP	34	192	6
NMTAP	34	192	7
NMTAP	35	0	5
NMTAP	35	96	5
NMTAP	35	192	5
NMTAP	36	0	3
NMTAP	36	0	4
NMTAP	36	192	3
NMTAP	36	192	4
NMTAP	37	0	2
NMTAP	37	96	2
NMTAP	37	192	2
NMTAP	38	0	2
NMTAP	38	0	3
NMTAP	38	192	2
NMTAP	38	192	3
NMTAP	39	0	1
NMTAP	39	96	1
NMTAP	39	192	1
NMTAP	40	0	0
NMTAP	40	0	7
NMTAP	40	192	0
NMTAP	40	192	7
NMHLD	41	0	0	384
NMHLD	41	0	7	384
NMHLD	43	0	0	384
NMHLD	43	0	1	384
NMHLD	45	0	2	384
NMHLD	45	0	3	384
NMHLD	47	0	4	384
NMHLD	47	0	5	384
NMHLD	49	0	6	384
NMHLD	49	0	7	384
NMTTP	51	0	7	B	0	L1
NMTTP	52	0	0	B	0	L1
NMTTP	53	0	6	B	0	L1
NMTTP	54	0	1	B	0	L1
NMTTP	55	0	5	B	0	L1
NMTTP	56	0	2	B	0	L1
NMTTP	57	0	4	B	0	L1
NMTHO	58	0	0	384	C	0	L1
BRTAP	60	0	0
NMTAP	60	96	0
NMTAP	60	192	0
NMTAP	61	0	1
NMTAP	61	96	1
NMTAP	61	192	1
NMTAP	62	0	2
NMTAP	62	96	2
NMTAP	62	192	2
NMTAP	63	0	2
NMTAP	63	0	3
NMTAP	63	192	2
NMTAP	63	192	3
NMTAP	64	0	4
NMTAP	64	96	4
NMTAP	64	192	4
NMTAP	65	0	5
NMTAP	65	96	5
NMTAP	65	192	5
NMTAP	66	0	6
NMTAP	66	96	6
NMTAP	66	192	6
NMTAP	67	0	6
NMTAP	67	0	7
NMTAP	67	192	6
NMTAP	67	192	7
NMTAP	68	0	7
NMTAP	68	96	7
NMTAP	68	192	7
NMTAP	69	0	6
NMTAP	69	96	6
NMTAP	69	192	6
NMTAP	69	192	7
NMTAP	70	0	5
NMTAP	70	96	5
NMTAP	70	192	5
NMTAP	71	0	4
NMTAP	71	96	4
NMTAP	71	192	3
NMTAP	71	192	4
NMTAP	72	0	3
NMTAP	72	96	3
NMTAP	72	192	3
NMTAP	73	0	2
NMTAP	73	96	2
NMTAP	73	192	2
NMTAP	73	192	3
NMTAP	74	0	1
NMTAP	74	96	1
NMTAP	74	192	1
NMTAP	75	0	0
NMTAP	75	96	0
NMTAP	75	192	0
NMTAP	75	192	7
BXTAP	76	0	0
NMTAP	76	96	0
NMTAP	76	192	0
NMTAP	76	288	0
NMTAP	77	0	1
NMTAP	77	96	1
NMTAP	77	192	0
NMTAP	77	192	1
NMTAP	78	0	2
NMTAP	78	96	2
NMTAP	78	192	2
NMTAP	78	288	2
NMTAP	79	0	3
NMTAP	79	96	3
NMTAP	79	192	3
NMTAP	79	192	4
NMTAP	80	0	4
NMTAP	80	96	4
NMTAP	80	192	4
NMTAP	80	288	4
NMTAP	81	0	5
NMTAP	81	96	5
NMTAP	81	192	4
NMTAP	81	192	5
NMTAP	82	0	6
NMTAP	82	96	6
NMTAP	82	192	6
NMTAP	82	288	6
NMTAP	83	0	7
NMTAP	83	96	7
NMTAP	83	192	0
NMTAP	83	192	7
BRTAP	84	0	0
BRTAP	84	0	7

T_REC_TAP	166
T_REC_BRK	4
T_REC_XTP	0
T_REC_BXX	2
T_REC_HLD	10
T_REC_XHO	0
T_REC_BHO	0
T_REC_BXH	0
T_REC_STR	4
T_REC_BST	0
T_REC_XST	0
T_REC_XBS	0
T_REC_TTP	7
T_REC_THO	1
T_REC_SLD	4
T_REC_BSL	0
T_REC_ALL	198
T_NUM_TAP	177
T_NUM_BRK	6
T_NUM_HLD	11
T_NUM_SLD	4
T_NUM_ALL	198
T_JUDGE_TAP	183
T_JUDGE_HLD	88
T_JUDGE_SLD	4
T_JUDGE_ALL	275
TTM_EACHPAIRS	32
TTM_SCR_TAP	88500
TTM_SCR_BRK	15600
TTM_SCR_HLD	11000
TTM_SCR_SLD	6000
TTM_SCR_ALL	121100
TTM_SCR_S	116900
TTM_SCR_SS	120500
TTM_RAT_ACV	10049

