VERSION	0.00.00	1.04.00
FES_MODE	0
BPM_DEF	130.000	130.000	130.000	130.000
MET_DEF	4	4
RESOLUTION	384
CLK_DEF	384
COMPATIBLE_CODE	MA2

BPM	0	0	130.000
MET	0	0	4	4

NMTAP	1	288	4
NMTAP	1	336	3
NMHLD	2	0	2	96
NMTAP	2	96	3
NMTAP	2	144	2
NMTAP	2	192	4
NMTAP	2	240	3
NMTAP	2	288	5
NMHLD	2	336	4	96
NMTAP	3	48	6
NMTAP	3	144	3
NMTAP	3	168	4
NMTAP	3	192	3
NMTAP	3	240	5
NMTAP	3	288	5
NMTAP	3	336	2
NMHLD	3	360	3	72
NMTAP	4	48	1
NMTAP	4	144	3
NMTAP	4	192	4
NMTAP	4	240	5
NMTAP	4	336	4
NMTAP	4	360	3
NMTAP	5	0	4
NMTAP	5	48	2
NMTAP	5	96	2
NMTAP	5	144	4
NMHLD	5	168	3	72
NMTAP	5	240	4
NMTAP	5	336	5
NMTAP	5	360	4
NMHLD	6	0	6	96
NMTAP	6	96	4
NMTAP	6	144	5
NMTAP	6	192	3
NMTAP	6	240	4
NMTAP	6	288	2
NMHLD	6	336	3	96
NMTAP	7	48	1
NMTAP	7	144	4
NMTAP	7	168	3
NMTAP	7	192	4
NMTAP	7	240	2
NMTAP	7	288	2
NMTAP	7	336	5
NMHLD	7	360	4	72
NMTAP	8	48	6
NMTAP	8	144	4
NMTAP	8	192	3
NMTAP	8	240	2
NMTAP	8	336	3
NMTAP	8	360	4
NMTAP	9	0	3
NMTAP	9	48	5
NMTAP	9	96	1
NMHLD	9	144	7	96
NMTAP	9	240	0
NMTAP	9	264	7
BRTAP	9	288	1
BRTAP	9	288	6
NMHLD	10	0	3	48
NMHLD	10	0	7	48
NMHLD	10	96	0	48
NMHLD	10	96	1	48
EXTAP	10	168	2
EXTAP	10	168	7
NMTAP	10	240	5
NMTAP	10	264	4
NMTAP	10	288	5
NMTAP	10	336	0
NMHLD	11	0	6	48
NMHLD	11	0	7	48
NMHLD	11	96	4	48
NMHLD	11	96	5	48
EXTAP	11	168	3
EXTAP	11	168	6
NMTAP	11	240	1
NMTAP	11	288	7
NMTAP	11	336	5
NMHLD	12	0	0	48
NMHLD	12	0	4	48
NMHLD	12	96	6	48
NMHLD	12	96	7	48
EXTAP	12	168	0
EXTAP	12	168	5
NMTAP	12	240	2
NMTAP	12	240	7
NMTAP	12	288	5
NMTAP	12	312	4
NMTAP	12	336	5
NMHLD	13	0	0	48
NMHLD	13	0	1	48
NMHLD	13	96	2	48
NMHLD	13	96	3	48
EXTAP	13	168	1
EXTAP	13	168	4
NMTAP	13	240	7
NMTAP	13	264	7
BRTAP	13	288	0
NMTAP	14	0	1
NMTAP	14	0	3
NMTAP	14	48	2
NMTAP	14	96	3
NMTAP	14	96	4
NMTAP	14	144	2
NMTAP	14	192	1
NMTAP	14	192	3
NMTAP	14	240	2
NMTAP	14	288	3
NMTAP	14	288	4
NMTAP	14	336	3
NMTAP	15	0	4
NMTAP	15	0	6
NMTAP	15	48	5
NMTAP	15	96	3
NMTAP	15	96	4
NMTAP	15	144	5
NMTAP	15	192	4
NMTAP	15	192	6
NMTAP	15	240	5
NMTAP	15	288	3
NMTAP	15	288	4
NMTAP	15	336	4
NMHLD	16	0	1	96
NMTAP	16	0	5
NMTAP	16	96	3
NMTAP	16	144	0
NMHLD	16	144	6	96
NMSTR	16	240	4
NMSUL	16	240	4	96	144	3
NMTAP	16	288	2
NMHLD	16	336	0	288
CNSCL	17	96	3	0	144	5
BRTAP	17	288	2
BRTAP	17	288	6
NMTTP	18	0	2	D	0	M1
NMTTP	18	24	2	A	0	M1
NMTTP	18	48	3	D	0	M1
NMTTP	18	72	3	A	0	M1
NMTTP	18	96	6	D	0	M1
NMTTP	18	120	5	A	0	M1
NMTTP	18	144	5	D	0	M1
NMTTP	18	168	4	A	0	M1
NMTTP	18	192	1	A	0	M1
NMTTP	18	216	2	E	0	M1
NMTTP	18	240	3	E	0	M1
NMTTP	18	264	3	A	0	M1
NMTTP	18	288	6	A	0	M1
NMTTP	18	312	6	E	0	M1
NMTTP	18	336	5	E	0	M1
NMTTP	18	360	4	A	0	M1
NMTTP	19	0	1	E	0	M1
NMTTP	19	24	1	B	0	M1
NMTTP	19	48	2	B	0	M1
NMTTP	19	72	3	E	0	M1
NMTTP	19	96	7	E	0	M1
NMTTP	19	120	6	B	0	M1
NMTTP	19	144	5	B	0	M1
NMTTP	19	168	5	E	0	M1
NMTTP	19	192	1	D	0	M1
NMTTP	19	216	1	A	0	M1
NMTTP	19	240	2	D	0	M1
NMTTP	19	264	2	A	0	M1
NMTTP	19	288	7	D	0	M1
NMTTP	19	312	6	A	0	M1
NMTTP	19	336	6	D	0	M1
NMTTP	19	360	5	A	0	M1
NMTTP	20	0	0	A	0	M1
NMTTP	20	24	1	E	0	M1
NMTTP	20	48	2	E	0	M1
NMTTP	20	72	2	A	0	M1
NMTTP	20	96	7	A	0	M1
NMTTP	20	120	7	E	0	M1
NMTTP	20	144	6	E	0	M1
NMTTP	20	168	5	A	0	M1
NMTTP	20	192	0	A	0	M1
NMTTP	20	216	1	A	0	M1
NMTTP	20	240	2	A	0	M1
NMTTP	20	264	3	A	0	M1
NMTTP	20	288	7	A	0	M1
NMTTP	20	312	6	A	0	M1
NMTTP	20	336	5	A	0	M1
NMTTP	20	360	4	A	0	M1
NMHLD	21	0	2	48
EXHLD	21	0	3	48
NMHLD	21	72	4	48
EXHLD	21	72	6	48
EXTAP	21	144	0
EXTAP	21	144	1
NMTAP	21	192	2
NMSTR	21	192	7
NMSI_	21	192	7	96	48	3
NMTAP	21	240	4
NMTAP	21	240	6
BRTAP	21	288	0
BRTAP	21	288	7
EXTAP	22	0	1
NMTAP	22	12	2
NMTAP	22	24	3
NMTAP	22	36	4
NMTAP	22	48	5
NMTAP	22	60	6
NMTAP	22	72	7
NMTAP	22	84	0
EXTAP	22	96	1
NMTTP	22	96	4	B	0	M1
NMTTP	22	96	5	B	0	M1
NMTTP	22	96	5	E	1	M1
NMTAP	22	192	2
NMTAP	22	192	3
NMSTR	22	240	1
NMSXL	22	240	1	96	120	0
NMTAP	22	288	7
NMHLD	22	336	6	144
NMTAP	23	96	7
NMTAP	23	144	4
NMTAP	23	144	5
NMTAP	23	192	2
NMTAP	23	192	3
NMTAP	23	240	0
NMTAP	23	240	1
NMSTR	23	288	6
NMSI_	23	288	6	96	48	3
NMTAP	23	288	7
NMTAP	23	336	4
NMSTR	24	0	2
NMSI_	24	0	2	96	48	7
NMTAP	24	96	4
NMTAP	24	144	5
NMHLD	24	192	6	72
NMTAP	24	264	7
NMTAP	24	288	0
NMTAP	24	288	6
NMTAP	24	336	4
NMTAP	25	0	0
NMTAP	25	0	6
NMTAP	25	48	2
NMTAP	25	96	0
NMTAP	25	96	6
NMHLD	25	144	4	192
NMTTP	25	192	0	E	0	M1
NMTTP	25	204	7	B	0	M1
NMTTP	25	240	1	A	0	M1
NMTTP	25	252	2	E	0	M1
NMTTP	25	288	6	E	0	M1
NMTTP	25	300	5	A	0	M1
EXTAP	25	336	3
EXTAP	25	360	3
NMTAP	26	0	5
NMTAP	26	48	1
NMTAP	26	64	0
NMTAP	26	80	1
EXTAP	26	96	2
EXTAP	26	96	7
NMTAP	26	192	4
NMTAP	26	192	5
NMSTR	26	240	2
NMSCL	26	240	2	96	144	4
NMTAP	26	288	6
NMTAP	26	336	5
NMSTR	27	0	4
NMSUL	27	0	4	96	72	7
NMTAP	27	96	7
NMTAP	27	192	5
NMTAP	27	192	6
NMTAP	27	240	4
NMTAP	27	288	3
NMTAP	27	288	7
NMTAP	27	336	0
NMTAP	28	0	1
NMSTR	28	0	2
NMSCR	28	0	2	96	48	5
NMSTR	28	96	7
NMSCR	28	96	7	96	48	2
NMTAP	28	192	4
NMTAP	28	240	6
NMTAP	28	264	6
NMTAP	28	288	4
NMTAP	28	336	2
NMTAP	28	360	2
NMTAP	29	0	3
NMTAP	29	48	5
NMTAP	29	96	4
NMTAP	29	96	6
NMHLD	29	144	7	192
NMTTP	29	192	3	B	0	M1
NMTTP	29	204	4	E	0	M1
NMTTP	29	240	6	E	0	M1
NMTTP	29	252	5	A	0	M1
NMTTP	29	288	1	A	0	M1
NMTTP	29	300	2	E	0	M1
NMTAP	29	336	0
NMTAP	29	360	0
EXTAP	30	0	6
NMTAP	30	12	5
NMTAP	30	24	4
NMTAP	30	36	3
NMTAP	30	48	2
NMTAP	30	60	1
NMTAP	30	72	0
NMTAP	30	84	7
NMTTP	30	96	2	B	0	M1
NMTTP	30	96	3	B	0	M1
NMTTP	30	96	3	E	1	M1
EXTAP	30	96	6
NMTAP	30	192	4
NMTAP	30	192	5
NMSTR	30	240	6
NMSXR	30	240	6	96	120	7
NMTAP	30	288	0
NMHLD	30	336	1	144
NMTAP	31	96	0
NMTAP	31	144	2
NMTAP	31	144	3
NMTAP	31	192	4
NMTAP	31	192	5
NMTAP	31	240	6
NMTAP	31	240	7
NMTAP	31	288	0
NMSTR	31	288	1
NMSI_	31	288	1	96	48	4
NMTAP	31	336	3
NMSTR	32	0	5
NMSI_	32	0	5	96	48	0
NMTAP	32	96	3
NMTAP	32	144	2
NMHLD	32	192	1	72
NMTAP	32	264	0
NMTAP	32	288	1
NMTAP	32	288	7
NMTAP	32	336	3
NMTAP	33	0	1
NMTAP	33	0	7
NMTAP	33	48	5
NMTAP	33	96	1
NMTAP	33	96	7
NMHLD	33	144	3	192
NMTTP	33	192	0	E	0	M1
NMTTP	33	204	0	B	0	M1
NMTTP	33	240	6	A	0	M1
NMTTP	33	252	6	E	0	M1
NMTTP	33	288	2	E	0	M1
NMTTP	33	300	2	A	0	M1
EXTAP	33	336	4
EXTAP	33	360	4
NMTAP	34	0	2
NMTAP	34	48	6
NMTAP	34	64	7
NMTAP	34	80	6
EXTAP	34	96	0
EXTAP	34	96	5
NMTAP	34	192	2
NMTAP	34	192	3
NMSTR	34	240	5
NMSCR	34	240	5	96	144	3
NMTAP	34	288	1
NMTAP	34	336	2
NMSTR	35	0	3
NMSUR	35	0	3	96	72	0
NMTAP	35	96	0
NMTAP	35	192	1
NMTAP	35	192	2
NMTAP	35	240	3
NMTAP	35	288	0
NMTAP	35	288	4
NMTAP	35	336	7
NMTAP	36	0	5
NMSTR	36	0	6
NMSUL	36	0	6	96	96	5
NMTAP	36	96	7
NMSTR	36	192	2
NMSUL	36	192	2	96	96	1
NMTAP	36	288	0
NMTAP	37	0	6
NMTAP	37	24	6
NMTAP	37	48	0
NMTAP	37	72	0
NMTAP	37	96	5
NMTAP	37	120	5
NMTAP	37	144	1
NMTAP	37	168	1
NMTAP	37	192	4
NMTAP	37	208	3
NMTAP	37	224	4
NMTAP	37	240	2
NMTAP	37	264	2
EXTAP	37	288	7
EXTAP	37	336	7
BRTAP	38	0	1
NMHLD	38	0	5	384
NMTAP	38	96	3
NMTAP	38	168	3
NMTAP	38	240	3
NMTAP	38	312	3
NMHLD	39	0	4	144
NMTAP	39	72	6
NMHLD	39	144	6	168
NMTAP	39	240	4
NMHLD	39	312	4	72
NMHLD	40	0	3	144
NMTAP	40	72	1
NMHLD	40	144	1	96
NMTAP	40	240	3
NMTAP	40	288	2
NMTAP	40	288	4
NMHLD	41	0	3	144
NMTAP	41	72	4
NMHLD	41	144	5	96
NMTAP	41	240	4
NMTAP	41	288	3
NMTAP	41	288	5
NMTAP	42	0	2
EXTAP	42	0	6
NMTAP	42	48	2
NMTAP	42	96	2
NMTAP	42	96	4
NMTAP	42	144	2
NMTAP	42	168	3
NMTAP	42	192	2
NMTAP	42	240	2
NMTAP	42	240	4
NMTAP	42	288	2
NMTAP	42	312	3
NMTAP	42	336	2
NMTAP	43	0	3
NMTAP	43	0	5
NMTAP	43	48	5
NMTAP	43	72	4
NMTAP	43	96	5
NMTAP	43	144	3
NMTAP	43	144	5
NMTAP	43	192	5
NMTAP	43	240	3
NMTAP	43	240	5
NMTAP	43	288	5
NMTAP	43	312	4
NMTAP	43	336	5
NMTAP	44	0	2
NMTAP	44	0	4
NMTAP	44	48	2
NMTAP	44	72	3
NMTAP	44	96	2
NMTAP	44	144	2
NMTAP	44	144	4
NMTAP	44	192	2
NMTAP	44	240	2
NMTAP	44	240	4
NMTAP	44	288	1
NMTAP	44	288	5
NMHLD	44	336	6	48
NMHLD	45	0	0	48
NMHLD	45	48	2	48
NMHLD	45	96	4	48
NMSTR	45	144	6
NMSI_	45	144	6	96	48	2
NMTAP	45	240	4
BXTAP	45	288	0
NMHLD	46	0	1	72
NMHLD	46	0	7	72
EXTAP	46	96	2
EXTAP	46	96	6
NMHLD	46	144	4	72
NMHLD	46	144	5	72
EXTAP	46	240	3
EXTAP	46	240	6
NMTAP	46	288	2
NMTAP	46	288	5
NMHLD	46	336	1	96
NMTAP	46	336	4
NMTAP	47	48	0
NMTAP	47	72	2
NMTAP	47	96	7
NMTAP	47	120	3
NMTAP	47	144	6
NMTAP	47	168	4
NMTAP	47	192	5
NMTAP	47	240	1
NMTAP	47	240	3
NMTAP	47	264	1
BRTAP	47	288	7
NMHLD	48	0	0	72
NMHLD	48	0	6	72
EXTAP	48	96	1
EXTAP	48	96	5
NMHLD	48	144	2	72
NMHLD	48	144	3	72
EXTAP	48	240	1
EXTAP	48	240	4
NMTAP	48	288	2
NMTAP	48	288	5
NMTAP	48	336	3
NMHLD	48	336	6	96
NMTAP	49	48	7
NMTAP	49	96	1
NMTAP	49	120	1
NMTAP	49	144	3
NMTAP	49	168	2
NMTAP	49	192	5
NMTAP	49	216	5
NMTAP	49	240	4
NMTAP	49	264	6
BRTAP	49	288	0
NMHLD	50	0	2	96
NMTAP	50	96	3
NMTAP	50	144	1
NMTAP	50	192	3
NMTAP	50	240	2
NMTAP	50	288	3
NMTAP	50	336	1
NMHLD	51	0	5	96
NMTAP	51	96	4
NMTAP	51	144	6
NMTAP	51	192	4
NMTAP	51	240	5
NMTAP	51	288	4
NMTAP	51	336	6
NMHLD	52	0	3	96
NMTAP	52	96	4
NMTAP	52	144	2
NMSTR	52	192	5
NMSCL	52	192	5	96	48	2
NMHLD	53	0	3	192
NMHLD	53	0	4	192
NMTAP	53	240	3
NMTAP	53	240	4
NMTAP	53	264	2
NMTAP	53	264	5
NMSTR	53	288	1
NMSI_	53	288	1	96	32	5
NMSTR	53	288	6
NMSI_	53	288	6	96	32	2
EXTAP	53	336	0
EXTAP	53	336	7
NMTTP	54	0	0	C	1	M1
NMTAP	54	96	0
NMSTR	54	96	7
NMSCL	54	96	7	96	48	4
NMTAP	54	144	2
NMTAP	54	168	2
NMSTR	54	192	7
NMSI_	54	192	7	96	48	3
NMTAP	54	240	0
NMTAP	54	264	0
NMTAP	54	288	7
NMTAP	54	336	1
NMTAP	55	0	4
NMTAP	55	48	2
NMTAP	55	48	3
NMTAP	55	96	1
NMSTR	55	96	5
NMSI_	55	96	5	96	24	3
NMTAP	55	144	0
NMHLD	55	168	0	72
CNSCL	55	216	3	0	96	6
NMTAP	55	312	2
CNSI_	55	312	6	0	24	4
NMTAP	55	336	2
NMTAP	55	360	3
NMTAP	56	0	1
NMTAP	56	12	0
NMTAP	56	24	7
NMTAP	56	36	6
NMTAP	56	48	5
NMTAP	56	60	4
NMTAP	56	72	3
NMTAP	56	84	2
BRTAP	56	96	1
BRTAP	56	96	6
NMTAP	56	192	0
NMHLD	56	192	7	96
NMTAP	56	240	5
NMHLD	56	288	1	96
NMTAP	56	336	3
NMHLD	57	0	5	96
NMTAP	57	48	4
NMSTR	57	96	3
NMSI_	57	96	3	96	48	7
NMTAP	57	144	1
NMHLD	57	168	1	120
NMTAP	57	288	7
NMTAP	57	336	4
NMTAP	57	336	5
NMTAP	58	0	0
NMTAP	58	0	6
NMTAP	58	48	3
NMTAP	58	48	4
NMSTR	58	96	1
NMSCR	58	96	1	96	48	4
NMTAP	58	96	7
NMTAP	58	144	5
NMTAP	58	168	5
NMSTR	58	192	1
NMSUR	58	192	1	96	48	5
NMTAP	58	240	7
NMTAP	58	264	7
NMTAP	58	288	1
NMTAP	58	336	0
NMTAP	59	0	1
NMTAP	59	0	7
NMTAP	59	48	3
NMTAP	59	48	6
NMTAP	59	96	2
NMSTR	59	96	4
NMSXL	59	96	4	96	96	3
NMTAP	59	144	0
NMHLD	59	168	0	72
NMTAP	59	312	2
NMTAP	59	336	2
NMTAP	59	360	3
NMHLD	60	0	1	72
NMHLD	60	0	4	72
EXTAP	60	96	2
EXTAP	60	96	3
NMHLD	60	144	3	72
NMHLD	60	144	6	72
EXTAP	60	240	4
EXTAP	60	240	5
NMTAP	60	288	2
NMTAP	60	288	3
NMTAP	60	336	0
NMSTR	60	336	7
NMSI_	60	336	7	96	48	1
NMTTP	61	48	1	A	0	M1
CNSI_	61	96	1	0	48	6
NMTTP	61	96	6	A	0	M1
NMTTP	61	144	2	A	0	M1
CNSI_	61	144	6	0	48	2
CNSI_	61	192	2	0	48	5
NMTTP	61	192	5	A	0	M1
CNSI_	61	240	5	0	48	3
NMTTP	61	288	1	B	0	M1
NMTTP	61	288	1	A	0	M1
NMTTP	61	288	2	B	0	M1
NMTTP	61	288	2	E	1	M1
NMTTP	61	288	2	A	0	M1
BRTAP	62	0	0
BRTAP	62	0	7
NMTAP	62	48	4
NMTAP	62	48	5
NMTAP	62	96	0
NMSTR	62	96	6
NMSCL	62	96	6	96	48	3
NMTAP	62	144	2
NMTAP	62	168	2
NMSTR	62	192	6
NMSUL	62	192	6	96	48	2
NMTAP	62	240	0
NMTAP	62	264	0
NMTAP	62	288	6
NMTAP	62	336	7
NMTAP	63	0	0
NMTAP	63	0	6
NMTAP	63	48	4
NMTAP	63	48	5
NMSTR	63	96	2
NMSI_	63	96	2	96	24	4
NMTAP	63	96	6
NMTAP	63	144	7
NMHLD	63	168	7	72
CNSCR	63	216	4	0	96	1
CNSI_	63	312	1	0	24	3
NMTAP	63	312	5
NMTAP	63	336	5
NMTAP	63	360	4
NMTAP	64	0	6
NMTAP	64	12	7
NMTAP	64	24	0
NMTAP	64	36	1
NMTAP	64	48	2
NMTAP	64	60	3
NMTAP	64	72	4
NMTAP	64	84	5
BRTAP	64	96	1
BRTAP	64	96	6
NMHLD	64	192	0	48
NMTAP	64	192	7
NMTAP	64	240	2
NMTAP	64	288	1
NMHLD	64	288	7	48
NMTAP	64	336	5
NMHLD	65	0	0	48
NMTAP	65	0	6
NMTAP	65	48	2
NMSTR	65	96	4
NMSI_	65	96	4	96	48	0
NMTAP	65	96	5
NMTAP	65	144	7
NMHLD	65	168	7	120
NMTAP	65	288	1
NMTAP	65	336	3
NMTAP	65	336	4
NMTAP	66	0	0
NMTAP	66	0	6
NMTAP	66	48	5
EXSTR	66	96	1
NMSI_	66	96	1	96	48	5
NMTAP	66	96	4
NMTAP	66	144	7
NMTAP	66	168	7
EXSTR	66	192	6
NMSI_	66	192	6	96	48	2
NMTAP	66	240	0
NMTAP	66	264	0
EXTAP	66	288	1
NMTAP	66	336	0
NMTAP	67	0	1
NMTAP	67	0	7
NMTAP	67	48	4
NMTAP	67	48	5
NMSTR	67	96	3
NMSXR	67	96	3	96	96	4
NMTAP	67	96	6
NMTAP	67	144	7
NMHLD	67	168	7	72
NMTAP	67	312	5
NMTAP	67	336	5
NMTAP	67	360	4
NMHLD	68	0	3	72
NMHLD	68	0	7	72
EXTAP	68	96	4
EXTAP	68	96	6
NMHLD	68	144	0	72
NMHLD	68	144	4	72
EXTAP	68	240	1
EXTAP	68	240	3
NMTAP	68	288	2
NMTAP	68	288	4
NMTAP	68	336	3
NMTAP	68	336	5
NMHLD	69	0	4	120
NMTAP	69	0	6
NMHLD	69	72	3	48
NMTAP	69	144	3
NMTAP	69	144	4
NMTTP	69	192	3	E	0	M1
NMTTP	69	240	7	E	0	M1
NMSTR	69	288	0
BRSI_	69	288	0	96	48	4
NMTTP	70	0	0	C	1	M1
NMTAP	70	72	5
NMTAP	70	144	5
NMTAP	70	216	4
NMHLD	70	288	4	96
NMTAP	71	0	3
NMTAP	71	72	3
NMTAP	71	144	2
NMTAP	71	216	2
EXSTR	71	288	1
NMSLR	71	288	1	96	48	5
EXTAP	71	288	5
EXTAP	71	312	1
EXTAP	71	312	5
EXTAP	71	336	1
EXSTR	71	336	5
NMSLR	71	336	5	96	48	1
EXTAP	71	360	1
EXTAP	71	360	5

T_REC_TAP	432
T_REC_BRK	16
T_REC_XTP	50
T_REC_BXX	1
T_REC_HLD	86
T_REC_XHO	2
T_REC_BHO	0
T_REC_BXH	0
T_REC_STR	34
T_REC_BST	0
T_REC_XST	4
T_REC_XBS	0
T_REC_TTP	85
T_REC_THO	0
T_REC_SLD	37
T_REC_BSL	1
T_REC_ALL	748
T_NUM_TAP	605
T_NUM_BRK	18
T_NUM_HLD	88
T_NUM_SLD	37
T_NUM_ALL	748
T_JUDGE_TAP	622
T_JUDGE_HLD	178
T_JUDGE_SLD	38
T_JUDGE_ALL	838
TTM_EACHPAIRS	136
TTM_SCR_TAP	302500
TTM_SCR_BRK	46800
TTM_SCR_HLD	88000
TTM_SCR_SLD	55500
TTM_SCR_ALL	492800
TTM_SCR_S	476300
TTM_SCR_SS	491000
TTM_RAT_ACV	10036

