VERSION	0.00.00	1.04.00
FES_MODE	0
BPM_DEF	130.000	130.000	130.000	130.000
MET_DEF	4	4
RESOLUTION	384
CLK_DEF	384
COMPATIBLE_CODE	MA2

BPM	0	0	130.000
MET	0	0	4	4

NMSTR	2	0	2
NMSCR	2	0	2	96	192	5
NMSTR	3	0	6
NMSUL	3	0	6	96	192	2
NMSTR	4	0	1
NMSCL	4	0	1	96	192	6
NMHLD	5	0	5	1728
NMTAP	5	192	4
NMTAP	6	0	3
NMTAP	6	96	3
NMTAP	6	192	4
NMTAP	6	288	4
NMTAP	7	0	2
NMTAP	7	96	2
NMTAP	7	192	6
NMTAP	7	288	6
NMTAP	8	0	0
NMTAP	8	96	0
NMTAP	8	192	7
NMTAP	8	288	7
NMHLD	9	0	1	192
BRTAP	9	288	0
BRTAP	9	288	6
NMHLD	10	0	1	96
NMTAP	10	96	0
EXTAP	10	168	0
EXTAP	10	168	1
EXTAP	10	240	2
EXTAP	10	240	7
EXTAP	10	288	2
EXTAP	10	288	7
NMHLD	11	0	6	96
NMTAP	11	96	7
EXTAP	11	168	6
EXTAP	11	168	7
EXTAP	11	240	0
EXTAP	11	240	5
EXTAP	11	288	0
EXTAP	11	288	5
NMHLD	12	0	2	96
NMTAP	12	96	3
EXTAP	12	168	2
EXTAP	12	168	3
EXTAP	12	240	1
EXTAP	12	240	4
EXTAP	12	288	1
EXTAP	12	288	4
NMHLD	13	0	5	96
NMTAP	13	96	4
EXTAP	13	168	4
EXTAP	13	168	5
EXTAP	13	240	3
EXTAP	13	240	6
EXTAP	13	288	3
EXTAP	13	288	6
NMTAP	14	0	1
NMTAP	14	48	1
NMTAP	14	96	0
NMTAP	14	96	1
NMTAP	14	192	6
NMTAP	14	240	6
NMTAP	14	288	6
NMTAP	14	288	7
NMTAP	15	0	2
NMTAP	15	48	2
NMTAP	15	96	1
NMTAP	15	96	3
NMTAP	15	192	5
NMTAP	15	240	5
NMTAP	15	288	4
NMTAP	15	288	6
NMHLD	16	0	5	96
NMHLD	16	0	7	96
NMHLD	16	144	0	96
NMHLD	16	144	2	96
NMTAP	16	288	1
NMTAP	16	288	5
NMSTR	16	336	1
NMSLR	16	336	1	96	144	7
NMSTR	16	336	5
NMSLL	16	336	5	96	144	7
BXTAP	17	288	0
BXTAP	17	288	6
NMHLD	18	0	1	96
NMHLD	18	96	3	96
NMHLD	18	192	4	96
NMHLD	18	288	6	96
NMHLD	19	0	0	96
NMHLD	19	96	2	96
NMHLD	19	192	4	96
NMHLD	19	288	6	96
NMTAP	20	0	0
NMTAP	20	48	0
NMTAP	20	96	2
NMTAP	20	144	2
NMTAP	20	192	4
NMTAP	20	240	4
NMTAP	20	288	6
NMTAP	21	0	4
NMTAP	21	0	5
NMTAP	21	72	2
NMTAP	21	72	3
NMTAP	21	144	0
NMTAP	21	144	7
BRTAP	21	192	0
BRTAP	21	192	7
NMSTR	22	0	0
NMSI_	22	0	0	96	48	4
NMSTR	22	0	1
NMSI_	22	0	1	96	48	4
NMSTR	22	192	6
NMSI_	22	192	6	96	48	3
NMSTR	22	192	7
NMSI_	22	192	7	96	48	3
NMSTR	23	0	0
NMSI_	23	0	0	96	48	4
NMSTR	23	0	1
NMSI_	23	0	1	96	48	4
NMTAP	23	192	6
NMTAP	23	192	7
NMTAP	23	288	4
NMTAP	23	288	5
NMTAP	23	336	4
NMTAP	23	336	5
NMTAP	24	48	2
NMTAP	24	48	3
NMTAP	24	96	2
NMTAP	24	96	3
NMHLD	24	192	1	72
NMHLD	24	264	0	72
NMTAP	24	336	7
NMTAP	25	48	0
NMTAP	25	48	6
NMTTP	25	144	0	E	0	M1
NMTTP	25	144	7	B	0	M1
NMTTP	25	192	5	B	0	M1
NMTTP	25	192	6	E	0	M1
NMTTP	25	240	1	B	0	M1
NMTTP	25	240	2	E	0	M1
NMTTP	25	288	3	B	0	M1
NMTTP	25	288	4	E	0	M1
NMSTR	26	0	6
NMSI_	26	0	6	96	48	3
NMSTR	26	0	7
NMSI_	26	0	7	96	48	3
NMSTR	26	192	0
NMSI_	26	192	0	96	48	4
NMSTR	26	192	1
NMSI_	26	192	1	96	48	4
NMSTR	27	0	6
NMSI_	27	0	6	96	48	3
NMSTR	27	0	7
NMSI_	27	0	7	96	48	3
NMTAP	27	192	0
NMTAP	27	192	1
NMTAP	27	288	2
NMTAP	27	288	3
NMTAP	27	336	2
NMTAP	27	336	3
NMTAP	28	48	4
NMTAP	28	48	5
NMTAP	28	96	4
NMTAP	28	96	5
NMTAP	28	192	6
NMTAP	28	240	6
NMTAP	28	288	7
NMHLD	28	336	7	96
NMHLD	29	48	0	96
NMTAP	29	144	1
NMTAP	29	192	1
NMTAP	29	288	0
NMTAP	29	288	7
NMSTR	30	0	6
NMSCL	30	0	6	96	48	3
NMSTR	30	0	7
NMSUL	30	0	7	96	48	3
NMSTR	30	192	0
NMSUR	30	192	0	96	48	4
NMSTR	30	192	1
NMSCR	30	192	1	96	48	4
NMSTR	31	0	6
NMSCL	31	0	6	96	48	3
NMSTR	31	0	7
NMSUL	31	0	7	96	48	3
NMTAP	31	192	0
NMTAP	31	192	1
NMTAP	31	288	2
NMTAP	31	288	3
NMTAP	31	336	2
NMTAP	31	336	3
NMTAP	32	48	4
NMTAP	32	48	5
NMTAP	32	96	4
NMTAP	32	96	5
NMHLD	32	192	6	72
NMHLD	32	264	7	72
NMTAP	32	336	0
NMTAP	33	48	1
NMTAP	33	48	7
NMTTP	33	144	0	E	0	M1
NMTTP	33	144	0	D	0	M1
NMTTP	33	192	2	E	0	M1
NMTTP	33	192	2	D	0	M1
NMTTP	33	240	6	E	0	M1
NMTTP	33	240	6	D	0	M1
NMTTP	33	288	4	E	0	M1
NMTTP	33	288	4	D	0	M1
NMSTR	34	0	0
NMSUR	34	0	0	96	48	5
NMSTR	34	0	1
NMSCR	34	0	1	96	48	4
NMSTR	34	192	6
NMSCL	34	192	6	96	48	3
NMSTR	34	192	7
NMSUL	34	192	7	96	48	2
NMSTR	35	0	0
NMSUR	35	0	0	96	48	5
NMSTR	35	0	1
NMSCR	35	0	1	96	48	4
NMTAP	35	192	6
NMTAP	35	192	7
NMTAP	35	288	0
NMTAP	35	288	4
NMTAP	35	336	0
NMTAP	35	336	4
NMTAP	36	48	3
NMTAP	36	48	6
NMTAP	36	96	3
NMTAP	36	96	6
NMTAP	36	192	2
NMTAP	36	240	2
NMTAP	36	336	1
NMTAP	36	336	3
NMTAP	37	48	4
NMTAP	37	48	6
NMTAP	37	144	2
NMTAP	37	144	5
NMTAP	37	192	2
NMTAP	37	192	5
BRTAP	37	288	0
BRTAP	37	288	7
NMHLD	38	0	1	768
NMTTP	38	96	0	E	0	M1
NMTTP	38	288	2	E	0	M1
NMTTP	39	96	6	E	0	M1
NMTTP	39	288	4	E	0	M1
NMHLD	40	0	6	768
NMTTP	40	96	7	A	0	M1
NMTTP	40	288	1	A	0	M1
NMTTP	41	96	5	A	0	M1
NMTTP	41	288	3	A	0	M1
NMHLD	42	0	2	192
NMTAP	42	96	3
NMHLD	42	192	5	192
NMTAP	42	288	4
NMHLD	43	0	1	192
NMTAP	43	96	3
NMHLD	43	192	6	192
NMTAP	43	288	4
NMHLD	44	0	0	192
NMTAP	44	96	2
NMHLD	44	192	7	96
NMSTR	44	288	5
NMSXR	44	288	5	96	192	7
NMTAP	45	288	0
NMTAP	45	288	6
BXHLD	46	0	1	96
BXHLD	46	0	4	96
BXHLD	46	144	2	96
BXHLD	46	144	7	96
BXTAP	46	288	1
BXTAP	46	288	5
BXSTR	46	336	1
NMSXL	46	336	1	96	168	4
BXSTR	46	336	5
NMSXL	46	336	5	96	168	0
NMTAP	47	288	3
NMTAP	47	288	7
BXHLD	48	0	3	96
BXHLD	48	0	6	96
BXHLD	48	144	0	96
BXHLD	48	144	5	96
BXTAP	48	288	2
BXTAP	48	288	6
BXSTR	48	336	2
NMSI_	48	336	2	96	96	7
BXSTR	48	336	6
NMSI_	48	336	6	96	96	3
CNSI_	49	144	3	0	48	5
CNSI_	49	144	7	0	48	1
NMTAP	49	288	1
NMTAP	49	288	5
NMHLD	50	0	6	384
NMTAP	50	96	7
NMTAP	50	144	7
NMTAP	50	240	0
NMTAP	50	288	0
NMHLD	51	0	1	384
NMTAP	51	96	0
NMTAP	51	144	0
NMTAP	51	240	7
NMTAP	51	288	7
NMTAP	52	0	6
NMTAP	52	96	4
NMTAP	52	96	5
NMTAP	52	144	4
NMTAP	52	144	5
NMTAP	52	240	2
NMTAP	52	240	3
NMTAP	52	288	2
NMTAP	52	288	3
NMTTP	53	0	0	C	1	M1
NMTAP	53	288	0
NMTAP	53	288	7
NMHLD	54	0	0	48
NMHLD	54	0	1	48
NMHLD	54	96	4	48
NMHLD	54	96	6	48
NMHLD	54	192	2	48
NMHLD	54	192	3	48
NMHLD	54	288	4	48
NMHLD	54	288	5	48
NMHLD	55	0	1	48
NMHLD	55	0	3	48
NMHLD	55	96	6	48
NMHLD	55	96	7	48
NMTAP	55	192	0
NMTAP	55	192	1
NMTAP	55	240	0
NMTAP	55	240	1
NMTAP	55	288	2
NMSTR	55	288	7
NMSCL	55	288	7	96	96	2
BXHLD	56	96	0	96
NMTAP	56	192	1
NMTAP	56	288	1
NMTAP	56	288	7
NMTAP	56	336	1
NMTAP	56	336	7
NMSTR	57	48	2
NMSCL	57	48	2	96	72	7
NMSTR	57	48	3
NMSCR	57	48	3	96	72	6
NMTAP	57	288	6
NMTAP	57	288	7
NMHLD	58	0	6	48
NMHLD	58	0	7	48
NMHLD	58	96	1	48
NMHLD	58	96	3	48
NMHLD	58	192	4	48
NMHLD	58	192	5	48
NMHLD	58	288	2	48
NMHLD	58	288	3	48
NMHLD	59	0	4	48
NMHLD	59	0	6	48
NMHLD	59	96	0	48
NMHLD	59	96	1	48
NMTAP	59	192	6
NMTAP	59	192	7
NMTAP	59	240	6
NMTAP	59	240	7
NMTAP	59	288	0
NMTAP	59	288	5
NMTTP	60	0	1	A	0	M1
NMTTP	60	0	2	B	1	M1
NMTTP	60	0	2	E	0	M1
NMTTP	60	0	3	E	0	M1
NMTTP	60	0	3	A	0	M1
NMTTP	60	144	4	A	0	M1
NMTTP	60	144	5	B	1	M1
NMTTP	60	144	5	E	0	M1
NMTTP	60	144	6	E	0	M1
NMTTP	60	144	6	A	0	M1
NMSTR	60	288	0
NMSI_	60	288	0	96	96	2
NMSTR	60	288	7
NMSI_	60	288	7	96	96	5
CNSCR	61	96	2	0	24	3
CNSCL	61	96	5	0	24	4
CNSV_	61	120	3	0	72	1
CNSV_	61	120	4	0	72	6
BRTAP	61	288	0
BRTAP	61	288	7
NMHLD	62	0	4	48
NMHLD	62	0	6	48
NMHLD	62	96	0	48
NMHLD	62	96	2	48
NMHLD	62	192	6	48
NMHLD	62	192	7	48
NMHLD	62	288	1	48
NMHLD	62	288	3	48
NMHLD	63	0	5	48
NMHLD	63	0	6	48
NMHLD	63	96	0	48
NMHLD	63	96	1	48
NMTAP	63	192	2
NMTAP	63	192	3
NMTAP	63	240	1
NMTAP	63	240	4
NMSTR	63	288	0
NMSCR	63	288	0	96	96	5
NMTAP	63	288	5
BXHLD	64	96	7	96
NMTAP	64	192	6
NMTAP	64	288	0
NMTAP	64	288	6
NMTAP	64	336	0
NMTAP	64	336	6
NMSTR	65	48	4
NMSCL	65	48	4	96	72	1
NMSTR	65	48	5
NMSCR	65	48	5	96	72	0
NMTAP	65	288	0
NMTAP	65	288	1
NMHLD	66	0	1	48
NMHLD	66	0	3	48
NMHLD	66	96	5	48
NMHLD	66	96	7	48
NMHLD	66	192	0	48
NMHLD	66	192	1	48
NMHLD	66	288	4	48
NMHLD	66	288	6	48
NMHLD	67	0	1	48
NMHLD	67	0	2	48
NMHLD	67	96	6	48
NMHLD	67	96	7	48
NMTAP	67	192	4
NMTAP	67	192	5
NMTAP	67	240	3
NMTAP	67	240	6
NMTAP	67	288	2
NMTAP	67	288	7
BXSTR	68	0	6
NMSI_	68	0	6	96	48	2
BXSTR	68	144	1
NMSI_	68	144	1	96	48	5
BXSTR	68	288	7
NMSF_	68	288	7	96	192	3
NMTAP	69	288	2
NMTAP	69	288	4
BRHLD	70	0	0	576
BRSTR	70	0	6
BRSV_	70	0	6	96	144	0
CNSCR	70	240	0	0	48	1
CNSLR	70	288	1	0	240	5
CNSCR	71	144	5	0	48	6
EXSTR	71	288	0
NMSI_	71	288	0	96	48	4
EXTAP	71	312	7
EXTAP	71	336	0
EXTAP	71	360	7

T_REC_TAP	179
T_REC_BRK	8
T_REC_XTP	27
T_REC_BXX	6
T_REC_HLD	82
T_REC_XHO	0
T_REC_BHO	1
T_REC_BXH	10
T_REC_STR	38
T_REC_BST	1
T_REC_XST	1
T_REC_XBS	7
T_REC_TTP	35
T_REC_THO	0
T_REC_SLD	46
T_REC_BSL	1
T_REC_ALL	442
T_NUM_TAP	280
T_NUM_BRK	34
T_NUM_HLD	82
T_NUM_SLD	46
T_NUM_ALL	442
T_JUDGE_TAP	302
T_JUDGE_HLD	234
T_JUDGE_SLD	47
T_JUDGE_ALL	583
TTM_EACHPAIRS	130
TTM_SCR_TAP	140000
TTM_SCR_BRK	88400
TTM_SCR_HLD	82000
TTM_SCR_SLD	69000
TTM_SCR_ALL	379400
TTM_SCR_S	364750
TTM_SCR_SS	376000
TTM_RAT_ACV	10090

